osu file format v14

[General]
AudioFilename: audio.mp3
AudioLeadIn: 0
PreviewTime: 48
Countdown: 0
SampleSet: None
StackLeniency: 0.7
Mode: 2
LetterboxInBreaks: 0
WidescreenStoryboard: 0

[Editor]
Bookmarks: 517,4267,8017,11767,15517,19267,23017,26767,30517
DistanceSpacing: 2.3
BeatDivisor: 4
GridSize: 32
TimelineZoom: 2

[Metadata]
Title:Let Me Hit It (Audiostalkers Original Mix)
TitleUnicode:Let Me Hit It (Audiostalkers Original Mix)
Artist:Sporty-O
ArtistUnicode:Sporty-O
Creator:eiri-
Version:Benny's Rain
Source:
Tags:Ayyri Benny- Benita BennyBananas Shiinoha Kotone Tomadoi Sotarks Dubstep Drop it Cut Ver illeven eleven illeven:eleven ILL-018
BeatmapID:1656676
BeatmapSetID:788905

[Difficulty]
HPDrainRate:6
CircleSize:4.2
OverallDifficulty:8.6
ApproachRate:8.6
SliderMultiplier:2.1
SliderTickRate:1

[Events]
//Background and Video events
0,0,"Let Me Hit It.jpg",0,0
//Break Periods
//Storyboard Layer 0 (Background)
//Storyboard Layer 1 (Fail)
//Storyboard Layer 2 (Pass)
//Storyboard Layer 3 (Foreground)
//Storyboard Sound Samples

[TimingPoints]
517,468.75,4,3,1,75,1,0
14931,-100,4,3,1,5,0,0
15048,-100,4,3,1,75,0,0

[Colours]
Combo1 : 83,166,166
Combo2 : 0,92,185
Combo3 : 236,236,0
Combo4 : 0,240,240

[HitObjects]
303,327,517,6,0,L|271:199,1,105,4|0,1:0|0:0,0:0:0:0:
445,217,985,2,0,L|473:100,1,105,8|0,0:2|0:0,0:0:0:0:
300,82,1454,2,0,L|430:78,1,105,0|0,1:0|0:0,0:0:0:0:
80,187,1923,2,0,L|68:312,1,105,8|0,0:2|0:0,0:0:0:0:
362,315,2392,5,0,1:0:0:0:
194,244,2626,1,0,0:0:0:0:
484,252,2860,2,0,L|492:124,1,105,8|0,0:2|0:0,0:0:0:0:
190,222,3329,1,0,1:0:0:0:
347,158,3563,1,0,0:0:0:0:
53,190,3797,2,0,L|39:63,1,105,8|0,0:2|0:0,0:0:0:0:
340,152,4267,6,0,L|218:103,1,105,0|0,1:0|0:0,0:0:0:0:
410,205,4735,2,0,L|376:312,1,105,8|0,0:2|0:0,0:0:0:0:
210,308,5204,2,0,L|82:309,1,105,0|0,1:0|0:0,0:0:0:0:
396,270,5673,2,0,L|512:262,1,105,8|0,0:2|0:0,0:0:0:0:
209,260,6142,5,2,1:2:0:0:
156,224,6259,1,2,0:2:0:0:
155,162,6376,1,2,0:2:0:0:
205,126,6493,1,2,0:2:0:0:
399,230,6610,1,10,0:2:0:0:
452,199,6727,1,2,0:2:0:0:
457,136,6844,1,2,0:2:0:0:
408,96,6961,1,2,0:2:0:0:
201,87,7079,5,2,1:2:0:0:
250,82,7196,1,2,0:2:0:0:
300,78,7313,1,2,0:2:0:0:
350,74,7430,1,2,0:2:0:0:
170,174,7548,2,0,L|113:205,1,52.5,2|2,1:2|0:2,0:0:0:0:
297,239,7782,2,0,L|349:273,1,52.5,2|2,0:2|0:2,0:0:0:0:
125,319,8017,6,0,L|90:197,1,105,0|0,1:0|0:0,0:0:0:0:
264,216,8485,2,0,L|236:99,1,105,8|0,0:2|0:0,0:0:0:0:
408,101,8954,2,0,L|368:0,1,105,0|0,1:0|0:0,0:0:0:0:
78,173,9423,2,0,L|62:309,1,105,8|0,0:2|0:0,0:0:0:0:
357,308,9892,5,0,1:0:0:0:
187,226,10126,1,0,0:0:0:0:
477,219,10360,1,8,0:2:0:0:
306,150,10595,1,0,0:0:0:0:
477,219,10829,1,0,1:0:0:0:
337,114,11063,1,0,0:0:0:0:
25,223,11298,1,8,0:2:0:0:
193,175,11532,1,0,0:0:0:0:
485,192,11767,6,0,L|489:305,1,105,0|0,1:0|0:0,0:0:0:0:
321,298,12235,2,0,L|314:179,1,105,8|0,0:2|0:0,0:0:0:0:
146,198,12704,2,0,L|138:335,1,105,0|0,1:0|0:0,0:0:0:0:
465,303,13173,2,0,L|468:172,1,105,8|0,0:2|0:0,0:0:0:0:
137,195,13642,5,2,1:2:0:0:
85,173,13759,1,2,0:2:0:0:
71,116,13876,1,2,0:2:0:0:
111,67,13993,1,2,0:2:0:0:
312,61,14110,1,10,0:2:0:0:
371,89,14227,1,2,0:2:0:0:
384,142,14345,1,2,0:2:0:0:
337,193,14462,1,2,0:2:0:0:
218,217,14579,6,0,L|229:394,1,157.5,2|0,0:2|0:0,0:0:0:0:
354,370,15048,2,0,L|472:361,1,105
92,346,15517,6,0,L|68:218,1,105,4|0,1:0|0:0,0:0:0:0:
277,247,15985,2,0,L|390:218,1,105,8|0,0:2|0:0,0:0:0:0:
212,82,16454,2,0,L|82:78,1,105,0|0,1:0|0:0,0:0:0:0:
432,187,16923,2,0,L|444:312,1,105,8|0,0:2|0:0,0:0:0:0:
150,315,17392,5,0,1:0:0:0:
318,244,17626,1,0,0:0:0:0:
28,252,17860,2,0,L|20:124,1,105,8|0,0:2|0:0,0:0:0:0:
322,222,18329,1,0,1:0:0:0:
165,158,18563,1,0,0:0:0:0:
459,190,18797,2,0,L|473:63,1,105,8|0,0:2|0:0,0:0:0:0:
172,152,19267,6,0,L|27:136,1,105,0|0,1:0|0:0,0:0:0:0:
235,264,19735,2,0,L|353:278,1,105,8|0,0:2|0:0,0:0:0:0:
508,255,20204,2,0,L|383:236,1,105,0|0,1:0|0:0,0:0:0:0:
69,323,20673,2,0,L|28:215,1,105,8|0,0:2|0:0,0:0:0:0:
327,259,21142,5,2,1:2:0:0:
342,219,21259,1,2,0:2:0:0:
331,174,21376,1,2,0:2:0:0:
277,148,21493,1,2,0:2:0:0:
66,230,21610,1,10,0:2:0:0:
54,188,21727,1,2,0:2:0:0:
78,145,21844,1,2,0:2:0:0:
135,129,21961,1,2,0:2:0:0:
330,133,22079,5,2,1:2:0:0:
375,171,22196,1,2,0:2:0:0:
360,230,22313,1,2,0:2:0:0:
305,243,22430,1,2,0:2:0:0:
114,282,22548,2,0,L|82:357,1,52.5,2|2,1:2|0:2,0:0:0:0:
314,314,22782,2,0,L|324:379,1,52.5,2|2,0:2|0:2,0:0:0:0:
109,292,23017,6,0,L|74:170,1,105,0|0,1:0|0:0,0:0:0:0:
248,209,23485,2,0,L|218:83,1,105,8|0,0:2|0:0,0:0:0:0:
55,118,23954,2,0,L|111:-11,1,105,0|0,1:0|0:0,0:0:0:0:
418,52,24423,2,0,L|494:147,1,105,8|0,0:2|0:0,0:0:0:0:
191,295,24892,5,0,1:0:0:0:
359,213,25126,1,0,0:0:0:0:
58,209,25360,1,8,0:2:0:0:
229,140,25595,1,0,0:0:0:0:
58,209,25829,1,0,1:0:0:0:
198,104,26063,1,0,0:0:0:0:
489,223,26298,1,8,0:2:0:0:
321,175,26532,1,0,0:0:0:0:
27,192,26767,6,0,L|141:222,1,105,0|0,1:0|0:0,0:0:0:0:
296,238,27235,2,0,L|303:119,1,105,8|0,0:2|0:0,0:0:0:0:
471,160,27704,2,0,L|366:206,1,105,0|0,1:0|0:0,0:0:0:0:
28,254,28173,2,0,L|84:144,1,105,8|0,0:2|0:0,0:0:0:0:
242,257,28642,6,0,L|333:254,2,70,2|2|2,0:2|0:2|0:2,0:0:0:0:
102,261,29110,2,0,L|12:258,2,70,2|2|2,0:2|0:2|0:2,0:0:0:0:
243,220,29579,2,0,L|236:137,1,70,2|2,0:2|0:2,0:0:0:0:
157,126,29892,1,2,0:2:0:0:
24,121,30048,2,0,L|47:28,1,70,2|2,0:2|0:2,0:0:0:0:
125,29,30360,1,2,0:2:0:0:
385,68,30517,5,4,0:0:0:0:
