osu file format v14

[General]
AudioFilename: audio.mp3
AudioLeadIn: 0
PreviewTime: 48
Countdown: 1
SampleSet: None
StackLeniency: 0.7
Mode: 3
LetterboxInBreaks: 0
SpecialStyle: 0
WidescreenStoryboard: 1

[Editor]
DistanceSpacing: 0.3
BeatDivisor: 4
GridSize: 32
TimelineZoom: 1

[Metadata]
Title:Let Me Hit It (Audiostalkers Original Mix)
TitleUnicode:Let Me Hit It (Audiostalkers Original Mix)
Artist:Sporty-O
ArtistUnicode:Sporty-O
Creator:SoldatRacer
Version:4K HD
Source:
Tags:cut version
BeatmapID:1757280
BeatmapSetID:839456

[Difficulty]
HPDrainRate:7.5
CircleSize:4
OverallDifficulty:7.5
ApproachRate:5
SliderMultiplier:1.4
SliderTickRate:1

[Events]
//Background and Video events
0,0,"Kurumi-chan.png",0,0
//Break Periods
//Storyboard Layer 0 (Background)
//Storyboard Layer 1 (Fail)
//Storyboard Layer 2 (Pass)
//Storyboard Layer 3 (Foreground)
//Storyboard Sound Samples

[TimingPoints]
517,468.75,4,2,0,100,1,0

[HitObjects]
64,192,517,5,0,0:0:0:0:
320,192,517,128,0,985:0:0:0:0:
192,192,751,1,0,0:0:0:0:
64,192,985,1,0,0:0:0:0:
448,192,985,1,0,0:0:0:0:
192,192,1220,1,0,0:0:0:0:
64,192,1454,128,0,1923:0:0:0:0:
448,192,1454,1,0,0:0:0:0:
320,192,1688,1,0,0:0:0:0:
192,192,1923,1,0,0:0:0:0:
448,192,1923,128,0,2392:0:0:0:0:
320,192,2392,1,0,0:0:0:0:
64,192,2392,1,0,0:0:0:0:
192,192,2626,1,0,0:0:0:0:
320,192,2860,1,0,0:0:0:0:
448,192,2860,1,0,0:0:0:0:
64,192,3095,1,0,0:0:0:0:
192,192,3329,1,0,0:0:0:0:
448,192,3329,1,0,0:0:0:0:
320,192,3563,1,0,0:0:0:0:
192,192,3798,1,0,0:0:0:0:
64,192,3798,1,0,0:0:0:0:
320,192,4032,1,0,0:0:0:0:
448,192,4267,128,0,4735:0:0:0:0:
64,192,4267,1,0,0:0:0:0:
320,192,4501,1,0,0:0:0:0:
192,192,4735,1,0,0:0:0:0:
64,192,4735,1,0,0:0:0:0:
320,192,4970,1,0,0:0:0:0:
64,192,5204,128,0,5673:0:0:0:0:
448,192,5204,1,0,0:0:0:0:
192,192,5438,1,0,0:0:0:0:
320,192,5673,1,0,0:0:0:0:
448,192,5673,128,0,6142:0:0:0:0:
192,192,5907,1,0,0:0:0:0:
64,192,6142,1,0,0:0:0:0:
320,192,6142,1,0,0:0:0:0:
192,192,6259,1,0,0:0:0:0:
320,192,6376,1,0,0:0:0:0:
448,192,6493,1,0,0:0:0:0:
64,192,6610,1,0,0:0:0:0:
192,192,6727,1,0,0:0:0:0:
320,192,6845,1,0,0:0:0:0:
448,192,6962,1,0,0:0:0:0:
320,192,7079,1,0,0:0:0:0:
192,192,7196,1,0,0:0:0:0:
64,192,7313,1,0,0:0:0:0:
448,192,7431,1,0,0:0:0:0:
320,192,7548,1,0,0:0:0:0:
192,192,7665,1,0,0:0:0:0:
64,192,7782,1,0,0:0:0:0:
448,192,7899,1,0,0:0:0:0:
320,192,8017,1,0,0:0:0:0:
192,192,8017,128,0,8485:0:0:0:0:
64,192,8251,1,0,0:0:0:0:
448,192,8485,1,0,0:0:0:0:
320,192,8485,1,0,0:0:0:0:
64,192,8720,1,0,0:0:0:0:
320,192,8954,128,0,9423:0:0:0:0:
448,192,8954,1,0,0:0:0:0:
192,192,9188,1,0,0:0:0:0:
64,192,9423,128,0,9892:0:0:0:0:
448,192,9423,1,0,0:0:0:0:
192,192,9657,1,0,0:0:0:0:
448,192,9892,1,0,0:0:0:0:
320,192,9892,128,0,10126:0:0:0:0:
192,192,10126,1,0,0:0:0:0:
64,192,10360,128,0,10595:0:0:0:0:
448,192,10360,1,0,0:0:0:0:
320,192,10595,1,0,0:0:0:0:
192,192,10829,128,0,11063:0:0:0:0:
448,192,10829,1,0,0:0:0:0:
64,192,11063,1,0,0:0:0:0:
320,192,11298,128,0,11532:0:0:0:0:
448,192,11298,1,0,0:0:0:0:
64,192,11532,1,0,0:0:0:0:
192,192,11767,1,0,0:0:0:0:
448,192,11767,128,0,12235:0:0:0:0:
64,192,12001,1,0,0:0:0:0:
320,192,12235,1,0,0:0:0:0:
192,192,12235,1,0,0:0:0:0:
64,192,12470,1,0,0:0:0:0:
320,192,12704,128,0,13173:0:0:0:0:
448,192,12704,1,0,0:0:0:0:
192,192,12938,1,0,0:0:0:0:
64,192,13173,128,0,13642:0:0:0:0:
448,192,13173,1,0,0:0:0:0:
448,192,13407,1,0,0:0:0:0:
192,192,13642,1,0,0:0:0:0:
320,192,13642,1,0,0:0:0:0:
448,192,13759,1,0,0:0:0:0:
64,192,13876,1,0,0:0:0:0:
192,192,13993,1,0,0:0:0:0:
320,192,14110,1,0,0:0:0:0:
448,192,14227,1,0,0:0:0:0:
64,192,14345,1,0,0:0:0:0:
192,192,14462,1,0,0:0:0:0:
320,192,14579,128,0,15048:0:0:0:0:
448,192,15048,128,0,15517:0:0:0:0:
320,192,15517,1,0,0:0:0:0:
64,192,15517,128,0,15985:0:0:0:0:
192,192,15751,1,0,0:0:0:0:
320,192,15985,1,0,0:0:0:0:
448,192,15985,1,0,0:0:0:0:
192,192,16220,1,0,0:0:0:0:
64,192,16454,1,0,0:0:0:0:
320,192,16454,128,0,16923:0:0:0:0:
448,192,16688,1,0,0:0:0:0:
64,192,16923,1,0,0:0:0:0:
448,192,16923,128,0,17392:0:0:0:0:
192,192,17157,1,0,0:0:0:0:
320,192,17392,1,0,0:0:0:0:
64,192,17392,1,0,0:0:0:0:
192,192,17626,1,0,0:0:0:0:
448,192,17860,1,0,0:0:0:0:
64,192,17860,1,0,0:0:0:0:
320,192,18095,1,0,0:0:0:0:
192,192,18329,1,0,0:0:0:0:
64,192,18329,1,0,0:0:0:0:
320,192,18563,1,0,0:0:0:0:
192,192,18798,1,0,0:0:0:0:
448,192,18798,1,0,0:0:0:0:
320,192,19032,1,0,0:0:0:0:
64,192,19267,1,0,0:0:0:0:
448,192,19267,128,0,19735:0:0:0:0:
192,192,19501,1,0,0:0:0:0:
64,192,19735,1,0,0:0:0:0:
320,192,19735,1,0,0:0:0:0:
192,192,19970,1,0,0:0:0:0:
320,192,20204,128,0,20673:0:0:0:0:
448,192,20204,1,0,0:0:0:0:
192,192,20438,1,0,0:0:0:0:
64,192,20673,1,0,0:0:0:0:
448,192,20673,1,0,0:0:0:0:
192,192,20907,1,0,0:0:0:0:
448,192,21142,1,0,0:0:0:0:
64,192,21142,1,0,0:0:0:0:
320,192,21259,1,0,0:0:0:0:
192,192,21376,1,0,0:0:0:0:
64,192,21493,1,0,0:0:0:0:
448,192,21610,1,0,0:0:0:0:
320,192,21727,1,0,0:0:0:0:
192,192,21845,1,0,0:0:0:0:
64,192,21962,1,0,0:0:0:0:
192,192,22079,1,0,0:0:0:0:
320,192,22196,1,0,0:0:0:0:
448,192,22313,1,0,0:0:0:0:
64,192,22431,1,0,0:0:0:0:
192,192,22548,1,0,0:0:0:0:
320,192,22665,1,0,0:0:0:0:
448,192,22782,1,0,0:0:0:0:
64,192,22899,1,0,0:0:0:0:
192,192,23017,1,0,0:0:0:0:
320,192,23017,128,0,23485:0:0:0:0:
448,192,23251,1,0,0:0:0:0:
64,192,23485,1,0,0:0:0:0:
192,192,23485,1,0,0:0:0:0:
448,192,23720,1,0,0:0:0:0:
192,192,23954,1,0,0:0:0:0:
64,192,23954,128,0,24423:0:0:0:0:
448,192,24188,1,0,0:0:0:0:
320,192,24423,128,0,24892:0:0:0:0:
192,192,24423,1,0,0:0:0:0:
64,192,24657,1,0,0:0:0:0:
192,192,24892,1,0,0:0:0:0:
448,192,24892,128,0,25126:0:0:0:0:
64,192,25126,1,0,0:0:0:0:
192,192,25360,128,0,25595:0:0:0:0:
320,192,25360,1,0,0:0:0:0:
448,192,25595,1,0,0:0:0:0:
320,192,25829,128,0,26063:0:0:0:0:
64,192,25829,1,0,0:0:0:0:
192,192,26063,1,0,0:0:0:0:
64,192,26298,128,0,26532:0:0:0:0:
448,192,26298,1,0,0:0:0:0:
320,192,26532,1,0,0:0:0:0:
448,192,26767,1,0,0:0:0:0:
192,192,26767,128,0,27235:0:0:0:0:
64,192,27001,1,0,0:0:0:0:
320,192,27235,1,0,0:0:0:0:
448,192,27235,1,0,0:0:0:0:
64,192,27470,1,0,0:0:0:0:
320,192,27704,128,0,28173:0:0:0:0:
448,192,27704,1,0,0:0:0:0:
64,192,27938,1,0,0:0:0:0:
192,192,28173,1,0,0:0:0:0:
448,192,28173,128,0,28642:0:0:0:0:
64,192,28407,1,0,0:0:0:0:
320,192,28642,1,0,0:0:0:0:
192,192,28798,1,0,0:0:0:0:
64,192,28954,1,0,0:0:0:0:
448,192,29110,1,0,0:0:0:0:
320,192,29267,1,0,0:0:0:0:
192,192,29423,1,0,0:0:0:0:
64,192,29579,1,0,0:0:0:0:
448,192,29735,1,0,0:0:0:0:
320,192,29892,1,0,0:0:0:0:
192,192,30048,1,0,0:0:0:0:
64,192,30204,1,0,0:0:0:0:
448,192,30360,1,0,0:0:0:0:
320,192,30517,1,0,0:0:0:0:
64,192,30517,1,0,0:0:0:0:
