osu file format v14

[General]
AudioFilename: audio.mp3
AudioLeadIn: 0
PreviewTime: 48
Countdown: 1
SampleSet: None
StackLeniency: 0.7
Mode: 3
LetterboxInBreaks: 0
SpecialStyle: 0
WidescreenStoryboard: 1

[Editor]
DistanceSpacing: 0.3
BeatDivisor: 3
GridSize: 32
TimelineZoom: 1

[Metadata]
Title:Let Me Hit It (Audiostalkers Original Mix)
TitleUnicode:Let Me Hit It (Audiostalkers Original Mix)
Artist:Sporty-O
ArtistUnicode:Sporty-O
Creator:SoldatRacer
Version:4K EZ
Source:
Tags:cut version
BeatmapID:1757279
BeatmapSetID:839456

[Difficulty]
HPDrainRate:6
CircleSize:4
OverallDifficulty:6
ApproachRate:5
SliderMultiplier:1.4
SliderTickRate:1

[Events]
//Background and Video events
0,0,"Kurumi-chan.png",0,0
//Break Periods
//Storyboard Layer 0 (Background)
//Storyboard Layer 1 (Fail)
//Storyboard Layer 2 (Pass)
//Storyboard Layer 3 (Foreground)
//Storyboard Sound Samples

[TimingPoints]
517,468.75,4,2,0,100,1,0

[HitObjects]
64,192,517,5,0,0:0:0:0:
192,192,985,1,0,0:0:0:0:
320,192,1454,1,0,0:0:0:0:
448,192,1923,1,0,0:0:0:0:
192,192,2392,1,0,0:0:0:0:
64,192,2860,1,0,0:0:0:0:
320,192,3329,1,0,0:0:0:0:
448,192,3798,1,0,0:0:0:0:
192,192,4267,1,0,0:0:0:0:
64,192,4735,1,0,0:0:0:0:
320,192,5204,1,0,0:0:0:0:
192,192,5673,1,0,0:0:0:0:
448,192,6142,128,0,6610:0:0:0:0:
192,192,6610,128,0,7079:0:0:0:0:
320,192,7079,128,0,7548:0:0:0:0:
64,192,7548,128,0,8017:0:0:0:0:
448,192,8017,1,0,0:0:0:0:
192,192,8485,1,0,0:0:0:0:
320,192,8954,1,0,0:0:0:0:
64,192,9423,1,0,0:0:0:0:
192,192,9892,1,0,0:0:0:0:
448,192,10360,1,0,0:0:0:0:
320,192,10829,1,0,0:0:0:0:
64,192,11298,1,0,0:0:0:0:
192,192,11767,1,0,0:0:0:0:
320,192,12235,1,0,0:0:0:0:
448,192,12704,1,0,0:0:0:0:
192,192,13173,1,0,0:0:0:0:
320,192,13642,128,0,14110:0:0:0:0:
64,192,14110,128,0,14579:0:0:0:0:
448,192,14579,128,0,15048:0:0:0:0:
192,192,15048,128,0,15517:0:0:0:0:
320,192,15517,1,0,0:0:0:0:
64,192,15985,1,0,0:0:0:0:
320,192,16454,1,0,0:0:0:0:
192,192,16923,1,0,0:0:0:0:
448,192,17392,1,0,0:0:0:0:
320,192,17860,1,0,0:0:0:0:
192,192,18329,1,0,0:0:0:0:
64,192,18798,1,0,0:0:0:0:
192,192,19267,1,0,0:0:0:0:
320,192,19735,1,0,0:0:0:0:
448,192,20204,1,0,0:0:0:0:
320,192,20673,1,0,0:0:0:0:
64,192,21142,128,0,21610:0:0:0:0:
192,192,21610,128,0,22079:0:0:0:0:
448,192,22079,128,0,22548:0:0:0:0:
64,192,22548,128,0,23017:0:0:0:0:
320,192,23017,1,0,0:0:0:0:
448,192,23485,1,0,0:0:0:0:
192,192,23954,1,0,0:0:0:0:
64,192,24423,1,0,0:0:0:0:
320,192,24892,1,0,0:0:0:0:
448,192,25360,1,0,0:0:0:0:
192,192,25829,1,0,0:0:0:0:
64,192,26298,1,0,0:0:0:0:
320,192,26767,1,0,0:0:0:0:
448,192,27235,1,0,0:0:0:0:
192,192,27704,1,0,0:0:0:0:
64,192,28173,1,0,0:0:0:0:
192,192,28642,128,0,29110:0:0:0:0:
320,192,29110,128,0,29579:0:0:0:0:
448,192,29579,128,0,30048:0:0:0:0:
64,192,30048,128,0,30517:0:0:0:0:
192,192,30517,1,0,0:0:0:0:
