osu file format v14

[General]
AudioFilename: audio.mp3
AudioLeadIn: 0
PreviewTime: 91346
Countdown: 0
SampleSet: None
StackLeniency: 0.2
Mode: 0
LetterboxInBreaks: 0
WidescreenStoryboard: 1

[Editor]
Bookmarks: 26506,48831,71157,93483,95743,96092,115808,138134,160459,182785,182872,183046,183221,183308,183483,183657,183831,183919,184093,184267,184355,184529,184703,184878,185052,185140,185314,185488,185576,205110,227436,249762,272087,294413,316738
DistanceSpacing: 1.7
BeatDivisor: 4
GridSize: 16
TimelineZoom: 2

[Metadata]
Title:Mind Of An Insomniac feat. Icicle & Linguistics
TitleUnicode:Mind Of An Insomniac feat. Icicle & Linguistics
Artist:Spor
ArtistUnicode:Spor
Creator:Slips
Version:Zopiclone
Source:
Tags:
BeatmapID:1906723
BeatmapSetID:912717

[Difficulty]
HPDrainRate:5.5
CircleSize:4
OverallDifficulty:9.5
ApproachRate:9.5
SliderMultiplier:2.5
SliderTickRate:1

[Events]
//Background and Video events
0,0,"IMG_3352 (1).jpg",0,0
//Break Periods
//Storyboard Layer 0 (Background)
//Storyboard Layer 1 (Fail)
//Storyboard Layer 2 (Pass)
//Storyboard Layer 3 (Foreground)
//Storyboard Sound Samples

[TimingPoints]
1383,348.837209302326,4,1,1,60,1,0
1383,-400,4,1,1,60,0,0
26499,-100,4,1,1,60,0,0
39929,-50,4,1,1,60,0,0
40452,-100,4,1,1,60,0,0
45510,-50,4,1,1,60,0,0
46034,-100,4,1,1,60,0,0
71150,-66.6666666666667,4,1,1,60,0,1
73766,-200,4,1,1,60,0,1
73941,-66.6666666666667,4,1,1,60,0,1
76557,-200,4,1,1,60,0,1
76731,-66.6666666666667,4,1,1,60,0,1
79348,-200,4,1,1,60,0,1
79522,-66.6666666666667,4,1,1,60,0,1
82138,-200,4,1,1,60,0,1
82313,-66.6666666666667,4,1,1,60,0,1
84929,-200,4,1,1,60,0,1
85103,-66.6666666666667,4,1,1,60,0,1
87720,-200,4,1,1,60,0,1
87894,-100,4,1,1,60,0,0
88941,-200,4,1,1,60,0,0
89289,-100,4,1,1,60,0,0
90336,-200,4,1,1,60,0,0
90685,-100,4,1,1,60,0,0
91644,-66.6666666666667,4,1,1,60,0,0
91906,-100,4,1,1,60,0,0
92342,-66.6666666666667,4,1,1,60,0,0
92603,-100,4,1,1,60,0,0
93039,-66.6666666666667,4,1,1,60,0,0
94348,-200,4,1,1,60,0,1
94522,-66.6666666666667,4,1,1,60,0,1
96092,-200,4,1,1,60,0,1
96266,-66.6666666666667,4,1,1,60,0,1
98708,-200,4,1,1,60,0,1
99057,-66.6666666666667,4,1,1,60,0,1
110220,-100,4,1,1,60,0,0
115801,-100,4,1,1,60,0,1
132545,-100,4,1,1,60,0,0
138127,-100,4,1,1,60,0,1
154871,-100,4,1,1,60,0,0
227429,-100,4,1,1,60,0,1
244173,-100,4,1,1,60,0,0
249755,-100,4,1,1,60,0,1
266499,-100,4,1,1,60,0,0

[Colours]
Combo1 : 0,0,64
Combo2 : 128,64,64
Combo3 : 201,201,228
Combo4 : 242,230,230

[HitObjects]
247,178,71150,6,0,B|197:189|157:141|157:141|223:227|158:324,1,281.250010728836,4|0,3:1|0:0,0:0:0:0:
202,384,71499,6,0,P|156:392|103:363,1,93.7500035762788,8|0,0:0|0:0,0:0:0:0:
235,88,71673,2,0,B|319:83|338:162|338:162|399:176|438:129|438:129|395:119,1,281.250010728836
409,122,72022,1,0,3:0:0:0:
271,8,72196,6,0,P|225:0|172:29,1,93.7500035762788,8|0,0:0|0:0,0:0:0:0:
58,87,72371,2,0,P|104:79|147:98,1,93.7500035762788
236,272,72545,5,0,0:0:0:0:
241,225,72633,1,0,0:0:0:0:
247,178,72720,1,0,3:0:0:0:
388,384,72894,6,0,L|377:291,1,93.7500035762788,8|0,0:0|0:0,0:0:0:0:
247,178,73069,6,0,P|201:169|158:188,1,93.7500035762788
377,291,73243,2,0,P|422:299|465:280,1,93.7500035762788
409,122,73417,1,0,3:0:0:0:
246,360,73592,6,0,P|254:314|236:272,1,93.7500035762788,8|0,0:0|0:0,0:0:0:0:
47,206,73766,2,0,L|-7:212,1,31.25
115,2,73941,6,0,B|138:189|138:189|128:124|46:108,1,281.250010728836,0|0,3:0|0:0,0:0:0:0:
207,31,74289,6,0,L|221:148,1,93.7500035762788,8|0,0:0|0:0,0:0:0:0:
377,291,74464,2,0,B|335:201|408:122|408:122|478:124|509:212,1,281.250010728836
488,169,74813,1,0,3:0:0:0:
413,371,74987,6,0,P|367:379|314:350,1,93.7500035762788,8|0,0:0|0:0,0:0:0:0:
196,137,75162,2,0,P|225:172|231:218,1,93.7500035762788
238,351,75336,6,0,P|253:307|290:279,1,93.7500035762788
142,207,75510,1,0,3:0:0:0:
398,29,75685,6,0,L|409:122,1,93.7500035762788,8|0,0:0|0:0,0:0:0:0:
409,122,75859,1,0,0:0:0:0:
142,207,76034,5,0,0:0:0:0:
59,175,76121,1,0,0:0:0:0:
62,88,76208,1,0,3:0:0:0:
146,65,76295,1,0,0:0:0:0:
196,137,76383,1,8,0:0:0:0:
412,153,76557,6,0,L|408:121,1,31.25
142,207,76731,6,0,B|100:273|123:345|123:345|187:393|265:363,1,281.250010728836,0|0,3:0|0:0,0:0:0:0:
330,296,77080,6,0,P|348:338|340:384,1,93.7500035762788,8|0,0:0|0:0,0:0:0:0:
305,93,77255,2,0,B|492:115|492:115|426:109|391:185,1,281.250010728836,0|0,0:0|0:0,3:0:0:0:
411,152,77603,1,0,3:0:0:0:
235,39,77778,6,0,P|216:81|224:127,1,93.7500035762788,8|0,0:0|0:0,0:0:0:0:
194,278,77952,2,0,P|178:234|142:207,1,93.7500035762788
19,107,78127,5,0,0:0:0:0:
66,101,78214,1,0,0:0:0:0:
113,96,78301,1,0,3:0:0:0:
287,289,78476,6,0,L|194:278,1,93.7500035762788,8|0,0:0|0:0,0:0:0:0:
420,63,78650,6,0,P|402:105|410:151,1,93.7500035762788
296,377,78824,2,0,P|305:331|287:289,1,93.7500035762788
141,206,78999,1,0,3:0:0:0:
0,331,79173,6,0,L|14:214,1,93.7500035762788,8|0,0:0|0:0,0:0:0:0:
110,64,79348,2,0,L|113:96,1,31.25
323,125,79522,6,0,B|334:204|334:204|244:238|244:144|128:213,1,281.250010728836,0|0,3:0|0:0,0:0:0:0:
287,49,79871,6,0,P|333:40|375:58,1,93.7500035762788,8|0,0:0|0:0,0:0:0:0:
420,297,80045,2,0,B|415:213|494:194|494:194|508:133|461:94|461:94|451:137,1,281.250010728836
454,122,80394,1,0,3:0:0:0:
344,369,80569,6,0,P|328:324|292:297,1,93.7500035762788,8|0,0:0|0:0,0:0:0:0:
139,68,80743,5,0,0:0:0:0:
213,58,80830,1,0,0:0:0:0:
287,49,80917,2,0,P|250:77|235:120,1,93.7500035762788
111,258,81092,2,0,P|95:214|59:186,1,93.7500035762788,0|0,3:0|0:0,0:0:0:0:
323,129,81266,6,0,L|416:140,1,93.7500035762788,8|0,0:0|0:0,0:0:0:0:
416,140,81441,1,0,0:0:0:0:
434,359,81615,5,0,0:0:0:0:
344,369,81702,1,0,0:0:0:0:
256,380,81789,1,0,3:0:0:0:
244,290,81877,1,0,0:0:0:0:
234,202,81964,1,8,0:0:0:0:
419,108,82138,6,0,L|416:140,1,31.25
244,290,82313,6,0,B|154:332|75:259|75:259|77:189|165:158,1,281.250010728836
245,109,82662,6,0,L|234:202,1,93.7500035762788,8|0,0:0|0:0,0:0:0:0:
376,21,82836,2,0,B|387:117|387:117|428:182|428:182|442:302,1,281.250010728836
442,290,83185,1,0,3:0:0:0:
506,99,83359,6,0,P|461:90|419:108,1,93.7500035762788,8|0,0:0|0:0,0:0:0:0:
233,202,83534,2,0,P|278:192|320:210,1,93.7500035762788
431,384,83708,5,0,0:0:0:0:
436,337,83795,1,0,0:0:0:0:
442,290,83883,1,0,3:0:0:0:
222,109,84057,6,0,L|233:202,1,93.7500035762788,8|0,0:0|0:0,0:0:0:0:
87,325,84231,6,0,P|41:334|0:316,1,93.7500035762788
134,100,84406,2,0,P|179:91|222:109,1,93.7500035762788
341,233,84580,1,0,3:0:0:0:
420,0,84755,6,0,P|377:17|332:8,1,93.7500035762788,8|0,0:0|0:0,0:0:0:0:
129,69,84929,6,0,L|136:123,1,31.25
256,375,85103,6,0,B|247:274|335:294|302:179|302:179|242:211|274:269,1,281.250010728836,0|0,3:0|0:0,0:0:0:0:
350,357,85452,6,0,P|395:366|438:349,1,93.7500035762788,8|0,0:0|0:0,0:0:0:0:
433,83,85627,2,0,B|490:165|404:192|490:275|490:275|526:218|470:183,1,281.250010728836
497,208,85976,1,0,3:0:0:0:
470,2,86150,6,0,P|424:-7|381:9,1,93.7500035762788,8|0,0:0|0:0,0:0:0:0:
230,129,86324,2,0,P|273:143|302:179,1,93.7500035762788
187,35,86499,2,0,P|153:65|107:72,1,93.7500035762788
221,216,86673,1,0,3:0:0:0:
33,18,86848,6,0,L|22:111,1,93.7500035762788,8|0,0:0|0:0,0:0:0:0:
22,111,87022,1,0,0:0:0:0:
225,358,87196,5,0,0:0:0:0:
308,326,87284,1,0,0:0:0:0:
305,239,87371,1,0,3:0:0:0:
221,216,87458,1,0,0:0:0:0:
171,288,87545,1,8,0:0:0:0:
396,206,87720,6,0,L|399:174,1,31.25
512,271,87894,5,0,3:0:0:0:
508,239,87981,1,0,0:0:0:0:
504,208,88069,1,0,0:0:0:0:
500,177,88156,1,0,0:0:0:0:
496,146,88243,1,8,0:0:0:0:
496,146,88417,1,0,0:0:0:0:
356,46,88592,6,0,L|292:53,1,62.5
229,129,88766,2,0,L|166:121,1,62.5,0|0,3:0|0:0,0:0:0:0:
72,109,88941,6,0,L|40:105,3,31.25,8|0|0|0,0:0|0:0|0:0|0:0,0:0:0:0:
213,289,89289,5,0,0:0:0:0:
238,253,89377,1,0,0:0:0:0:
251,212,89464,1,0,3:0:0:0:
247,168,89551,1,0,0:0:0:0:
229,129,89638,1,8,0:0:0:0:
229,129,89813,1,0,0:0:0:0:
125,317,89987,6,0,L|188:324,1,62.5
275,372,90162,2,0,L|337:364,1,62.5,0|0,3:0|0:0,0:0:0:0:
430,352,90336,6,0,L|461:348,3,31.25,8|0|0|0,0:0|0:0|0:0|0:0,0:0:0:0:
374,278,90685,5,0,3:0:0:0:
339,234,90772,1,0,3:0:0:0:
331,179,90859,1,0,3:0:0:0:
354,128,90946,1,0,3:0:0:0:
399,96,91034,5,8,0:0:0:0:
342,119,91121,1,0,3:0:0:0:
280,112,91208,1,0,3:0:0:0:
231,74,91295,1,0,3:0:0:0:
207,18,91383,5,0,3:0:0:0:
11,203,91644,6,0,L|0:110,1,93.7500035762788,0|8,3:0|0:0,0:0:0:0:
0,110,91906,1,0,3:0:0:0:
125,317,92080,5,0,3:0:0:0:
125,317,92342,6,0,L|136:223,1,93.7500035762788,0|8,3:0|0:0,0:0:0:0:
136,223,92603,1,0,3:0:0:0:
374,278,92778,5,0,3:0:0:0:
374,278,93039,6,0,L|385:184,1,93.7500035762788,0|8,3:0|0:0,0:0:0:0:
384,184,93301,1,0,3:0:0:0:
512,384,93476,5,0,3:0:0:0:
512,384,94348,6,0,L|505:328,1,31.25
374,278,94522,6,0,P|328:269|286:286,1,93.7500035762788
141,319,94696,2,0,P|171:284|177:238,1,93.7500035762788
78,149,94871,5,0,0:0:0:0:
84,196,94958,1,0,0:0:0:0:
89,243,95045,1,0,0:0:0:0:
274,168,95220,6,0,L|285:75,1,93.7500035762788,8|0,0:0|0:0,0:0:0:0:
475,0,95394,1,0,0:0:0:0:
505,46,95481,1,0,0:0:0:0:
512,101,95569,1,0,0:0:0:0:
493,154,95656,1,0,0:0:0:0:
453,192,95743,1,0,3:0:0:0:
285,261,95917,6,0,L|274:168,1,93.7500035762788,8|0,0:0|0:0,0:0:0:0:
103,98,96092,2,0,L|62:102,1,31.25
178,320,96266,6,0,B|365:297|365:297|299:303|264:227,1,281.250010728836,0|0,3:0|0:0,0:0:0:0:
98,284,96615,6,0,P|89:330|106:372,1,93.7500035762788
359,209,96789,2,0,B|401:119|328:40|328:40|258:42|227:130,1,281.250010728836
247,87,97138,1,0,0:0:0:0:
436,250,97313,6,0,P|451:205|486:177,1,93.7500035762788
247,87,97487,1,0,0:0:0:0:
201,57,97574,1,0,0:0:0:0:
146,50,97662,1,0,0:0:0:0:
93,69,97749,1,0,0:0:0:0:
55,109,97836,6,0,L|66:205,1,93.7500035762788
178,320,98010,6,0,P|193:275|228:247,1,93.7500035762788
436,250,98185,2,0,L|342:238,1,93.7500035762788
247,87,98359,2,0,L|340:75,1,93.7500035762788
450,277,98534,2,0,L|356:265,1,93.7500035762788
411,19,98708,6,0,P|429:61|423:107,1,93.75
