osu file format v14

[General]
AudioFilename: audio.mp3
AudioLeadIn: 0
PreviewTime: 170517
Countdown: 0
SampleSet: Normal
StackLeniency: 0
Mode: 1
LetterboxInBreaks: 0
WidescreenStoryboard: 0

[Editor]
Bookmarks: 43672,69854,222581,231308,257490,270649
DistanceSpacing: 1.7
BeatDivisor: 4
GridSize: 16
TimelineZoom: 2.9

[Metadata]
Title:Free L-Town (Sped Up Ver.)
TitleUnicode:Free L-Town (Sped Up Ver.)
Artist:Spongebob Squarewave
ArtistUnicode:Spongebob Squarewave
Creator:liku
Version:L
Source:
Tags:axer off me nut records omn167 return of the rave elton john your song buckwheat boyz peanut butter jelly time anastacia i'm outta love bassline dnb drum and n & bass happy hardcore uk hardtek jungle rave electronic english original mix
BeatmapID:3671298
BeatmapSetID:1791543

[Difficulty]
HPDrainRate:5
CircleSize:5
OverallDifficulty:7.2
ApproachRate:5
SliderMultiplier:1.4
SliderTickRate:1

[Events]
//Background and Video events
0,0,"peanut.png",0,-90
//Break Periods
2,161990,169317
//Storyboard Layer 0 (Background)
//Storyboard Layer 1 (Fail)
//Storyboard Layer 2 (Pass)
//Storyboard Layer 3 (Foreground)
//Storyboard Layer 4 (Overlay)
//Storyboard Sound Samples

[TimingPoints]
336,272.727272727273,4,1,0,80,1,0
336,-100,4,1,0,80,0,0
404,-125,4,1,0,80,0,0
17790,-100,4,1,0,80,0,0
17858,-125,4,1,0,80,0,0
35176,-100,4,1,0,80,0,0
36333,-126.984357948345,4,1,0,80,0,0
37424,-129.032735014933,4,1,0,80,0,0
38514,-131.146309208944,4,1,0,80,0,0
39605,-133.332314790766,4,1,0,80,0,0
40696,-135.592430316025,4,1,0,80,0,0
41787,-137.930489481753,4,1,0,80,0,0
42878,-140.350595046639,4,1,0,80,0,0
43969,-142.857142857143,4,1,0,80,0,0
44242,-140.348620312601,4,1,0,80,0,0
44514,-137.93539414628,4,1,0,80,0,0
44787,-135.595326870495,4,1,0,80,0,0
45060,-133.333333333333,4,1,0,80,0,0
45333,-131.145570381055,4,1,0,80,0,0
45605,-129.036073329391,4,1,0,80,0,0
45878,-126.98597450969,4,1,0,80,0,0
46151,-125,4,1,0,80,0,0
46287,-124.033651659845,4,1,0,80,0,0
46424,-123.075187545829,4,1,0,80,0,0
46560,-122.138259165967,4,1,0,80,0,0
46696,-121.215488028443,4,1,0,80,0,0
46833,-120.299922813982,4,1,0,80,0,0
46969,-119.40461858378,4,1,0,80,0,0
47105,-118.522542096687,4,1,0,80,0,0
47242,-117.647058823529,4,1,0,80,0,0
47310,-117.217297878055,4,1,0,80,0,0
47378,-116.79066531071,4,1,0,80,0,0
47446,-116.367127086555,4,1,0,80,0,0
47514,-115.946649662575,4,1,0,80,0,0
47583,-115.523083439221,4,1,0,80,0,0
47651,-115.108672715763,4,1,0,80,0,0
47719,-114.697224558452,4,1,0,80,0,0
47787,-114.288707311963,4,1,0,80,0,0
47855,-113.883089770355,4,1,0,80,0,0
47924,-113.474439648448,4,1,0,80,0,0
47992,-113.074571176867,4,1,0,80,0,0
48060,-112.677510973406,4,1,0,80,0,0
48333,-111.111111111111,4,1,0,80,0,0
51742,-109.582161510647,4,1,0,80,0,0
51878,-108.105430043599,4,1,0,80,0,0
52014,-106.667970277669,4,1,0,80,0,0
52151,-105.258080077183,4,1,0,80,0,0
52219,-104.572031055305,4,1,0,80,0,0
52287,-103.894867155509,4,1,0,82,0,0
52355,-103.226416879553,4,1,0,85,0,0
52424,-102.556871592405,4,1,0,88,0,0
52492,-101.905473566225,4,1,0,91,0,0
52560,-101.262298125116,4,1,0,94,0,0
52628,-100.627190555248,4,1,0,97,0,0
52696,-100,4,1,0,100,0,0
70154,-100,4,1,0,100,0,1
85426,-100,4,1,0,90,0,0
85560,-102.19915458291,4,1,0,90,0,0
85696,-104.480061265795,4,1,0,90,0,0
85833,-106.88304420817,4,1,0,90,0,0
85969,-109.380368800825,4,1,0,90,0,0
86105,-111.997185411047,4,1,0,90,0,0
86174,-113.37330088443,4,1,0,90,0,0
86242,-114.762963408039,4,1,0,90,0,0
86378,-117.647058823529,4,1,0,90,0,0
86449,-100,4,1,0,80,0,0
87540,-100,4,1,0,80,0,0
88682,-126.984357948345,4,1,0,80,0,0
89773,-129.032735014933,4,1,0,80,0,0
90863,-131.146309208944,4,1,0,80,0,0
91954,-133.332314790766,4,1,0,80,0,0
93045,-135.592430316025,4,1,0,80,0,0
94136,-137.930489481753,4,1,0,80,0,0
95227,-140.350595046639,4,1,0,80,0,0
96318,-142.857142857143,4,1,0,80,0,0
96591,-140.348620312601,4,1,0,80,0,0
96863,-137.93539414628,4,1,0,80,0,0
97136,-135.595326870495,4,1,0,80,0,0
97409,-133.333333333333,4,1,0,80,0,0
97682,-131.145570381055,4,1,0,80,0,0
97954,-129.036073329391,4,1,0,80,0,0
98227,-126.98597450969,4,1,0,80,0,0
98500,-125,4,1,0,80,0,0
98636,-124.033651659845,4,1,0,80,0,0
98773,-123.075187545829,4,1,0,80,0,0
98909,-122.138259165967,4,1,0,80,0,0
99045,-121.215488028443,4,1,0,80,0,0
99182,-120.299922813982,4,1,0,80,0,0
99318,-119.40461858378,4,1,0,80,0,0
99454,-118.522542096687,4,1,0,80,0,0
99591,-117.647058823529,4,1,0,80,0,0
99659,-117.217297878055,4,1,0,80,0,0
99727,-116.79066531071,4,1,0,80,0,0
99795,-116.367127086555,4,1,0,80,0,0
99863,-115.946649662575,4,1,0,80,0,0
99932,-115.523083439221,4,1,0,80,0,0
100000,-115.108672715763,4,1,0,80,0,0
100068,-114.697224558452,4,1,0,80,0,0
100136,-114.288707311963,4,1,0,80,0,0
100204,-113.883089770355,4,1,0,80,0,0
100273,-113.474439648448,4,1,0,80,0,0
100341,-113.074571176867,4,1,0,80,0,0
100409,-112.677510973406,4,1,0,80,0,0
100682,-111.111111111111,4,1,0,80,0,0
101954,-100,4,1,0,80,0,0
104105,-98.7676694454512,4,1,0,80,0,0
104242,-97.5566096840598,4,1,0,80,0,0
104378,-96.3834114422142,4,1,0,80,0,0
104514,-95.2380952380952,4,1,0,80,0,0
104583,-96.9890754063416,4,1,0,80,0,0
104651,-98.7788331071913,4,1,0,80,0,0
104719,-100.635886093448,4,1,0,81,0,0
104787,-102.564102564103,4,1,0,82,0,0
104855,-104.567652973284,4,1,0,84,0,0
104924,-106.682297772567,4,1,0,86,0,0
104992,-108.851674641148,4,1,0,88,0,0
105060,-111.111111111111,4,1,0,90,0,0
111540,-90.9090909090908,4,1,0,90,0,0
111813,-100,4,1,0,90,0,0
111949,-90.9090909090908,4,1,0,90,0,0
112222,-100,4,1,0,90,0,0
112358,-90.9090909090909,4,1,0,90,0,0
112631,-111.111111111111,4,1,0,90,0,0
112833,-110.341340075853,4,1,0,90,0,0
112969,-109.587665109738,4,1,0,90,0,0
113105,-108.844216092183,4,1,0,90,0,0
113242,-108.105430043599,4,1,0,90,0,0
113378,-107.38188976378,4,1,0,90,0,0
113514,-106.667970277669,4,1,0,90,0,0
113583,-106.309378806334,4,1,0,90,0,0
113651,-105.958335356675,4,1,0,90,0,0
113719,-105.60960263298,4,1,0,90,0,0
113787,-105.263157894737,4,1,0,90,0,0
113924,-104.909070075789,4,1,0,90,0,0
114060,-104.559915164369,4,1,0,90,0,0
114128,-104.386207795169,4,1,0,90,0,0
114196,-104.213076635392,4,1,0,90,0,0
114333,-103.866006531128,4,1,0,90,0,0
114469,-103.523748758248,4,1,0,90,0,0
114605,-103.183739182934,4,1,0,90,0,0
114674,-103.012086922978,4,1,0,90,0,0
114742,-102.843480214384,4,1,0,90,0,0
114878,-102.507917213141,4,1,0,90,0,0
115014,-102.174536874661,4,1,0,90,0,0
115151,-101.840890492043,4,1,0,90,0,0
115219,-101.676092871251,4,1,0,90,0,0
115287,-101.511827735585,4,1,0,90,0,0
115424,-101.18248843561,4,1,0,90,0,0
115560,-100.857659926037,4,1,0,90,0,0
115696,-100.534910351535,4,1,0,90,0,0
115764,-100.374308937996,4,1,0,90,0,0
115833,-100.211869375884,4,1,0,90,0,0
115901,-100.052297581042,4,1,0,90,0,0
115969,-99.8932331647405,4,1,0,90,0,0
116105,-99.5766168187998,4,1,0,90,0,0
116242,-99.2596952050551,4,1,0,90,0,0
116310,-99.1031390134529,4,1,0,90,0,0
116378,-98.9470758969925,4,1,0,90,0,0
116514,-98.6364196010835,4,1,0,90,0,0
116651,-98.3254451032885,4,1,0,90,0,0
116787,-98.0186738650007,4,1,0,90,0,0
116855,-97.8660049627792,4,1,0,90,0,0
116924,-97.7115762833315,4,1,0,90,0,0
117060,-97.4086176761152,4,1,0,90,0,0
117196,-97.107531932302,4,1,0,90,0,0
117333,-96.8061083461094,4,1,0,90,0,0
117401,-96.6571904715224,4,1,0,90,0,0
117469,-96.5087300571463,4,1,0,90,0,0
117605,-96.2131732032276,4,1,0,90,0,0
117742,-95.9172678020893,4,1,0,90,0,0
117878,-95.6253170600698,4,1,0,90,0,0
117946,-95.4800071509445,4,1,0,90,0,0
118083,-95.1885874690886,4,1,0,90,0,0
118151,-95.0446008171255,4,1,0,90,0,0
118287,-94.7579303767992,4,1,0,90,0,0
118424,-94.47089518138,4,1,0,90,0,0
118492,-94.3290699556982,4,1,0,90,0,0
118560,-94.1876699243148,4,1,0,90,0,0
118696,-93.9061378188691,4,1,0,90,0,0
118833,-93.6242321542046,4,1,0,90,0,0
118969,-93.346053292746,4,1,0,90,0,0
119037,-93.2075828418932,4,1,0,90,0,0
119105,-93.0695225993828,4,1,0,90,0,0
119242,-92.7926101812706,4,1,0,90,0,0
119378,-92.519344035108,4,1,0,90,0,0
119514,-92.2476826530025,4,1,0,90,0,0
119583,-92.1104635704482,4,1,0,90,0,0
119651,-91.975631982664,4,1,0,90,0,0
119787,-91.7071495517668,4,1,0,90,0,0
119924,-91.4382731021101,4,1,0,90,0,0
120060,-91.1729141475212,4,1,0,90,0,0
120128,-91.040811398213,4,1,0,90,0,0
120196,-90.9090909090909,4,1,0,90,0,0
120267,-71.4285714285714,4,1,0,90,0,0
122381,-100,4,1,0,75,0,0
123199,-74.0740740740741,4,1,0,75,0,0
123472,-100,4,1,0,75,0,0
124290,-74.0740740740741,4,1,0,75,0,0
124563,-100,4,1,0,75,0,0
125381,-74.0740740740741,4,1,0,75,0,0
125654,-100,4,1,0,75,0,0
125722,-25,4,1,0,75,0,0
126881,-83.3333333333333,4,1,0,100,0,1
133358,-76.9230769230769,4,1,0,100,0,1
133495,-83.3333333333333,4,1,0,100,0,1
133767,-76.9230769230769,4,1,0,100,0,1
133904,-83.3333333333333,4,1,0,100,0,1
134176,-76.9230769230769,4,1,0,100,0,1
134313,-83.3333333333333,4,1,0,100,0,1
143245,-83.3333333333333,4,1,0,100,0,0
143586,-84.0336134453781,4,1,0,100,0,0
143858,-84.7457627118644,4,1,0,100,0,0
143995,-85.4700854700855,4,1,0,100,0,0
144267,-83.3333333333333,4,1,0,100,0,0
144336,-83.3333333333333,4,1,0,100,0,1
151014,-82.4765648624131,4,1,0,100,0,1
151151,-81.6311260755705,4,1,0,100,0,1
151287,-80.8088289756314,4,1,0,100,0,1
151424,-79.9970670186244,4,1,0,100,0,1
151560,-79.207201974735,4,1,0,100,0,1
151696,-78.4327821710999,4,1,0,100,0,1
151833,-77.6678294297715,4,1,0,100,0,1
151969,-76.9230769230769,4,1,0,100,0,1
152105,-77.6678294297715,4,1,0,100,0,1
152242,-78.4327821710999,4,1,0,100,0,1
152378,-79.207201974735,4,1,0,100,0,1
152514,-79.9970670186244,4,1,0,100,0,1
152651,-80.8088289756314,4,1,0,100,0,1
152787,-81.6311260755705,4,1,0,100,0,1
152855,-82.0485823870046,4,1,0,100,0,1
152924,-82.4765648624131,4,1,0,100,0,1
152992,-82.90273556231,4,1,0,100,0,1
153060,-83.3333333333333,4,1,0,100,0,1
159608,-83.3333333333333,4,1,0,5,0,0
161722,-100,4,1,0,75,0,0
162060,-100.629583506296,4,1,0,75,0,0
162333,-101.267144746919,4,1,0,75,0,0
162605,-101.910456127239,4,1,0,75,0,0
162878,-102.564403911245,4,1,0,75,0,0
163151,-103.226798514348,4,1,0,75,0,0
163423,-103.895330841211,4,1,0,75,0,0
163696,-104.575085078848,4,1,0,75,0,0
163969,-105.263792729115,4,1,0,75,0,0
164242,-105.961631860126,4,1,0,75,0,0
164514,-106.66617776474,4,1,0,75,0,0
164787,-107.382798080472,4,1,0,75,0,0
165060,-108.109112531589,4,1,0,75,0,0
165333,-108.845319164858,4,1,0,75,0,0
165605,-109.588869076023,4,1,0,75,0,0
165878,-110.345437993122,4,1,0,75,0,0
166151,-111.112525782384,4,1,0,75,0,0
166423,-111.887484294469,4,1,0,75,0,0
166696,-112.676238186231,4,1,0,75,0,0
166969,-113.476191714561,4,1,0,75,0,0
167242,-114.287585123101,4,1,0,75,0,0
167514,-115.107628996518,4,1,0,75,0,0
167787,-115.942606616182,4,1,0,75,0,0
168060,-116.789786414004,4,1,0,75,0,0
168333,-117.649437838712,4,1,0,75,0,0
168605,-118.518619116169,4,1,0,75,0,0
168878,-119.404006129597,4,1,0,75,0,0
169151,-120.302721182212,4,1,0,75,0,0
169423,-121.211700325009,4,1,0,75,0,0
169696,-122.137938756088,4,1,0,75,0,0
169969,-123.0784418808,4,1,0,75,0,0
170242,-124.033541785105,4,1,0,75,0,0
170514,-125,4,1,0,75,0,0
178833,-122.444909761691,4,1,0,75,0,0
178969,-120.806689621249,4,1,0,75,0,0
179105,-119.211727016794,4,1,0,75,0,0
179242,-117.647058823529,4,1,0,75,0,0
187904,-111.111111111111,4,1,0,75,0,0
190424,-110.343955488113,4,1,0,75,0,0
190696,-109.59007334472,4,1,0,75,0,0
190969,-108.843707122365,4,1,0,75,0,0
191242,-108.107438426087,4,1,0,75,0,0
191514,-107.383706620724,4,1,0,75,0,0
191787,-106.666992641127,4,1,0,75,0,0
192060,-105.959782397513,4,1,0,75,0,0
192333,-105.261888103452,4,1,0,75,0,0
192469,-104.9176385716,4,1,0,75,0,0
192605,-104.57563337408,4,1,0,75,0,0
192742,-104.233360409002,4,1,0,75,0,0
192878,-103.895794637329,4,1,0,75,0,0
193014,-103.560408260147,4,1,0,75,0,0
193151,-103.224737975253,4,1,0,75,0,0
193287,-102.893663184209,4,1,0,75,0,0
193424,-102.562294311236,4,1,0,75,0,0
193560,-102.235448495642,4,1,0,75,0,0
193696,-101.910679248809,4,1,0,75,0,0
193833,-101.585601527393,4,1,0,75,0,0
193969,-101.264941394917,4,1,0,75,0,0
194105,-100.946299252678,4,1,0,75,0,0
194242,-100.627335209189,4,1,0,75,0,0
194378,-100.312686807376,4,1,0,75,0,0
194514,-100,4,1,0,75,0,0
195742,-98.7598443016203,4,1,0,75,0,0
195878,-97.5587945989448,4,1,0,75,0,0
196014,-96.3866065906882,4,1,0,76,0,0
196083,-95.8025992272568,4,1,0,79,0,0
196151,-95.233938547486,4,1,0,82,0,0
196287,-94.1166321601104,4,1,0,85,0,0
196424,-93.0173075283485,4,1,0,88,0,0
196492,-92.4811392726965,4,1,0,91,0,0
196560,-91.9511167298778,4,1,0,94,0,0
196628,-91.4271348361686,4,1,0,97,0,0
196699,-90.9090909090909,4,1,0,100,0,1
213196,-91.9511167298778,4,1,0,100,0,1
213333,-93.025238744884,4,1,0,100,0,1
213469,-94.1166321601104,4,1,0,100,0,1
213537,-94.6719888927456,4,1,0,100,0,1
213605,-95.233938547486,4,1,0,100,0,1
213673,-95.8025992272568,4,1,0,100,0,1
213742,-96.3866065906882,4,1,0,100,0,1
213810,-96.9691582970403,4,1,0,100,0,1
213878,-97.5587945989448,4,1,0,100,0,1
213946,-98.1556455240666,4,1,0,100,0,1
214014,-98.7598443016203,4,1,0,100,0,1
214083,-99.3805793404992,4,1,0,100,0,1
214154,-100,4,1,0,100,0,0
230651,-100.631831388645,4,1,0,100,0,0
230787,-101.266997725902,4,1,0,100,0,0
230924,-101.914992993928,4,1,0,100,0,0
230992,-102.239715115734,4,1,0,100,0,0
231060,-102.5665131146,4,1,0,100,0,0
231196,-103.226416879553,4,1,0,100,0,0
231333,-103.899814294557,4,1,0,98,0,0
231401,-104.237328619882,4,1,0,96,0,0
231469,-104.5770428948,4,1,0,94,0,0
231537,-104.918978698851,4,1,0,92,0,0
231608,-105.263157894737,4,1,0,90,0,0
248583,-105.958977350053,4,1,0,90,0,0
248652,-106.674495987473,4,1,0,90,0,0
248720,-107.389162561576,4,1,0,90,0,0
248788,-108.113469549693,4,1,0,90,0,0
248856,-108.847613341322,4,1,0,90,0,0
248924,-109.591795696763,4,1,0,90,0,0
248992,-110.34622393197,4,1,0,90,0,0
249060,-111.111111111111,4,1,0,90,0,0

[HitObjects]
163,172,336,5,4,0:0:0:0:
226,252,472,1,0,0:0:0:0:
226,252,608,1,8,0:0:0:0:
231,231,745,1,0,0:0:0:0:
231,231,1017,1,0,0:0:0:0:
231,231,1154,1,8,0:0:0:0:
230,231,1290,1,0,0:0:0:0:
213,231,1426,1,8,0:0:0:0:
212,231,1563,1,0,0:0:0:0:
181,67,1836,5,8,0:0:0:0:
181,67,1972,1,0,0:0:0:0:
181,67,2108,1,8,0:0:0:0:
181,67,2245,1,0,0:0:0:0:
181,67,2381,1,0,0:0:0:0:
182,153,2517,1,8,0:0:0:0:
163,69,2790,1,0,0:0:0:0:
160,74,2926,1,8,0:0:0:0:
163,69,3063,1,0,0:0:0:0:
152,126,3199,1,0,0:0:0:0:
152,126,3336,1,8,0:0:0:0:
152,126,3472,1,8,0:0:0:0:
146,78,3745,1,0,0:0:0:0:
146,78,4017,1,0,0:0:0:0:
146,78,4154,1,8,0:0:0:0:
146,78,4290,1,0,0:0:0:0:
146,78,4426,1,8,0:0:0:0:
146,78,4563,1,8,0:0:0:0:
215,107,4699,1,0,0:0:0:0:
139,78,4836,1,8,0:0:0:0:
139,78,4972,1,0,0:0:0:0:
123,81,5245,1,0,0:0:0:0:
123,81,5381,1,0,0:0:0:0:
123,81,5517,1,8,0:0:0:0:
123,81,5654,1,8,0:0:0:0:
121,81,5790,1,0,0:0:0:0:
122,81,5926,1,0,0:0:0:0:
108,86,6063,1,0,0:0:0:0:
108,86,6199,1,8,0:0:0:0:
108,86,6336,1,0,0:0:0:0:
108,86,6472,1,0,0:0:0:0:
108,86,6608,1,8,0:0:0:0:
174,121,6745,1,8,0:0:0:0:
175,159,6881,1,0,0:0:0:0:
174,121,7154,1,8,0:0:0:0:
174,121,7290,1,8,0:0:0:0:
147,74,7426,1,0,0:0:0:0:
147,74,7563,1,0,0:0:0:0:
140,76,7699,1,8,0:0:0:0:
139,77,7836,1,8,0:0:0:0:
115,80,7972,1,0,0:0:0:0:
115,80,8108,1,8,0:0:0:0:
115,80,8245,1,0,0:0:0:0:
115,80,8381,1,0,0:0:0:0:
115,80,8517,1,8,0:0:0:0:
115,80,8654,1,8,0:0:0:0:
115,80,8790,1,8,0:0:0:0:
115,80,8926,1,8,0:0:0:0:
163,172,9063,5,0,0:0:0:0:
201,81,9199,1,0,0:0:0:0:
201,81,9336,1,8,0:0:0:0:
231,231,9472,1,0,0:0:0:0:
231,231,9745,1,8,0:0:0:0:
231,231,9881,1,0,0:0:0:0:
230,231,10017,1,0,0:0:0:0:
213,231,10154,1,0,0:0:0:0:
212,231,10290,1,8,0:0:0:0:
181,67,10563,5,0,0:0:0:0:
181,67,10699,1,8,0:0:0:0:
181,67,10836,1,0,0:0:0:0:
181,67,10972,1,0,0:0:0:0:
181,67,11108,1,8,0:0:0:0:
241,147,11245,1,0,0:0:0:0:
163,69,11517,1,8,0:0:0:0:
160,74,11654,1,8,0:0:0:0:
163,69,11790,1,0,0:0:0:0:
152,126,11926,1,0,0:0:0:0:
152,126,12063,1,0,0:0:0:0:
152,126,12199,1,0,0:0:0:0:
178,171,12336,1,8,0:0:0:0:
177,63,12608,1,8,0:0:0:0:
146,78,12745,1,0,0:0:0:0:
146,78,12881,1,8,0:0:0:0:
146,78,13017,1,8,0:0:0:0:
146,78,13154,1,0,0:0:0:0:
146,78,13290,1,0,0:0:0:0:
172,171,13426,1,8,0:0:0:0:
139,78,13699,1,0,0:0:0:0:
123,81,13972,1,0,0:0:0:0:
123,81,14108,1,0,0:0:0:0:
123,81,14245,1,8,0:0:0:0:
123,81,14381,1,0,0:0:0:0:
121,81,14517,1,8,0:0:0:0:
122,81,14654,1,0,0:0:0:0:
108,86,14790,1,8,0:0:0:0:
108,86,14926,1,8,0:0:0:0:
108,86,15063,1,0,0:0:0:0:
108,86,15199,1,0,0:0:0:0:
108,86,15336,1,8,0:0:0:0:
186,23,15472,1,8,0:0:0:0:
175,159,15608,1,0,0:0:0:0:
174,121,15881,1,0,0:0:0:0:
174,121,16017,1,8,0:0:0:0:
147,74,16154,1,0,0:0:0:0:
147,74,16290,1,0,0:0:0:0:
140,76,16426,1,8,0:0:0:0:
139,77,16563,1,0,0:0:0:0:
185,188,16699,1,8,0:0:0:0:
115,80,16972,1,0,0:0:0:0:
115,80,17108,1,0,0:0:0:0:
115,80,17245,1,8,0:0:0:0:
115,80,17381,1,8,0:0:0:0:
115,80,17517,1,0,0:0:0:0:
115,80,17654,1,8,0:0:0:0:
167,152,17790,5,4,0:0:0:0:
222,244,18063,1,8,0:0:0:0:
209,244,18199,1,0,0:0:0:0:
209,244,18336,1,8,0:0:0:0:
207,237,18472,1,8,0:0:0:0:
207,237,18608,1,0,0:0:0:0:
171,184,18881,1,8,0:0:0:0:
171,184,19017,1,0,0:0:0:0:
171,184,19154,1,8,0:0:0:0:
179,129,19426,1,0,0:0:0:0:
179,129,19699,1,0,0:0:0:0:
142,144,19972,1,8,0:0:0:0:
143,112,20245,1,0,0:0:0:0:
143,112,20381,1,8,0:0:0:0:
136,115,20654,1,8,0:0:0:0:
134,116,20790,1,0,0:0:0:0:
112,113,21063,1,8,0:0:0:0:
92,106,21336,1,8,0:0:0:0:
198,158,21472,1,8,0:0:0:0:
91,106,21608,1,0,0:0:0:0:
91,106,21881,1,0,0:0:0:0:
104,166,22154,1,8,0:0:0:0:
91,106,22426,1,0,0:0:0:0:
149,76,22563,1,0,0:0:0:0:
91,106,22699,1,8,0:0:0:0:
149,76,22836,1,0,0:0:0:0:
131,80,23108,1,8,0:0:0:0:
122,80,23245,1,0,0:0:0:0:
81,94,23517,1,0,0:0:0:0:
71,94,23654,1,0,0:0:0:0:
62,73,23790,1,8,0:0:0:0:
98,72,23926,1,8,0:0:0:0:
87,72,24063,1,0,0:0:0:0:
147,142,24336,1,8,0:0:0:0:
42,74,24608,1,0,0:0:0:0:
41,74,24745,1,8,0:0:0:0:
42,74,25017,1,8,0:0:0:0:
42,74,25154,1,0,0:0:0:0:
212,85,25290,1,0,0:0:0:0:
42,74,25426,1,8,0:0:0:0:
41,74,25699,1,8,0:0:0:0:
42,74,25972,1,0,0:0:0:0:
42,74,26245,1,8,0:0:0:0:
145,142,26517,1,0,0:0:0:0:
88,53,26790,1,0,0:0:0:0:
54,53,26926,1,8,0:0:0:0:
137,63,27199,1,8,0:0:0:0:
127,65,27336,1,0,0:0:0:0:
112,66,27608,1,8,0:0:0:0:
106,67,27745,1,8,0:0:0:0:
100,67,27881,1,0,0:0:0:0:
97,68,28154,1,0,0:0:0:0:
96,68,28426,1,8,0:0:0:0:
145,142,28699,1,0,0:0:0:0:
192,79,28972,1,8,0:0:0:0:
192,79,29108,1,8,0:0:0:0:
179,68,29381,1,0,0:0:0:0:
179,68,29517,1,8,0:0:0:0:
145,142,29790,1,8,0:0:0:0:
170,69,30063,1,0,0:0:0:0:
170,69,30336,1,8,0:0:0:0:
170,69,30608,1,8,0:0:0:0:
145,135,30881,1,0,0:0:0:0:
154,73,31154,1,8,0:0:0:0:
154,73,31290,1,8,0:0:0:0:
154,73,31563,1,0,0:0:0:0:
154,73,31699,1,8,0:0:0:0:
154,73,31972,1,8,0:0:0:0:
98,45,32245,1,0,0:0:0:0:
73,50,32381,1,8,0:0:0:0:
77,62,32654,1,8,0:0:0:0:
77,62,32790,1,0,0:0:0:0:
147,132,33063,1,0,0:0:0:0:
78,43,33336,1,0,0:0:0:0:
78,43,33472,1,8,0:0:0:0:
74,44,33608,1,0,0:0:0:0:
78,43,33745,1,0,0:0:0:0:
71,44,34017,1,0,0:0:0:0:
147,132,34154,1,8,0:0:0:0:
121,49,34426,1,0,0:0:0:0:
121,49,34699,1,8,0:0:0:0:
121,49,34972,1,8,0:0:0:0:
149,134,35245,1,4,0:0:0:0:
310,108,36336,1,0,0:0:0:0:
210,55,37426,1,8,0:0:0:0:
146,135,38517,1,8,0:0:0:0:
146,135,39608,1,0,0:0:0:0:
146,135,40699,1,8,0:0:0:0:
161,139,41790,1,0,0:0:0:0:
192,153,42881,5,0,0:0:0:0:
208,166,43972,5,4,0:0:0:0:
208,166,44245,1,0,0:0:0:0:
208,166,44517,1,8,0:0:0:0:
208,166,44790,1,8,0:0:0:0:
208,166,45063,1,4,0:0:0:0:
208,166,45336,1,0,0:0:0:0:
208,166,45608,1,8,0:0:0:0:
208,166,45881,1,8,0:0:0:0:
208,166,46154,1,0,0:0:0:0:
173,171,46290,1,0,0:0:0:0:
173,171,46426,1,8,0:0:0:0:
173,171,46563,1,0,0:0:0:0:
173,171,46699,1,8,0:0:0:0:
173,171,46836,1,8,0:0:0:0:
173,171,46972,1,0,0:0:0:0:
173,171,47108,1,0,0:0:0:0:
173,171,47245,1,8,0:0:0:0:
215,192,47313,1,8,0:0:0:0:
209,191,47381,1,0,0:0:0:0:
215,192,47449,1,0,0:0:0:0:
215,192,47517,1,8,0:0:0:0:
209,191,47586,1,0,0:0:0:0:
215,192,47654,1,0,0:0:0:0:
215,192,47722,1,0,0:0:0:0:
215,192,47790,1,8,0:0:0:0:
208,191,47858,1,8,0:0:0:0:
215,192,47926,1,0,0:0:0:0:
208,191,47995,1,0,0:0:0:0:
215,192,48063,1,8,0:0:0:0:
184,187,48336,5,4,0:0:0:0:
118,244,50517,5,8,0:0:0:0:
118,244,50790,1,8,0:0:0:0:
118,244,51063,1,8,0:0:0:0:
118,244,51336,1,8,0:0:0:0:
118,244,51608,1,8,0:0:0:0:
259,230,51745,1,8,0:0:0:0:
259,230,51881,1,0,0:0:0:0:
259,230,52017,1,8,0:0:0:0:
259,230,52154,1,0,0:0:0:0:
154,146,52222,1,0,0:0:0:0:
164,177,52290,1,0,0:0:0:0:
154,146,52358,1,0,0:0:0:0:
154,146,52426,1,8,0:0:0:0:
164,177,52495,1,8,0:0:0:0:
154,146,52563,1,8,0:0:0:0:
154,146,52631,1,8,0:0:0:0:
223,168,52699,1,0,0:0:0:0:
212,166,52836,1,0,0:0:0:0:
212,166,52972,1,8,0:0:0:0:
212,166,53108,1,8,0:0:0:0:
212,166,53176,1,8,0:0:0:0:
212,166,53245,1,0,0:0:0:0:
212,166,53313,1,8,0:0:0:0:
211,166,53381,1,0,0:0:0:0:
202,169,53517,1,8,0:0:0:0:
202,169,53586,1,8,0:0:0:0:
202,169,53654,1,0,0:0:0:0:
181,139,53790,1,8,0:0:0:0:
181,139,53926,1,0,0:0:0:0:
204,49,53995,1,0,0:0:0:0:
204,49,54063,1,8,0:0:0:0:
204,49,54199,1,8,0:0:0:0:
186,88,54336,1,0,0:0:0:0:
186,88,54404,1,0,0:0:0:0:
186,88,54472,1,8,0:0:0:0:
186,88,54540,1,0,0:0:0:0:
186,88,54608,1,8,0:0:0:0:
149,133,54745,1,8,0:0:0:0:
180,141,54881,1,0,0:0:0:0:
185,175,55017,1,8,0:0:0:0:
185,175,55086,1,8,0:0:0:0:
139,186,55154,1,0,0:0:0:0:
189,161,55290,1,8,0:0:0:0:
191,167,55426,1,0,0:0:0:0:
154,148,55495,1,0,0:0:0:0:
157,135,55563,1,8,0:0:0:0:
156,135,55631,1,0,0:0:0:0:
191,167,55699,1,8,0:0:0:0:
149,133,55767,1,8,0:0:0:0:
147,136,55836,1,0,0:0:0:0:
191,167,55972,1,8,0:0:0:0:
96,106,56108,1,0,0:0:0:0:
170,122,56176,1,0,0:0:0:0:
170,122,56245,1,8,0:0:0:0:
161,122,56381,1,8,0:0:0:0:
191,167,56517,1,0,0:0:0:0:
117,106,56586,1,8,0:0:0:0:
96,106,56654,1,0,0:0:0:0:
131,102,56722,1,0,0:0:0:0:
117,106,56790,1,8,0:0:0:0:
91,107,56926,1,8,0:0:0:0:
191,167,57063,1,0,0:0:0:0:
91,107,57199,1,8,0:0:0:0:
220,64,57267,1,0,0:0:0:0:
191,167,57336,1,8,0:0:0:0:
90,107,57472,1,8,0:0:0:0:
191,167,57608,1,0,0:0:0:0:
169,113,57676,1,0,0:0:0:0:
91,107,57745,1,0,0:0:0:0:
169,113,57813,1,0,0:0:0:0:
169,113,57881,1,8,0:0:0:0:
180,105,58017,1,8,0:0:0:0:
191,167,58154,1,0,0:0:0:0:
158,113,58222,1,8,0:0:0:0:
111,148,58290,1,0,0:0:0:0:
158,113,58426,1,8,0:0:0:0:
158,113,58563,1,8,0:0:0:0:
191,167,58699,1,0,0:0:0:0:
133,101,58767,1,0,0:0:0:0:
122,108,58836,1,8,0:0:0:0:
113,111,58904,1,8,0:0:0:0:
191,167,58972,1,0,0:0:0:0:
181,96,59108,1,8,0:0:0:0:
191,167,59245,1,0,0:0:0:0:
138,101,59381,1,8,0:0:0:0:
138,101,59449,1,0,0:0:0:0:
191,167,59517,1,0,0:0:0:0:
137,97,59654,1,8,0:0:0:0:
191,167,59790,1,0,0:0:0:0:
128,115,59858,1,8,0:0:0:0:
104,150,59926,1,0,0:0:0:0:
154,102,59995,1,0,0:0:0:0:
128,115,60063,1,8,0:0:0:0:
128,115,60131,1,8,0:0:0:0:
103,150,60199,1,0,0:0:0:0:
120,89,60336,1,8,0:0:0:0:
177,127,60472,1,0,0:0:0:0:
177,81,60540,1,8,0:0:0:0:
96,152,60608,1,0,0:0:0:0:
171,80,60745,1,8,0:0:0:0:
96,152,60881,1,0,0:0:0:0:
138,52,60949,1,0,0:0:0:0:
168,77,61017,1,8,0:0:0:0:
150,52,61086,1,0,0:0:0:0:
191,167,61154,1,8,0:0:0:0:
150,52,61222,1,8,0:0:0:0:
168,133,61290,1,8,0:0:0:0:
162,126,61358,1,8,0:0:0:0:
223,168,61426,1,0,0:0:0:0:
212,166,61563,1,0,0:0:0:0:
212,166,61699,1,8,0:0:0:0:
212,166,61836,1,0,0:0:0:0:
212,166,61904,1,8,0:0:0:0:
212,166,61972,1,0,0:0:0:0:
212,166,62040,1,8,0:0:0:0:
211,166,62108,1,0,0:0:0:0:
202,169,62245,1,8,0:0:0:0:
202,169,62313,1,8,0:0:0:0:
202,169,62381,1,0,0:0:0:0:
181,139,62517,1,8,0:0:0:0:
181,139,62654,1,0,0:0:0:0:
204,49,62722,1,0,0:0:0:0:
204,49,62790,1,8,0:0:0:0:
204,49,62926,1,8,0:0:0:0:
186,88,63063,1,0,0:0:0:0:
186,88,63131,1,0,0:0:0:0:
186,88,63199,1,8,0:0:0:0:
186,88,63267,1,0,0:0:0:0:
186,88,63336,1,8,0:0:0:0:
149,133,63472,1,8,0:0:0:0:
180,141,63608,1,0,0:0:0:0:
185,175,63745,1,8,0:0:0:0:
185,175,63813,1,8,0:0:0:0:
139,186,63881,1,0,0:0:0:0:
189,161,64017,1,8,0:0:0:0:
191,167,64154,1,0,0:0:0:0:
154,148,64222,1,8,0:0:0:0:
157,135,64290,1,0,0:0:0:0:
156,135,64358,1,0,0:0:0:0:
191,167,64426,1,8,0:0:0:0:
149,133,64495,1,8,0:0:0:0:
147,136,64563,1,0,0:0:0:0:
191,167,64699,1,8,0:0:0:0:
96,106,64836,1,0,0:0:0:0:
170,122,64904,1,0,0:0:0:0:
170,122,64972,1,8,0:0:0:0:
161,122,65108,1,0,0:0:0:0:
191,167,65245,1,8,0:0:0:0:
117,106,65313,1,8,0:0:0:0:
96,106,65381,1,0,0:0:0:0:
131,102,65449,1,0,0:0:0:0:
117,106,65517,1,8,0:0:0:0:
91,107,65654,1,8,0:0:0:0:
191,167,65790,1,0,0:0:0:0:
91,107,65926,1,8,0:0:0:0:
220,64,65995,1,0,0:0:0:0:
191,167,66063,1,8,0:0:0:0:
90,107,66199,1,8,0:0:0:0:
191,167,66336,1,0,0:0:0:0:
169,113,66404,1,0,0:0:0:0:
91,107,66472,1,0,0:0:0:0:
169,113,66540,1,0,0:0:0:0:
169,113,66608,1,8,0:0:0:0:
180,105,66745,1,0,0:0:0:0:
191,167,66881,1,8,0:0:0:0:
158,113,66949,1,8,0:0:0:0:
111,148,67017,1,0,0:0:0:0:
158,113,67154,1,8,0:0:0:0:
158,113,67290,1,0,0:0:0:0:
191,167,67426,1,8,0:0:0:0:
133,101,67495,1,8,0:0:0:0:
122,108,67563,1,0,0:0:0:0:
113,111,67631,1,0,0:0:0:0:
191,167,67699,1,8,0:0:0:0:
181,96,67836,1,8,0:0:0:0:
191,167,67972,1,0,0:0:0:0:
138,101,68108,1,8,0:0:0:0:
138,101,68176,1,0,0:0:0:0:
191,167,68245,1,0,0:0:0:0:
137,97,68381,1,8,0:0:0:0:
191,167,68517,1,0,0:0:0:0:
128,115,68586,1,0,0:0:0:0:
104,150,68654,1,8,0:0:0:0:
154,102,68722,1,0,0:0:0:0:
128,115,68790,1,8,0:0:0:0:
128,115,68858,1,8,0:0:0:0:
103,150,68926,1,0,0:0:0:0:
120,89,69063,1,8,0:0:0:0:
177,127,69199,5,0,0:0:0:0:
177,81,69267,1,8,0:0:0:0:
96,152,69336,1,0,0:0:0:0:
171,80,69472,1,8,0:0:0:0:
96,152,69608,1,0,0:0:0:0:
138,52,69676,1,0,0:0:0:0:
168,77,69745,1,0,0:0:0:0:
150,52,69813,1,0,0:0:0:0:
191,167,69881,1,8,0:0:0:0:
150,52,69949,1,8,0:0:0:0:
168,133,70017,1,8,0:0:0:0:
162,126,70086,1,8,0:0:0:0:
122,132,70154,1,4,0:0:0:0:
150,135,70290,5,0,0:0:0:0:
191,167,70426,1,8,0:0:0:0:
150,135,70563,1,0,0:0:0:0:
154,103,70631,1,0,0:0:0:0:
153,103,70699,1,8,0:0:0:0:
150,135,70836,1,0,0:0:0:0:
140,72,70972,1,8,0:0:0:0:
140,72,71040,1,0,0:0:0:0:
140,72,71108,1,8,0:0:0:0:
134,73,71176,1,8,0:0:0:0:
191,167,71245,1,0,0:0:0:0:
223,71,71381,1,0,0:0:0:0:
223,71,71449,1,0,0:0:0:0:
223,71,71517,1,8,0:0:0:0:
144,136,71654,1,8,0:0:0:0:
191,167,71790,1,0,0:0:0:0:
121,123,71858,1,8,0:0:0:0:
142,137,71926,1,0,0:0:0:0:
121,123,71995,1,0,0:0:0:0:
121,123,72063,1,8,0:0:0:0:
172,85,72199,1,8,0:0:0:0:
191,167,72336,1,0,0:0:0:0:
144,136,72472,1,0,0:0:0:0:
169,56,72540,1,0,0:0:0:0:
169,56,72608,1,8,0:0:0:0:
142,137,72745,1,0,0:0:0:0:
191,167,72881,1,8,0:0:0:0:
153,55,72949,1,8,0:0:0:0:
142,137,73017,1,0,0:0:0:0:
153,55,73086,1,8,0:0:0:0:
191,167,73154,1,0,0:0:0:0:
138,139,73290,1,8,0:0:0:0:
191,167,73426,1,0,0:0:0:0:
142,137,73563,1,0,0:0:0:0:
177,134,73631,1,0,0:0:0:0:
177,134,73699,1,8,0:0:0:0:
142,137,73836,1,0,0:0:0:0:
165,125,73972,1,8,0:0:0:0:
165,125,74040,1,8,0:0:0:0:
138,139,74108,1,0,0:0:0:0:
165,125,74176,1,0,0:0:0:0:
165,125,74245,1,8,0:0:0:0:
217,99,74313,1,0,0:0:0:0:
165,125,74381,1,8,0:0:0:0:
217,99,74449,1,8,0:0:0:0:
191,167,74517,1,0,0:0:0:0:
209,78,74654,1,8,0:0:0:0:
147,96,74722,1,0,0:0:0:0:
147,96,74790,1,8,0:0:0:0:
138,139,74926,1,0,0:0:0:0:
191,167,75063,1,8,0:0:0:0:
183,128,75131,1,0,0:0:0:0:
183,128,75199,1,8,0:0:0:0:
183,128,75267,1,8,0:0:0:0:
191,167,75336,1,0,0:0:0:0:
168,110,75472,1,8,0:0:0:0:
191,167,75608,1,0,0:0:0:0:
138,139,75745,1,0,0:0:0:0:
167,110,75813,1,0,0:0:0:0:
167,110,75881,1,8,0:0:0:0:
169,78,76017,1,8,0:0:0:0:
215,143,76154,1,0,0:0:0:0:
147,149,76222,1,0,0:0:0:0:
147,149,76290,1,8,0:0:0:0:
147,149,76358,1,0,0:0:0:0:
147,149,76426,1,8,0:0:0:0:
198,51,76563,1,8,0:0:0:0:
191,167,76699,1,0,0:0:0:0:
136,138,76836,1,0,0:0:0:0:
190,90,76904,1,0,0:0:0:0:
190,90,76972,1,8,0:0:0:0:
135,138,77108,1,0,0:0:0:0:
152,113,77245,1,8,0:0:0:0:
144,114,77313,1,0,0:0:0:0:
127,140,77381,1,0,0:0:0:0:
142,114,77449,1,8,0:0:0:0:
191,167,77517,1,0,0:0:0:0:
141,96,77654,1,8,0:0:0:0:
191,167,77790,1,0,0:0:0:0:
126,141,77926,1,0,0:0:0:0:
132,98,77995,1,0,0:0:0:0:
127,99,78063,1,8,0:0:0:0:
127,140,78199,1,0,0:0:0:0:
157,116,78336,1,8,0:0:0:0:
155,116,78404,1,8,0:0:0:0:
127,140,78472,1,0,0:0:0:0:
152,117,78540,1,0,0:0:0:0:
148,118,78608,1,8,0:0:0:0:
253,102,78676,1,8,0:0:0:0:
146,118,78745,1,8,0:0:0:0:
253,102,78813,1,8,0:0:0:0:
122,132,78881,1,0,0:0:0:0:
150,135,79017,5,0,0:0:0:0:
191,167,79154,1,8,0:0:0:0:
150,135,79290,1,0,0:0:0:0:
154,103,79358,1,0,0:0:0:0:
153,103,79426,1,8,0:0:0:0:
150,135,79563,1,0,0:0:0:0:
113,135,79631,1,8,0:0:0:0:
112,135,79699,1,0,0:0:0:0:
140,72,79767,1,0,0:0:0:0:
140,72,79836,1,8,0:0:0:0:
134,73,79904,1,8,0:0:0:0:
191,167,79972,1,0,0:0:0:0:
223,71,80108,1,0,0:0:0:0:
223,71,80176,1,0,0:0:0:0:
223,71,80245,1,8,0:0:0:0:
144,136,80381,1,8,0:0:0:0:
191,167,80517,1,0,0:0:0:0:
121,123,80586,1,8,0:0:0:0:
142,137,80654,1,0,0:0:0:0:
121,123,80722,1,0,0:0:0:0:
121,123,80790,1,8,0:0:0:0:
172,85,80926,1,8,0:0:0:0:
191,167,81063,1,0,0:0:0:0:
144,136,81199,1,0,0:0:0:0:
169,56,81267,1,0,0:0:0:0:
169,56,81336,1,8,0:0:0:0:
142,137,81472,1,0,0:0:0:0:
191,167,81608,1,8,0:0:0:0:
153,55,81676,1,8,0:0:0:0:
142,137,81745,1,0,0:0:0:0:
153,55,81813,1,8,0:0:0:0:
191,167,81881,1,0,0:0:0:0:
198,62,81949,1,0,0:0:0:0:
138,139,82017,1,8,0:0:0:0:
191,167,82154,1,0,0:0:0:0:
142,137,82290,1,0,0:0:0:0:
177,134,82358,1,0,0:0:0:0:
177,134,82426,1,8,0:0:0:0:
142,137,82563,1,0,0:0:0:0:
165,125,82699,1,8,0:0:0:0:
165,125,82767,1,8,0:0:0:0:
138,139,82836,1,0,0:0:0:0:
165,125,82904,1,0,0:0:0:0:
165,125,82972,1,8,0:0:0:0:
217,99,83040,1,0,0:0:0:0:
165,125,83108,1,8,0:0:0:0:
217,99,83176,1,8,0:0:0:0:
191,167,83245,1,0,0:0:0:0:
209,78,83381,1,8,0:0:0:0:
147,96,83449,1,0,0:0:0:0:
147,96,83517,1,8,0:0:0:0:
138,139,83654,1,0,0:0:0:0:
191,167,83790,1,8,0:0:0:0:
183,128,83858,1,0,0:0:0:0:
183,128,83926,1,8,0:0:0:0:
183,128,83995,1,8,0:0:0:0:
191,167,84063,1,0,0:0:0:0:
182,62,84131,1,0,0:0:0:0:
168,110,84199,1,8,0:0:0:0:
191,167,84336,1,0,0:0:0:0:
138,139,84472,1,0,0:0:0:0:
167,110,84540,1,0,0:0:0:0:
167,110,84608,1,8,0:0:0:0:
169,78,84745,1,8,0:0:0:0:
215,143,84881,1,0,0:0:0:0:
147,149,84949,1,0,0:0:0:0:
147,149,85017,1,8,0:0:0:0:
147,149,85086,1,0,0:0:0:0:
147,149,85154,1,8,0:0:0:0:
198,51,85290,1,8,0:0:0:0:
191,167,85426,1,0,0:0:0:0:
185,146,85563,1,0,0:0:0:0:
185,146,85699,1,8,0:0:0:0:
185,146,85836,1,8,0:0:0:0:
185,146,85972,1,0,0:0:0:0:
183,146,86108,1,8,0:0:0:0:
183,147,86176,1,0,0:0:0:0:
183,147,86245,1,8,0:0:0:0:
182,147,86381,1,0,0:0:0:0:
29,66,86517,2,0,L|473:68,1,420
190,168,87608,5,4,0:0:0:0:
167,172,88699,1,8,0:0:0:0:
157,174,89790,1,0,0:0:0:0:
157,174,90881,1,8,0:0:0:0:
157,174,91972,1,0,0:0:0:0:
157,174,93063,1,0,0:0:0:0:
157,174,94154,1,8,0:0:0:0:
159,174,95245,1,8,0:0:0:0:
152,181,96336,1,4,0:0:0:0:
152,181,96608,1,0,0:0:0:0:
152,181,96881,1,8,0:0:0:0:
152,181,97154,1,8,0:0:0:0:
152,181,97426,1,0,0:0:0:0:
152,181,97699,1,0,0:0:0:0:
152,181,97972,1,8,0:0:0:0:
152,181,98245,1,8,0:0:0:0:
152,181,98517,1,0,0:0:0:0:
133,123,98654,1,0,0:0:0:0:
133,123,98790,1,8,0:0:0:0:
133,123,98926,1,0,0:0:0:0:
133,123,99063,1,8,0:0:0:0:
133,123,99199,1,8,0:0:0:0:
133,123,99336,1,0,0:0:0:0:
133,123,99472,1,0,0:0:0:0:
173,171,99608,1,8,0:0:0:0:
215,192,99676,1,8,0:0:0:0:
209,191,99745,1,0,0:0:0:0:
215,192,99813,1,0,0:0:0:0:
215,192,99881,1,8,0:0:0:0:
209,191,99949,1,0,0:0:0:0:
215,192,100017,1,0,0:0:0:0:
215,192,100086,1,0,0:0:0:0:
215,192,100154,1,8,0:0:0:0:
208,191,100222,1,8,0:0:0:0:
215,192,100290,1,0,0:0:0:0:
208,191,100358,1,0,0:0:0:0:
215,192,100426,1,8,0:0:0:0:
159,107,100699,1,4,0:0:0:0:
177,229,102881,5,4,0:0:0:0:
177,229,103154,1,4,0:0:0:0:
177,229,103426,1,4,0:0:0:0:
177,229,103699,1,4,0:0:0:0:
177,229,103972,1,8,0:0:0:0:
177,229,104108,1,8,0:0:0:0:
177,229,104245,1,0,0:0:0:0:
177,229,104381,1,0,0:0:0:0:
177,229,104517,1,8,0:0:0:0:
177,229,104586,1,8,0:0:0:0:
177,229,104654,1,0,0:0:0:0:
177,229,104722,1,0,0:0:0:0:
177,229,104790,1,8,0:0:0:0:
177,229,104858,1,8,0:0:0:0:
177,229,104926,1,8,0:0:0:0:
179,235,104995,1,8,0:0:0:0:
177,229,105063,1,4,0:0:0:0:
82,120,105336,1,8,0:0:0:0:
82,120,105608,1,0,0:0:0:0:
82,120,105881,1,8,0:0:0:0:
82,120,106017,1,0,0:0:0:0:
82,120,106154,1,0,0:0:0:0:
82,120,106426,1,8,0:0:0:0:
82,120,106699,1,0,0:0:0:0:
118,151,106836,1,0,0:0:0:0:
118,151,106972,1,8,0:0:0:0:
118,151,107108,1,8,0:0:0:0:
82,120,107245,1,0,0:0:0:0:
118,151,107517,1,8,0:0:0:0:
82,120,107790,1,0,0:0:0:0:
110,153,107926,1,0,0:0:0:0:
118,151,108063,1,8,0:0:0:0:
82,120,108336,1,0,0:0:0:0:
110,153,108608,1,8,0:0:0:0:
82,120,108881,1,0,0:0:0:0:
110,153,109017,1,0,0:0:0:0:
82,120,109154,1,8,0:0:0:0:
82,120,109222,1,8,0:0:0:0:
184,130,109290,1,8,0:0:0:0:
184,130,109358,1,8,0:0:0:0:
184,130,109426,1,0,0:0:0:0:
172,121,109699,1,8,0:0:0:0:
172,121,109972,1,0,0:0:0:0:
172,121,110245,1,8,0:0:0:0:
172,121,110381,1,0,0:0:0:0:
172,121,110517,1,0,0:0:0:0:
172,121,110790,1,8,0:0:0:0:
172,121,111063,1,0,0:0:0:0:
172,121,111199,1,8,0:0:0:0:
159,123,111336,1,0,0:0:0:0:
159,123,111472,1,8,0:0:0:0:
159,123,111608,1,4,0:0:0:0:
208,101,111881,1,8,0:0:0:0:
208,101,112017,1,4,0:0:0:0:
208,101,112290,1,0,0:0:0:0:
208,101,112426,1,12,0:0:0:0:
208,101,112699,1,0,0:0:0:0:
208,101,112836,1,0,0:0:0:0:
208,101,112972,1,8,0:0:0:0:
208,101,113108,1,8,0:0:0:0:
208,101,113245,1,0,0:0:0:0:
208,101,113381,1,8,0:0:0:0:
208,101,113517,1,0,0:0:0:0:
208,101,113586,1,0,0:0:0:0:
208,101,113654,1,8,0:0:0:0:
208,101,113722,1,8,0:0:0:0:
208,101,113790,1,0,0:0:0:0:
202,110,113926,1,8,0:0:0:0:
202,110,114063,1,0,0:0:0:0:
202,110,114131,1,0,0:0:0:0:
194,80,114199,1,8,0:0:0:0:
194,80,114336,1,8,0:0:0:0:
194,80,114472,1,0,0:0:0:0:
194,80,114608,1,8,0:0:0:0:
190,89,114676,1,8,0:0:0:0:
188,90,114745,1,0,0:0:0:0:
188,90,114881,1,0,0:0:0:0:
188,90,115017,1,8,0:0:0:0:
188,90,115154,1,0,0:0:0:0:
188,90,115222,1,8,0:0:0:0:
188,90,115290,1,0,0:0:0:0:
190,89,115426,1,8,0:0:0:0:
188,90,115563,1,0,0:0:0:0:
188,90,115699,1,8,0:0:0:0:
188,90,115767,1,8,0:0:0:0:
188,90,115836,1,8,0:0:0:0:
206,118,115904,1,8,0:0:0:0:
206,118,115972,1,0,0:0:0:0:
215,102,116108,1,0,0:0:0:0:
215,102,116245,1,8,0:0:0:0:
214,102,116313,1,0,0:0:0:0:
213,102,116381,1,0,0:0:0:0:
213,102,116517,1,8,0:0:0:0:
213,102,116654,1,0,0:0:0:0:
215,102,116790,1,8,0:0:0:0:
215,102,116858,1,8,0:0:0:0:
215,102,116926,1,0,0:0:0:0:
207,103,117063,1,0,0:0:0:0:
207,103,117199,1,8,0:0:0:0:
207,103,117336,1,0,0:0:0:0:
205,103,117404,1,0,0:0:0:0:
205,103,117472,1,8,0:0:0:0:
205,103,117608,1,8,0:0:0:0:
195,102,117745,1,0,0:0:0:0:
195,102,117881,1,8,0:0:0:0:
194,102,117949,1,0,0:0:0:0:
196,67,118086,1,0,0:0:0:0:
196,67,118154,1,8,0:0:0:0:
196,67,118290,1,0,0:0:0:0:
196,67,118426,1,8,0:0:0:0:
126,102,118495,1,8,0:0:0:0:
196,67,118563,1,0,0:0:0:0:
196,67,118699,1,8,0:0:0:0:
196,67,118836,1,8,0:0:0:0:
196,67,118972,1,0,0:0:0:0:
126,102,119040,1,8,0:0:0:0:
196,67,119108,1,0,0:0:0:0:
196,67,119245,1,8,0:0:0:0:
196,67,119381,1,0,0:0:0:0:
196,67,119517,1,8,0:0:0:0:
126,102,119586,1,8,0:0:0:0:
196,67,119654,1,0,0:0:0:0:
196,67,119790,1,0,0:0:0:0:
196,67,119926,1,8,0:0:0:0:
196,67,120063,1,0,0:0:0:0:
129,113,120131,1,8,0:0:0:0:
196,67,120199,1,0,0:0:0:0:
196,67,120336,1,12,0:0:0:0:
161,171,120745,1,12,0:0:0:0:
161,171,121154,1,4,0:0:0:0:
161,171,121563,1,12,0:0:0:0:
122,91,121972,1,12,0:0:0:0:
121,136,122517,5,0,0:0:0:0:
121,136,122790,1,0,0:0:0:0:
121,136,123063,1,0,0:0:0:0:
121,136,123336,1,8,0:0:0:0:
121,136,123608,1,0,0:0:0:0:
121,136,123881,1,8,0:0:0:0:
121,136,124154,1,0,0:0:0:0:
121,136,124426,1,8,0:0:0:0:
121,136,124699,1,0,0:0:0:0:
121,136,124972,1,0,0:0:0:0:
121,136,125245,1,8,0:0:0:0:
121,136,125517,1,8,0:0:0:0:
114,174,126881,1,4,0:0:0:0:
119,172,127017,1,8,0:0:0:0:
114,174,127086,1,0,0:0:0:0:
119,172,127154,1,8,0:0:0:0:
119,165,127290,1,0,0:0:0:0:
119,165,127426,1,8,0:0:0:0:
119,165,127495,1,8,0:0:0:0:
119,165,127563,1,0,0:0:0:0:
116,166,127631,1,0,0:0:0:0:
119,165,127699,1,8,0:0:0:0:
116,166,127836,1,8,0:0:0:0:
119,165,127972,1,0,0:0:0:0:
119,165,128108,1,0,0:0:0:0:
119,165,128176,1,0,0:0:0:0:
119,165,128245,1,8,0:0:0:0:
119,165,128381,1,0,0:0:0:0:
116,166,128517,1,8,0:0:0:0:
171,203,128586,1,0,0:0:0:0:
171,203,128654,1,0,0:0:0:0:
171,203,128722,1,0,0:0:0:0:
119,165,128790,1,8,0:0:0:0:
153,177,128926,1,0,0:0:0:0:
153,177,128995,1,0,0:0:0:0:
153,177,129063,1,0,0:0:0:0:
192,149,129199,1,8,0:0:0:0:
192,149,129336,1,8,0:0:0:0:
192,149,129404,1,8,0:0:0:0:
192,149,129472,1,0,0:0:0:0:
172,144,129608,1,8,0:0:0:0:
171,144,129676,1,8,0:0:0:0:
158,144,129745,1,0,0:0:0:0:
165,144,129813,1,0,0:0:0:0:
163,144,129881,1,8,0:0:0:0:
144,144,130017,1,8,0:0:0:0:
143,144,130154,5,0,0:0:0:0:
140,146,130290,1,8,0:0:0:0:
140,146,130358,1,0,0:0:0:0:
138,146,130426,1,8,0:0:0:0:
137,146,130563,1,0,0:0:0:0:
137,146,130699,1,8,0:0:0:0:
137,146,130767,1,8,0:0:0:0:
137,146,130836,1,8,0:0:0:0:
156,90,130904,1,8,0:0:0:0:
137,146,130972,1,0,0:0:0:0:
140,146,131040,1,0,0:0:0:0:
140,146,131108,1,8,0:0:0:0:
146,95,131176,1,0,0:0:0:0:
288,174,131245,5,8,0:0:0:0:
288,174,131313,1,8,0:0:0:0:
288,174,131381,1,0,0:0:0:0:
288,174,131517,1,8,0:0:0:0:
288,174,131654,1,0,0:0:0:0:
288,174,131790,1,8,0:0:0:0:
288,174,131858,1,8,0:0:0:0:
288,174,131926,1,0,0:0:0:0:
288,174,132063,1,8,0:0:0:0:
288,174,132199,1,0,0:0:0:0:
288,174,132336,1,8,0:0:0:0:
288,174,132404,1,8,0:0:0:0:
288,174,132472,1,0,0:0:0:0:
288,174,132608,1,8,0:0:0:0:
288,174,132745,1,0,0:0:0:0:
288,174,132813,1,0,0:0:0:0:
288,174,132881,1,8,0:0:0:0:
288,174,132949,1,0,0:0:0:0:
288,174,133017,1,8,0:0:0:0:
288,174,133154,1,8,0:0:0:0:
288,174,133290,1,0,0:0:0:0:
241,149,133426,1,12,0:0:0:0:
241,149,133563,1,0,0:0:0:0:
241,149,133631,1,0,0:0:0:0:
241,149,133699,1,0,0:0:0:0:
241,149,133836,1,12,0:0:0:0:
235,153,133972,1,0,0:0:0:0:
132,139,134040,1,0,0:0:0:0:
235,153,134108,1,0,0:0:0:0:
235,153,134245,1,12,0:0:0:0:
235,153,134381,1,0,0:0:0:0:
143,102,134517,1,0,0:0:0:0:
244,153,134586,1,0,0:0:0:0:
244,153,134654,1,8,0:0:0:0:
244,153,134722,1,0,0:0:0:0:
242,155,134790,1,8,0:0:0:0:
242,155,134858,1,8,0:0:0:0:
242,155,134926,1,0,0:0:0:0:
242,155,134995,1,0,0:0:0:0:
234,160,135063,1,8,0:0:0:0:
243,168,135199,1,8,0:0:0:0:
243,168,135336,1,0,0:0:0:0:
188,155,135404,1,0,0:0:0:0:
188,155,135472,1,8,0:0:0:0:
188,155,135540,1,8,0:0:0:0:
114,174,135608,1,4,0:0:0:0:
119,172,135745,1,8,0:0:0:0:
114,174,135813,1,0,0:0:0:0:
119,172,135881,1,8,0:0:0:0:
119,165,136017,1,0,0:0:0:0:
119,165,136154,1,8,0:0:0:0:
119,165,136222,1,8,0:0:0:0:
119,165,136290,1,0,0:0:0:0:
116,166,136358,1,0,0:0:0:0:
119,165,136426,1,8,0:0:0:0:
116,166,136563,1,8,0:0:0:0:
119,165,136699,1,0,0:0:0:0:
119,165,136836,1,8,0:0:0:0:
119,165,136904,1,8,0:0:0:0:
119,165,136972,1,0,0:0:0:0:
119,165,137108,1,8,0:0:0:0:
116,166,137245,1,8,0:0:0:0:
171,203,137313,1,0,0:0:0:0:
171,203,137381,1,0,0:0:0:0:
171,203,137449,1,0,0:0:0:0:
119,165,137517,1,8,0:0:0:0:
153,177,137654,1,0,0:0:0:0:
153,177,137722,1,0,0:0:0:0:
153,177,137790,1,0,0:0:0:0:
192,149,137926,1,8,0:0:0:0:
192,149,138063,1,8,0:0:0:0:
192,149,138131,1,8,0:0:0:0:
192,149,138199,1,0,0:0:0:0:
172,144,138336,1,8,0:0:0:0:
171,144,138404,1,8,0:0:0:0:
158,144,138472,1,0,0:0:0:0:
165,144,138540,1,0,0:0:0:0:
163,144,138608,1,8,0:0:0:0:
144,144,138745,1,8,0:0:0:0:
267,137,138881,1,0,0:0:0:0:
267,137,139017,1,8,0:0:0:0:
267,137,139086,1,0,0:0:0:0:
267,137,139154,1,8,0:0:0:0:
267,137,139290,1,0,0:0:0:0:
267,137,139426,1,8,0:0:0:0:
267,137,139495,1,0,0:0:0:0:
267,137,139563,1,0,0:0:0:0:
267,137,139631,1,0,0:0:0:0:
262,138,139699,1,8,0:0:0:0:
262,138,139836,1,0,0:0:0:0:
220,144,139972,1,8,0:0:0:0:
220,144,140040,1,8,0:0:0:0:
220,144,140108,1,0,0:0:0:0:
220,144,140176,1,0,0:0:0:0:
220,144,140245,1,8,0:0:0:0:
235,137,140381,1,8,0:0:0:0:
235,137,140517,1,0,0:0:0:0:
235,137,140586,1,8,0:0:0:0:
235,137,140654,1,0,0:0:0:0:
235,137,140722,1,0,0:0:0:0:
235,137,140790,1,8,0:0:0:0:
235,137,140926,1,0,0:0:0:0:
235,137,141063,1,8,0:0:0:0:
235,137,141131,1,8,0:0:0:0:
235,137,141199,1,0,0:0:0:0:
235,137,141267,1,0,0:0:0:0:
235,137,141336,1,8,0:0:0:0:
235,137,141472,1,8,0:0:0:0:
235,137,141608,1,0,0:0:0:0:
235,137,141676,1,0,0:0:0:0:
235,137,141745,1,8,0:0:0:0:
235,137,141813,1,8,0:0:0:0:
235,137,141881,1,0,0:0:0:0:
235,137,142017,1,8,0:0:0:0:
235,137,142154,1,4,0:0:0:0:
235,137,142563,1,4,0:0:0:0:
162,135,142972,1,12,0:0:0:0:
264,146,143245,1,0,0:0:0:0:
264,146,143381,1,8,0:0:0:0:
264,146,143449,1,0,0:0:0:0:
264,146,143517,1,8,0:0:0:0:
258,142,143654,1,0,0:0:0:0:
239,149,143926,1,0,0:0:0:0:
239,149,144063,1,8,0:0:0:0:
264,146,144336,1,8,0:0:0:0:
264,146,144404,1,0,0:0:0:0:
264,146,144472,1,8,0:0:0:0:
286,125,144540,1,0,0:0:0:0:
258,142,144608,1,8,0:0:0:0:
258,142,144676,1,8,0:0:0:0:
255,145,144745,1,0,0:0:0:0:
267,135,144813,1,0,0:0:0:0:
267,135,144881,1,8,0:0:0:0:
267,135,144949,1,0,0:0:0:0:
267,135,145017,1,8,0:0:0:0:
267,135,145086,1,0,0:0:0:0:
267,135,145154,1,8,0:0:0:0:
267,135,145222,1,8,0:0:0:0:
266,135,145290,1,0,0:0:0:0:
263,135,145358,1,0,0:0:0:0:
261,135,145426,1,8,0:0:0:0:
254,137,145495,1,0,0:0:0:0:
253,137,145563,1,8,0:0:0:0:
251,138,145631,1,8,0:0:0:0:
251,138,145699,1,0,0:0:0:0:
251,138,145767,1,8,0:0:0:0:
251,138,145836,1,0,0:0:0:0:
217,158,145904,1,8,0:0:0:0:
251,138,145972,1,0,0:0:0:0:
251,138,146040,1,0,0:0:0:0:
251,138,146108,1,8,0:0:0:0:
217,158,146176,1,0,0:0:0:0:
217,158,146245,1,8,0:0:0:0:
217,158,146313,1,8,0:0:0:0:
217,158,146381,1,8,0:0:0:0:
217,158,146449,1,8,0:0:0:0:
217,158,146517,1,0,0:0:0:0:
217,158,146586,1,0,0:0:0:0:
217,158,146654,1,8,0:0:0:0:
209,158,146722,1,0,0:0:0:0:
217,158,146790,1,8,0:0:0:0:
217,158,146858,1,8,0:0:0:0:
217,158,146926,1,0,0:0:0:0:
217,158,146995,1,8,0:0:0:0:
217,158,147063,1,0,0:0:0:0:
204,162,147131,1,0,0:0:0:0:
204,162,147199,1,8,0:0:0:0:
204,162,147267,1,0,0:0:0:0:
204,162,147336,1,8,0:0:0:0:
204,162,147404,1,8,0:0:0:0:
204,162,147472,1,0,0:0:0:0:
204,162,147540,1,8,0:0:0:0:
204,162,147608,1,0,0:0:0:0:
204,162,147676,1,0,0:0:0:0:
204,162,147745,1,8,0:0:0:0:
204,162,147813,1,0,0:0:0:0:
204,162,147881,1,8,0:0:0:0:
204,162,147949,1,8,0:0:0:0:
204,162,148017,1,0,0:0:0:0:
204,162,148086,1,8,0:0:0:0:
204,162,148154,1,0,0:0:0:0:
180,215,148222,1,0,0:0:0:0:
180,215,148290,1,8,0:0:0:0:
180,215,148358,1,0,0:0:0:0:
204,162,148426,1,8,0:0:0:0:
204,162,148495,1,8,0:0:0:0:
204,162,148563,1,8,0:0:0:0:
204,162,148631,1,8,0:0:0:0:
204,162,148699,1,0,0:0:0:0:
204,162,148767,1,0,0:0:0:0:
204,162,148836,1,8,0:0:0:0:
204,162,148904,1,0,0:0:0:0:
204,162,148972,1,8,0:0:0:0:
204,162,149040,1,8,0:0:0:0:
204,162,149108,1,0,0:0:0:0:
204,162,149176,1,8,0:0:0:0:
204,162,149245,1,0,0:0:0:0:
204,162,149313,1,0,0:0:0:0:
204,162,149381,1,8,0:0:0:0:
204,162,149449,1,0,0:0:0:0:
199,164,149517,1,8,0:0:0:0:
199,164,149586,1,8,0:0:0:0:
200,166,149654,1,0,0:0:0:0:
200,166,149722,1,0,0:0:0:0:
201,166,149790,1,8,0:0:0:0:
201,166,149858,1,8,0:0:0:0:
200,167,149926,1,0,0:0:0:0:
200,167,149995,1,8,0:0:0:0:
199,168,150063,1,0,0:0:0:0:
199,166,150131,1,0,0:0:0:0:
200,166,150199,1,8,0:0:0:0:
200,166,150267,1,0,0:0:0:0:
200,166,150336,1,8,0:0:0:0:
199,168,150404,1,8,0:0:0:0:
199,164,150472,1,0,0:0:0:0:
199,164,150540,1,0,0:0:0:0:
200,166,150608,1,8,0:0:0:0:
200,166,150676,1,8,0:0:0:0:
200,166,150745,1,8,0:0:0:0:
201,166,150813,1,8,0:0:0:0:
176,175,150881,1,4,0:0:0:0:
176,175,151017,1,12,0:0:0:0:
176,175,151154,1,12,0:0:0:0:
176,175,151290,1,4,0:0:0:0:
176,175,151426,1,12,0:0:0:0:
176,175,151563,1,4,0:0:0:0:
176,175,151699,1,12,0:0:0:0:
176,175,151836,1,12,0:0:0:0:
176,175,151972,1,4,0:0:0:0:
176,175,152108,1,4,0:0:0:0:
176,175,152245,1,12,0:0:0:0:
176,175,152381,1,4,0:0:0:0:
176,175,152517,1,8,0:0:0:0:
176,175,152654,1,0,0:0:0:0:
160,166,152790,1,8,0:0:0:0:
160,167,152858,1,8,0:0:0:0:
160,167,152926,1,8,0:0:0:0:
160,167,152995,1,8,0:0:0:0:
264,146,153063,1,0,0:0:0:0:
264,146,153131,1,0,0:0:0:0:
264,146,153199,1,8,0:0:0:0:
286,125,153267,1,0,0:0:0:0:
258,142,153336,1,8,0:0:0:0:
258,142,153404,1,8,0:0:0:0:
255,145,153472,1,0,0:0:0:0:
267,135,153540,1,0,0:0:0:0:
267,135,153608,1,8,0:0:0:0:
267,135,153676,1,0,0:0:0:0:
267,135,153745,1,8,0:0:0:0:
267,135,153813,1,0,0:0:0:0:
267,135,153881,1,8,0:0:0:0:
267,135,153949,1,8,0:0:0:0:
266,135,154017,1,0,0:0:0:0:
263,135,154086,1,0,0:0:0:0:
261,135,154154,1,8,0:0:0:0:
254,137,154222,1,0,0:0:0:0:
253,137,154290,1,8,0:0:0:0:
251,138,154358,1,8,0:0:0:0:
251,138,154426,1,0,0:0:0:0:
251,138,154495,1,8,0:0:0:0:
251,138,154563,1,0,0:0:0:0:
217,158,154631,1,8,0:0:0:0:
251,138,154699,1,0,0:0:0:0:
251,138,154767,1,0,0:0:0:0:
251,138,154836,1,8,0:0:0:0:
217,158,154904,1,0,0:0:0:0:
217,158,154972,1,8,0:0:0:0:
217,158,155040,1,8,0:0:0:0:
217,158,155108,1,8,0:0:0:0:
217,158,155176,1,8,0:0:0:0:
217,158,155245,1,0,0:0:0:0:
217,158,155313,1,0,0:0:0:0:
217,158,155381,1,8,0:0:0:0:
209,158,155449,1,0,0:0:0:0:
217,158,155517,1,8,0:0:0:0:
217,158,155586,1,8,0:0:0:0:
217,158,155654,1,0,0:0:0:0:
217,158,155722,1,8,0:0:0:0:
217,158,155790,1,0,0:0:0:0:
204,162,155858,1,0,0:0:0:0:
204,162,155926,1,8,0:0:0:0:
204,162,155995,1,0,0:0:0:0:
204,162,156063,1,8,0:0:0:0:
204,162,156131,1,8,0:0:0:0:
204,162,156199,1,0,0:0:0:0:
204,162,156267,1,8,0:0:0:0:
204,162,156336,1,0,0:0:0:0:
204,162,156404,1,0,0:0:0:0:
204,162,156472,1,8,0:0:0:0:
204,162,156540,1,0,0:0:0:0:
204,162,156608,1,8,0:0:0:0:
204,162,156676,1,8,0:0:0:0:
204,162,156745,1,0,0:0:0:0:
204,162,156813,1,8,0:0:0:0:
204,162,156881,1,0,0:0:0:0:
162,171,156949,1,0,0:0:0:0:
162,171,157017,1,8,0:0:0:0:
162,171,157086,1,0,0:0:0:0:
204,162,157154,1,8,0:0:0:0:
204,162,157222,1,8,0:0:0:0:
204,162,157290,1,8,0:0:0:0:
204,162,157358,1,8,0:0:0:0:
204,162,157426,1,0,0:0:0:0:
204,162,157495,1,0,0:0:0:0:
204,162,157563,1,8,0:0:0:0:
204,162,157631,1,0,0:0:0:0:
204,162,157699,1,8,0:0:0:0:
204,162,157767,1,8,0:0:0:0:
204,162,157836,1,0,0:0:0:0:
204,162,157904,1,8,0:0:0:0:
204,162,157972,1,0,0:0:0:0:
204,162,158040,1,0,0:0:0:0:
204,162,158108,1,8,0:0:0:0:
204,162,158176,1,0,0:0:0:0:
199,164,158245,1,8,0:0:0:0:
199,164,158313,1,8,0:0:0:0:
200,166,158381,1,0,0:0:0:0:
200,166,158449,1,0,0:0:0:0:
201,166,158517,1,8,0:0:0:0:
201,166,158586,1,8,0:0:0:0:
200,167,158654,1,0,0:0:0:0:
200,167,158722,1,8,0:0:0:0:
199,168,158790,1,0,0:0:0:0:
199,166,158858,1,0,0:0:0:0:
200,166,158926,1,8,0:0:0:0:
200,166,158995,1,0,0:0:0:0:
200,166,159063,1,8,0:0:0:0:
199,168,159131,1,8,0:0:0:0:
199,164,159199,1,0,0:0:0:0:
199,164,159267,1,0,0:0:0:0:
200,166,159336,1,8,0:0:0:0:
200,166,159404,1,8,0:0:0:0:
200,166,159472,1,8,0:0:0:0:
201,166,159540,1,8,0:0:0:0:
239,176,161790,5,4,0:0:0:0:
231,157,170517,5,4,0:0:0:0:
165,175,170654,1,8,0:0:0:0:
165,175,170790,1,8,0:0:0:0:
152,151,170995,1,8,0:0:0:0:
152,151,171199,1,8,0:0:0:0:
193,161,171336,1,8,0:0:0:0:
193,161,171472,1,0,0:0:0:0:
193,161,171608,1,0,0:0:0:0:
193,161,171745,1,8,0:0:0:0:
193,161,171881,1,8,0:0:0:0:
193,161,172086,1,8,0:0:0:0:
193,161,172290,1,0,0:0:0:0:
193,161,172426,1,8,0:0:0:0:
193,161,172563,1,8,0:0:0:0:
193,161,172699,1,0,0:0:0:0:
193,161,172836,1,8,0:0:0:0:
193,161,172972,1,8,0:0:0:0:
193,161,173108,1,8,0:0:0:0:
178,127,173245,1,0,0:0:0:0:
178,127,173313,1,0,0:0:0:0:
178,127,173381,1,8,0:0:0:0:
134,132,173517,1,8,0:0:0:0:
134,132,173654,1,0,0:0:0:0:
134,132,173790,1,0,0:0:0:0:
134,132,173926,1,8,0:0:0:0:
134,132,174063,1,8,0:0:0:0:
179,145,174199,1,0,0:0:0:0:
174,138,174267,1,8,0:0:0:0:
174,138,174472,1,8,0:0:0:0:
174,138,174608,1,8,0:0:0:0:
174,138,174745,1,0,0:0:0:0:
231,157,174881,5,0,0:0:0:0:
165,175,175017,1,8,0:0:0:0:
165,175,175154,1,8,0:0:0:0:
152,151,175358,1,8,0:0:0:0:
152,151,175563,1,8,0:0:0:0:
193,161,175699,1,8,0:0:0:0:
193,161,175836,1,0,0:0:0:0:
193,161,175972,1,0,0:0:0:0:
193,161,176108,1,8,0:0:0:0:
193,161,176245,1,8,0:0:0:0:
193,161,176449,1,8,0:0:0:0:
193,161,176654,1,0,0:0:0:0:
193,161,176790,1,8,0:0:0:0:
193,161,176926,1,8,0:0:0:0:
193,161,177063,1,0,0:0:0:0:
193,161,177199,1,8,0:0:0:0:
193,161,177336,1,8,0:0:0:0:
193,161,177472,1,0,0:0:0:0:
178,127,177540,1,8,0:0:0:0:
178,127,177745,1,8,0:0:0:0:
134,132,177881,1,8,0:0:0:0:
134,132,178017,1,0,0:0:0:0:
134,132,178154,1,0,0:0:0:0:
134,132,178290,1,8,0:0:0:0:
134,132,178426,1,8,0:0:0:0:
179,145,178563,1,0,0:0:0:0:
174,138,178631,1,8,0:0:0:0:
112,165,178836,1,0,0:0:0:0:
174,138,178972,1,8,0:0:0:0:
116,175,179108,1,8,0:0:0:0:
183,155,179245,1,4,0:0:0:0:
216,188,179381,1,8,0:0:0:0:
216,188,179517,1,8,0:0:0:0:
204,162,179654,1,0,0:0:0:0:
204,162,179722,1,0,0:0:0:0:
196,146,179790,1,0,0:0:0:0:
276,136,179926,1,8,0:0:0:0:
276,136,180063,1,0,0:0:0:0:
276,136,180199,1,8,0:0:0:0:
276,136,180336,1,0,0:0:0:0:
96,157,180472,1,8,0:0:0:0:
133,168,180608,1,8,0:0:0:0:
143,136,180745,1,0,0:0:0:0:
143,136,180813,1,0,0:0:0:0:
143,136,180881,1,8,0:0:0:0:
127,127,181017,1,0,0:0:0:0:
127,127,181154,1,8,0:0:0:0:
127,127,181290,1,8,0:0:0:0:
194,159,181426,1,0,0:0:0:0:
179,160,181563,1,8,0:0:0:0:
172,159,181699,1,8,0:0:0:0:
172,159,181836,1,0,0:0:0:0:
172,159,181904,1,8,0:0:0:0:
172,159,181972,1,0,0:0:0:0:
172,159,182040,1,0,0:0:0:0:
172,159,182108,1,8,0:0:0:0:
185,152,182245,1,8,0:0:0:0:
185,152,182381,1,8,0:0:0:0:
185,152,182517,1,0,0:0:0:0:
172,159,182654,1,8,0:0:0:0:
172,159,182722,1,0,0:0:0:0:
172,159,182790,1,8,0:0:0:0:
168,124,182926,1,0,0:0:0:0:
146,127,182995,1,0,0:0:0:0:
146,127,183063,1,8,0:0:0:0:
146,127,183131,1,8,0:0:0:0:
146,128,183199,1,0,0:0:0:0:
145,128,183336,1,0,0:0:0:0:
145,128,183472,1,8,0:0:0:0:
145,128,183608,1,0,0:0:0:0:
146,127,183745,1,8,0:0:0:0:
146,127,183881,1,8,0:0:0:0:
145,128,184017,1,0,0:0:0:0:
145,128,184086,1,0,0:0:0:0:
145,128,184154,1,8,0:0:0:0:
178,114,184290,1,0,0:0:0:0:
178,114,184426,1,8,0:0:0:0:
178,114,184563,1,8,0:0:0:0:
172,115,184699,1,0,0:0:0:0:
174,124,184836,1,0,0:0:0:0:
174,124,184972,1,8,0:0:0:0:
174,124,185108,1,0,0:0:0:0:
129,107,185176,1,8,0:0:0:0:
129,107,185245,1,8,0:0:0:0:
129,107,185313,1,0,0:0:0:0:
129,107,185381,1,0,0:0:0:0:
185,127,185517,1,8,0:0:0:0:
182,127,185654,1,8,0:0:0:0:
212,171,185790,1,0,0:0:0:0:
205,171,185926,1,8,0:0:0:0:
205,171,186063,1,8,0:0:0:0:
205,171,186199,1,0,0:0:0:0:
122,191,186267,1,8,0:0:0:0:
205,171,186336,1,0,0:0:0:0:
205,171,186404,1,0,0:0:0:0:
122,191,186472,1,8,0:0:0:0:
122,191,186608,1,8,0:0:0:0:
122,191,186745,1,0,0:0:0:0:
122,191,186881,1,8,0:0:0:0:
110,194,186949,1,0,0:0:0:0:
110,194,187017,1,8,0:0:0:0:
110,194,187086,1,0,0:0:0:0:
110,194,187154,1,8,0:0:0:0:
110,194,187290,1,0,0:0:0:0:
105,195,187358,1,8,0:0:0:0:
105,195,187495,1,0,0:0:0:0:
105,195,187563,1,8,0:0:0:0:
105,195,187631,1,8,0:0:0:0:
105,195,187699,1,0,0:0:0:0:
105,195,187767,1,0,0:0:0:0:
105,195,187836,1,8,0:0:0:0:
161,131,187972,5,4,0:0:0:0:
161,131,188517,1,0,0:0:0:0:
161,131,189063,1,8,0:0:0:0:
161,131,189608,1,8,0:0:0:0:
161,131,190154,1,0,0:0:0:0:
161,131,190426,1,0,0:0:0:0:
161,131,190699,1,8,0:0:0:0:
161,131,190972,1,0,0:0:0:0:
161,131,191245,1,8,0:0:0:0:
161,131,191517,1,8,0:0:0:0:
161,131,191790,1,0,0:0:0:0:
161,131,192063,1,8,0:0:0:0:
161,131,192336,1,0,0:0:0:0:
161,131,192472,1,0,0:0:0:0:
161,131,192608,1,8,0:0:0:0:
161,131,192745,1,0,0:0:0:0:
161,131,192881,1,8,0:0:0:0:
161,131,193017,1,8,0:0:0:0:
161,131,193154,1,0,0:0:0:0:
161,131,193290,1,8,0:0:0:0:
161,131,193426,1,0,0:0:0:0:
161,131,193563,1,0,0:0:0:0:
161,131,193699,1,8,0:0:0:0:
161,131,193836,1,0,0:0:0:0:
161,131,193972,1,8,0:0:0:0:
161,131,194108,1,0,0:0:0:0:
161,131,194245,1,8,0:0:0:0:
161,131,194381,1,8,0:0:0:0:
231,172,194517,1,0,0:0:0:0:
161,131,194586,1,0,0:0:0:0:
231,172,194654,1,0,0:0:0:0:
169,134,194722,1,0,0:0:0:0:
231,172,194790,1,8,0:0:0:0:
231,172,194858,1,8,0:0:0:0:
231,172,194926,1,0,0:0:0:0:
231,172,194995,1,8,0:0:0:0:
231,172,195063,1,0,0:0:0:0:
194,138,195131,1,0,0:0:0:0:
231,172,195199,1,8,0:0:0:0:
212,147,195267,1,8,0:0:0:0:
212,147,195336,1,0,0:0:0:0:
231,172,195404,1,0,0:0:0:0:
223,148,195472,1,8,0:0:0:0:
231,172,195540,1,8,0:0:0:0:
231,172,195608,1,0,0:0:0:0:
231,172,195745,1,8,0:0:0:0:
214,115,195881,1,8,0:0:0:0:
214,115,196017,1,0,0:0:0:0:
215,68,196086,5,0,0:0:0:0:
208,72,196154,1,8,0:0:0:0:
208,72,196290,1,0,0:0:0:0:
208,72,196426,1,8,0:0:0:0:
208,72,196495,1,8,0:0:0:0:
208,72,196563,1,8,0:0:0:0:
208,72,196631,1,8,0:0:0:0:
208,72,196699,1,4,0:0:0:0:
228,130,196836,1,8,0:0:0:0:
228,130,196904,1,0,0:0:0:0:
228,130,196972,1,8,0:0:0:0:
229,123,197108,1,8,0:0:0:0:
228,123,197176,1,8,0:0:0:0:
128,141,197245,1,0,0:0:0:0:
228,123,197313,1,0,0:0:0:0:
228,123,197381,1,8,0:0:0:0:
128,141,197517,1,0,0:0:0:0:
212,116,197654,1,8,0:0:0:0:
128,141,197790,1,0,0:0:0:0:
212,116,197926,1,8,0:0:0:0:
212,116,197995,1,8,0:0:0:0:
128,141,198063,1,0,0:0:0:0:
210,116,198199,1,8,0:0:0:0:
212,116,198267,1,0,0:0:0:0:
212,116,198336,1,8,0:0:0:0:
212,116,198404,1,8,0:0:0:0:
212,116,198472,1,0,0:0:0:0:
212,116,198540,1,0,0:0:0:0:
212,116,198608,1,8,0:0:0:0:
212,116,198745,1,8,0:0:0:0:
197,119,198813,1,0,0:0:0:0:
128,141,198881,1,0,0:0:0:0:
202,116,199017,1,8,0:0:0:0:
202,116,199154,1,8,0:0:0:0:
211,105,199290,1,0,0:0:0:0:
211,105,199358,1,0,0:0:0:0:
211,105,199426,1,8,0:0:0:0:
211,105,199495,1,0,0:0:0:0:
211,105,199563,1,8,0:0:0:0:
221,98,199699,1,8,0:0:0:0:
221,98,199836,1,8,0:0:0:0:
128,141,199972,1,0,0:0:0:0:
215,100,200108,1,8,0:0:0:0:
215,100,200176,1,0,0:0:0:0:
215,100,200245,1,8,0:0:0:0:
215,100,200381,1,0,0:0:0:0:
215,100,200449,1,8,0:0:0:0:
220,119,200586,1,8,0:0:0:0:
207,102,200654,1,0,0:0:0:0:
207,102,200790,1,8,0:0:0:0:
207,102,200858,1,8,0:0:0:0:
207,102,200926,1,8,0:0:0:0:
192,77,200995,1,8,0:0:0:0:
128,141,201063,1,0,0:0:0:0:
159,114,201199,1,8,0:0:0:0:
159,114,201267,1,0,0:0:0:0:
159,114,201336,1,8,0:0:0:0:
159,114,201472,1,8,0:0:0:0:
172,107,201540,1,0,0:0:0:0:
172,107,201608,1,8,0:0:0:0:
171,107,201676,1,8,0:0:0:0:
170,108,201745,1,0,0:0:0:0:
170,108,201881,1,8,0:0:0:0:
170,108,202017,1,0,0:0:0:0:
170,108,202086,1,8,0:0:0:0:
128,141,202154,1,0,0:0:0:0:
172,107,202290,1,8,0:0:0:0:
171,107,202426,1,8,0:0:0:0:
170,108,202563,1,0,0:0:0:0:
170,108,202631,1,8,0:0:0:0:
128,141,202699,1,0,0:0:0:0:
170,108,202836,1,8,0:0:0:0:
169,136,202904,1,8,0:0:0:0:
165,109,202972,1,0,0:0:0:0:
165,109,203040,1,0,0:0:0:0:
165,109,203108,1,8,0:0:0:0:
165,109,203176,1,8,0:0:0:0:
128,141,203245,1,0,0:0:0:0:
144,134,203381,1,8,0:0:0:0:
128,141,203517,1,0,0:0:0:0:
123,97,203654,1,8,0:0:0:0:
123,97,203722,1,8,0:0:0:0:
128,141,203790,1,0,0:0:0:0:
123,97,203926,1,0,0:0:0:0:
123,97,204063,1,8,0:0:0:0:
123,97,204131,1,0,0:0:0:0:
123,97,204199,1,8,0:0:0:0:
123,97,204267,1,8,0:0:0:0:
128,141,204336,1,0,0:0:0:0:
136,97,204472,1,0,0:0:0:0:
136,97,204608,1,8,0:0:0:0:
136,97,204745,1,8,0:0:0:0:
156,88,204813,1,8,0:0:0:0:
128,141,204881,1,0,0:0:0:0:
163,95,205017,1,0,0:0:0:0:
163,95,205154,1,8,0:0:0:0:
163,95,205222,1,8,0:0:0:0:
163,95,205290,1,8,0:0:0:0:
163,95,205358,1,8,0:0:0:0:
208,72,205426,1,4,0:0:0:0:
228,130,205563,1,8,0:0:0:0:
228,130,205631,1,0,0:0:0:0:
228,130,205699,1,8,0:0:0:0:
229,123,205836,1,8,0:0:0:0:
228,123,205904,1,0,0:0:0:0:
128,141,205972,1,8,0:0:0:0:
228,123,206040,1,8,0:0:0:0:
228,123,206108,1,0,0:0:0:0:
128,141,206245,1,8,0:0:0:0:
212,116,206381,1,8,0:0:0:0:
128,141,206517,1,0,0:0:0:0:
212,116,206654,1,8,0:0:0:0:
212,116,206722,1,8,0:0:0:0:
128,141,206790,1,0,0:0:0:0:
210,116,206926,1,8,0:0:0:0:
212,116,206995,1,8,0:0:0:0:
212,116,207063,1,0,0:0:0:0:
212,116,207131,1,8,0:0:0:0:
212,116,207199,1,0,0:0:0:0:
212,116,207267,1,0,0:0:0:0:
212,116,207336,1,8,0:0:0:0:
212,116,207472,1,8,0:0:0:0:
197,119,207540,1,0,0:0:0:0:
128,141,207608,1,0,0:0:0:0:
202,116,207745,1,8,0:0:0:0:
202,116,207881,1,8,0:0:0:0:
211,105,208017,1,0,0:0:0:0:
211,105,208086,1,0,0:0:0:0:
211,105,208154,1,8,0:0:0:0:
211,105,208222,1,0,0:0:0:0:
211,105,208290,1,8,0:0:0:0:
221,98,208426,1,0,0:0:0:0:
221,98,208563,1,0,0:0:0:0:
128,141,208699,1,8,0:0:0:0:
215,100,208836,1,0,0:0:0:0:
215,100,208904,1,0,0:0:0:0:
215,100,208972,1,8,0:0:0:0:
215,100,209108,1,0,0:0:0:0:
215,100,209176,1,8,0:0:0:0:
220,119,209313,1,8,0:0:0:0:
207,102,209381,1,0,0:0:0:0:
207,102,209517,1,8,0:0:0:0:
207,102,209586,1,8,0:0:0:0:
207,102,209654,1,8,0:0:0:0:
192,77,209722,1,8,0:0:0:0:
128,141,209790,1,0,0:0:0:0:
159,114,209926,1,8,0:0:0:0:
159,114,209995,1,0,0:0:0:0:
159,114,210063,1,0,0:0:0:0:
159,114,210199,1,8,0:0:0:0:
172,107,210267,1,8,0:0:0:0:
172,107,210336,1,0,0:0:0:0:
171,107,210404,1,0,0:0:0:0:
170,108,210472,1,8,0:0:0:0:
170,108,210608,1,8,0:0:0:0:
170,108,210745,1,0,0:0:0:0:
170,108,210813,1,8,0:0:0:0:
128,141,210881,1,0,0:0:0:0:
172,107,211017,1,8,0:0:0:0:
171,107,211154,1,8,0:0:0:0:
170,108,211290,1,0,0:0:0:0:
170,108,211358,1,0,0:0:0:0:
128,141,211426,1,8,0:0:0:0:
170,108,211563,1,0,0:0:0:0:
176,127,211631,1,0,0:0:0:0:
165,109,211699,1,8,0:0:0:0:
165,109,211767,1,0,0:0:0:0:
165,109,211836,1,8,0:0:0:0:
165,109,211904,1,8,0:0:0:0:
128,141,211972,1,0,0:0:0:0:
144,134,212108,1,8,0:0:0:0:
128,141,212245,1,0,0:0:0:0:
123,97,212381,1,8,0:0:0:0:
123,97,212449,1,8,0:0:0:0:
128,141,212517,1,0,0:0:0:0:
123,97,212654,1,0,0:0:0:0:
123,97,212790,1,8,0:0:0:0:
123,97,212858,1,8,0:0:0:0:
123,97,212926,1,0,0:0:0:0:
123,97,212995,1,8,0:0:0:0:
128,141,213063,1,0,0:0:0:0:
136,97,213199,1,0,0:0:0:0:
136,97,213336,5,8,0:0:0:0:
136,97,213472,1,0,0:0:0:0:
156,88,213540,1,0,0:0:0:0:
128,141,213608,1,8,0:0:0:0:
138,83,213676,1,8,0:0:0:0:
163,95,213745,1,0,0:0:0:0:
139,83,213813,1,0,0:0:0:0:
163,95,213881,1,8,0:0:0:0:
163,95,213949,1,8,0:0:0:0:
163,95,214017,1,8,0:0:0:0:
163,95,214086,1,8,0:0:0:0:
128,141,214154,1,4,0:0:0:0:
208,130,214290,1,0,0:0:0:0:
208,130,214426,1,8,0:0:0:0:
208,130,214563,1,0,0:0:0:0:
208,130,214631,1,8,0:0:0:0:
208,130,214699,1,0,0:0:0:0:
208,130,214836,1,0,0:0:0:0:
208,130,214972,1,8,0:0:0:0:
208,130,215040,1,8,0:0:0:0:
208,130,215108,1,0,0:0:0:0:
123,144,215245,1,0,0:0:0:0:
182,90,215381,1,8,0:0:0:0:
182,90,215449,1,0,0:0:0:0:
182,90,215517,1,8,0:0:0:0:
182,90,215654,1,0,0:0:0:0:
182,90,215722,1,8,0:0:0:0:
138,67,215858,1,8,0:0:0:0:
138,67,215926,1,0,0:0:0:0:
138,67,216063,1,8,0:0:0:0:
138,67,216131,1,0,0:0:0:0:
138,67,216199,1,8,0:0:0:0:
138,67,216267,1,8,0:0:0:0:
123,144,216336,1,0,0:0:0:0:
256,79,216472,1,8,0:0:0:0:
223,76,216540,1,0,0:0:0:0:
223,76,216608,1,8,0:0:0:0:
236,50,216745,1,0,0:0:0:0:
226,80,216813,1,0,0:0:0:0:
226,80,216881,1,8,0:0:0:0:
226,80,216949,1,8,0:0:0:0:
223,80,217017,1,0,0:0:0:0:
223,80,217154,1,8,0:0:0:0:
223,76,217290,1,8,0:0:0:0:
123,144,217426,1,0,0:0:0:0:
223,80,217563,1,8,0:0:0:0:
226,80,217631,1,0,0:0:0:0:
226,80,217699,1,8,0:0:0:0:
226,80,217836,1,0,0:0:0:0:
226,80,217904,1,8,0:0:0:0:
185,68,218040,1,8,0:0:0:0:
185,68,218108,1,0,0:0:0:0:
185,68,218245,1,8,0:0:0:0:
176,68,218313,1,0,0:0:0:0:
176,68,218381,1,8,0:0:0:0:
176,68,218449,1,8,0:0:0:0:
128,141,218517,1,0,0:0:0:0:
208,130,218654,1,0,0:0:0:0:
208,130,218790,1,8,0:0:0:0:
208,130,218926,1,0,0:0:0:0:
208,130,218995,1,8,0:0:0:0:
208,130,219063,1,0,0:0:0:0:
208,130,219199,1,0,0:0:0:0:
208,130,219336,1,8,0:0:0:0:
208,130,219404,1,8,0:0:0:0:
208,130,219472,1,0,0:0:0:0:
123,144,219608,1,0,0:0:0:0:
182,90,219745,1,8,0:0:0:0:
182,90,219813,1,0,0:0:0:0:
182,90,219881,1,8,0:0:0:0:
182,90,220017,1,0,0:0:0:0:
182,90,220086,1,8,0:0:0:0:
138,67,220222,1,8,0:0:0:0:
138,67,220290,1,0,0:0:0:0:
138,67,220426,1,8,0:0:0:0:
138,67,220495,1,8,0:0:0:0:
138,67,220563,1,0,0:0:0:0:
138,67,220631,1,8,0:0:0:0:
123,144,220699,1,0,0:0:0:0:
256,79,220836,1,8,0:0:0:0:
223,76,220904,1,8,0:0:0:0:
223,76,220972,1,8,0:0:0:0:
236,50,221108,1,0,0:0:0:0:
226,80,221176,1,8,0:0:0:0:
226,80,221245,1,0,0:0:0:0:
226,80,221313,1,8,0:0:0:0:
223,80,221381,1,0,0:0:0:0:
223,80,221517,1,8,0:0:0:0:
223,76,221654,1,8,0:0:0:0:
123,144,221790,1,0,0:0:0:0:
226,80,221926,1,0,0:0:0:0:
226,80,222063,1,8,0:0:0:0:
226,80,222199,1,0,0:0:0:0:
163,105,222267,1,0,0:0:0:0:
185,68,222336,1,8,0:0:0:0:
185,68,222472,1,0,0:0:0:0:
185,68,222608,1,8,0:0:0:0:
176,68,222676,1,8,0:0:0:0:
176,68,222745,1,8,0:0:0:0:
176,68,222813,1,8,0:0:0:0:
128,141,222881,1,0,0:0:0:0:
208,130,223017,1,8,0:0:0:0:
208,130,223154,1,0,0:0:0:0:
208,130,223290,1,8,0:0:0:0:
208,130,223358,1,8,0:0:0:0:
208,130,223426,1,0,0:0:0:0:
208,130,223563,1,8,0:0:0:0:
208,130,223699,1,0,0:0:0:0:
208,130,223767,1,8,0:0:0:0:
208,130,223836,1,0,0:0:0:0:
123,144,223972,1,0,0:0:0:0:
182,90,224108,1,8,0:0:0:0:
182,90,224176,1,8,0:0:0:0:
182,90,224245,1,8,0:0:0:0:
182,90,224381,1,0,0:0:0:0:
182,90,224449,1,8,0:0:0:0:
138,67,224586,1,8,0:0:0:0:
138,67,224654,1,0,0:0:0:0:
138,67,224790,1,8,0:0:0:0:
138,67,224858,1,0,0:0:0:0:
138,67,224926,1,8,0:0:0:0:
138,67,224995,1,8,0:0:0:0:
123,144,225063,1,0,0:0:0:0:
256,79,225199,1,8,0:0:0:0:
223,76,225267,1,0,0:0:0:0:
223,76,225336,1,8,0:0:0:0:
236,50,225472,1,0,0:0:0:0:
226,80,225540,1,0,0:0:0:0:
226,80,225608,1,8,0:0:0:0:
226,80,225676,1,0,0:0:0:0:
223,80,225745,1,8,0:0:0:0:
223,80,225881,1,0,0:0:0:0:
223,76,226017,1,8,0:0:0:0:
123,144,226154,1,0,0:0:0:0:
223,80,226290,1,8,0:0:0:0:
226,80,226358,1,0,0:0:0:0:
226,80,226426,1,8,0:0:0:0:
226,80,226563,1,0,0:0:0:0:
226,80,226631,1,8,0:0:0:0:
185,68,226767,1,8,0:0:0:0:
185,68,226836,1,0,0:0:0:0:
185,68,226972,1,8,0:0:0:0:
176,68,227040,1,8,0:0:0:0:
176,68,227108,1,0,0:0:0:0:
176,68,227176,1,8,0:0:0:0:
128,141,227245,1,0,0:0:0:0:
208,130,227381,1,0,0:0:0:0:
208,130,227517,1,8,0:0:0:0:
208,130,227654,1,0,0:0:0:0:
208,130,227722,1,8,0:0:0:0:
208,130,227790,1,0,0:0:0:0:
208,130,227926,1,0,0:0:0:0:
208,130,228063,1,8,0:0:0:0:
208,130,228131,1,8,0:0:0:0:
208,130,228199,1,0,0:0:0:0:
123,144,228336,1,0,0:0:0:0:
182,90,228472,1,8,0:0:0:0:
182,90,228540,1,0,0:0:0:0:
182,90,228608,1,8,0:0:0:0:
182,90,228745,1,0,0:0:0:0:
182,90,228813,1,8,0:0:0:0:
138,67,228949,1,8,0:0:0:0:
138,67,229017,1,0,0:0:0:0:
138,67,229154,1,8,0:0:0:0:
138,67,229222,1,8,0:0:0:0:
138,67,229290,1,0,0:0:0:0:
138,67,229358,5,8,0:0:0:0:
123,144,229426,1,0,0:0:0:0:
256,79,229563,1,8,0:0:0:0:
223,76,229631,1,8,0:0:0:0:
223,76,229699,1,8,0:0:0:0:
236,50,229836,1,0,0:0:0:0:
226,80,229904,1,8,0:0:0:0:
226,80,229972,1,0,0:0:0:0:
226,80,230040,1,8,0:0:0:0:
223,80,230108,1,0,0:0:0:0:
223,80,230245,1,8,0:0:0:0:
223,76,230381,1,8,0:0:0:0:
125,138,230517,5,0,0:0:0:0:
226,80,230654,1,0,0:0:0:0:
125,138,230790,1,8,0:0:0:0:
226,80,230926,1,0,0:0:0:0:
163,105,230995,1,0,0:0:0:0:
185,68,231063,1,8,0:0:0:0:
185,68,231199,1,0,0:0:0:0:
125,138,231336,1,8,0:0:0:0:
176,68,231404,1,8,0:0:0:0:
176,68,231472,1,8,0:0:0:0:
176,68,231540,1,8,0:0:0:0:
161,80,231608,1,0,0:0:0:0:
169,177,231745,1,0,0:0:0:0:
177,188,231881,1,8,0:0:0:0:
177,188,231949,1,8,0:0:0:0:
177,188,232086,1,0,0:0:0:0:
156,155,232154,1,8,0:0:0:0:
156,155,232290,1,0,0:0:0:0:
156,155,232426,1,8,0:0:0:0:
156,155,232495,1,8,0:0:0:0:
149,136,232563,1,0,0:0:0:0:
149,136,232699,1,0,0:0:0:0:
149,136,232836,1,8,0:0:0:0:
149,136,232904,1,0,0:0:0:0:
149,136,232972,1,8,0:0:0:0:
177,159,233108,1,0,0:0:0:0:
177,159,233176,1,8,0:0:0:0:
174,149,233313,1,8,0:0:0:0:
174,149,233381,1,0,0:0:0:0:
189,128,233517,1,8,0:0:0:0:
189,128,233586,1,8,0:0:0:0:
189,128,233654,1,0,0:0:0:0:
189,128,233722,1,8,0:0:0:0:
189,128,233790,1,0,0:0:0:0:
242,100,233926,1,8,0:0:0:0:
242,100,234063,1,8,0:0:0:0:
189,140,234199,1,0,0:0:0:0:
189,140,234336,1,8,0:0:0:0:
157,85,234404,1,0,0:0:0:0:
157,85,234472,1,8,0:0:0:0:
213,142,234608,1,0,0:0:0:0:
213,142,234745,1,8,0:0:0:0:
217,133,234881,1,0,0:0:0:0:
217,133,235017,1,8,0:0:0:0:
217,133,235154,1,8,0:0:0:0:
217,133,235290,1,0,0:0:0:0:
217,133,235358,1,8,0:0:0:0:
217,133,235495,1,8,0:0:0:0:
217,133,235563,1,0,0:0:0:0:
209,132,235699,1,8,0:0:0:0:
195,131,235767,1,8,0:0:0:0:
195,131,235836,1,8,0:0:0:0:
161,80,235972,1,0,0:0:0:0:
169,177,236108,1,0,0:0:0:0:
177,188,236245,1,8,0:0:0:0:
177,188,236313,1,8,0:0:0:0:
177,188,236449,1,0,0:0:0:0:
156,155,236517,1,8,0:0:0:0:
156,155,236654,1,0,0:0:0:0:
156,155,236790,1,8,0:0:0:0:
156,155,236858,1,8,0:0:0:0:
149,136,236926,1,0,0:0:0:0:
149,136,237063,1,0,0:0:0:0:
149,136,237199,1,8,0:0:0:0:
149,136,237267,1,0,0:0:0:0:
149,136,237336,1,8,0:0:0:0:
177,159,237472,1,0,0:0:0:0:
177,159,237540,1,8,0:0:0:0:
174,149,237676,1,8,0:0:0:0:
174,149,237745,1,0,0:0:0:0:
189,128,237881,1,8,0:0:0:0:
189,128,237949,1,0,0:0:0:0:
189,128,238017,1,8,0:0:0:0:
189,128,238086,1,8,0:0:0:0:
189,128,238154,1,0,0:0:0:0:
242,100,238290,1,8,0:0:0:0:
242,100,238426,1,8,0:0:0:0:
189,140,238563,1,0,0:0:0:0:
189,140,238631,1,8,0:0:0:0:
157,85,238767,1,0,0:0:0:0:
157,85,238836,1,0,0:0:0:0:
213,142,238972,1,8,0:0:0:0:
189,88,239040,1,0,0:0:0:0:
213,142,239108,1,8,0:0:0:0:
217,133,239245,1,0,0:0:0:0:
217,133,239381,1,0,0:0:0:0:
217,133,239517,1,8,0:0:0:0:
217,133,239654,1,0,0:0:0:0:
217,133,239790,1,8,0:0:0:0:
217,133,239926,1,8,0:0:0:0:
209,132,240063,1,0,0:0:0:0:
195,131,240131,1,0,0:0:0:0:
195,131,240199,1,8,0:0:0:0:
163,134,240267,1,8,0:0:0:0:
161,80,240336,1,0,0:0:0:0:
169,177,240472,1,0,0:0:0:0:
177,188,240608,1,8,0:0:0:0:
177,188,240676,1,8,0:0:0:0:
177,188,240813,1,0,0:0:0:0:
156,155,240881,1,8,0:0:0:0:
156,155,241017,1,0,0:0:0:0:
156,155,241154,1,8,0:0:0:0:
156,155,241222,1,8,0:0:0:0:
149,136,241290,1,0,0:0:0:0:
149,136,241426,1,0,0:0:0:0:
149,136,241563,1,8,0:0:0:0:
149,136,241631,1,0,0:0:0:0:
149,136,241699,1,8,0:0:0:0:
177,159,241836,1,0,0:0:0:0:
177,159,241904,1,8,0:0:0:0:
174,149,242040,1,8,0:0:0:0:
174,149,242108,1,0,0:0:0:0:
189,128,242245,1,8,0:0:0:0:
189,128,242313,1,8,0:0:0:0:
189,128,242381,1,0,0:0:0:0:
189,128,242449,1,8,0:0:0:0:
189,128,242517,1,0,0:0:0:0:
242,100,242654,1,8,0:0:0:0:
242,100,242790,1,8,0:0:0:0:
189,140,242926,1,0,0:0:0:0:
189,140,243063,1,8,0:0:0:0:
157,85,243131,1,0,0:0:0:0:
157,85,243199,1,8,0:0:0:0:
213,142,243336,1,0,0:0:0:0:
213,142,243472,1,8,0:0:0:0:
217,133,243608,1,0,0:0:0:0:
217,133,243745,1,8,0:0:0:0:
217,133,243881,1,8,0:0:0:0:
217,133,244017,1,0,0:0:0:0:
217,133,244086,1,8,0:0:0:0:
217,133,244222,1,8,0:0:0:0:
217,133,244290,1,0,0:0:0:0:
209,132,244426,1,8,0:0:0:0:
195,131,244495,1,8,0:0:0:0:
195,131,244563,1,8,0:0:0:0:
161,80,244699,1,0,0:0:0:0:
169,177,244836,1,0,0:0:0:0:
177,188,244972,1,8,0:0:0:0:
177,188,245040,1,8,0:0:0:0:
177,188,245176,1,0,0:0:0:0:
156,155,245245,1,8,0:0:0:0:
156,155,245381,1,0,0:0:0:0:
156,155,245517,1,8,0:0:0:0:
156,155,245586,1,8,0:0:0:0:
149,136,245654,1,0,0:0:0:0:
149,136,245790,1,0,0:0:0:0:
149,136,245926,1,8,0:0:0:0:
149,136,245995,1,0,0:0:0:0:
149,136,246063,1,8,0:0:0:0:
177,159,246199,1,0,0:0:0:0:
177,159,246267,1,8,0:0:0:0:
174,149,246404,1,8,0:0:0:0:
174,149,246472,1,0,0:0:0:0:
189,128,246608,1,8,0:0:0:0:
189,128,246676,1,0,0:0:0:0:
189,128,246745,1,8,0:0:0:0:
189,128,246813,1,8,0:0:0:0:
189,128,246881,1,0,0:0:0:0:
242,100,247017,1,8,0:0:0:0:
242,100,247154,1,8,0:0:0:0:
189,140,247290,1,0,0:0:0:0:
189,140,247358,1,8,0:0:0:0:
157,85,247495,1,0,0:0:0:0:
157,85,247563,1,0,0:0:0:0:
213,142,247699,1,8,0:0:0:0:
213,142,247836,1,8,0:0:0:0:
217,133,247972,1,0,0:0:0:0:
217,133,248108,5,0,0:0:0:0:
217,133,248245,1,8,0:0:0:0:
217,133,248381,1,8,0:0:0:0:
217,133,248517,1,0,0:0:0:0:
212,116,248586,1,0,0:0:0:0:
217,133,248654,1,8,0:0:0:0:
209,116,248722,1,0,0:0:0:0:
209,132,248790,1,8,0:0:0:0:
195,131,248858,1,8,0:0:0:0:
195,131,248926,1,8,0:0:0:0:
163,134,248995,1,8,0:0:0:0:
163,134,249063,1,0,0:0:0:0:
161,90,249199,5,8,0:0:0:0:
156,118,249336,1,0,0:0:0:0:
154,119,249404,1,8,0:0:0:0:
156,118,249540,1,8,0:0:0:0:
151,114,249745,1,8,0:0:0:0:
140,119,249881,1,8,0:0:0:0:
140,119,250017,1,0,0:0:0:0:
120,126,250154,1,0,0:0:0:0:
143,146,250222,1,0,0:0:0:0:
120,126,250290,1,8,0:0:0:0:
134,151,250426,1,8,0:0:0:0:
105,135,250563,1,0,0:0:0:0:
127,107,250631,1,8,0:0:0:0:
105,135,250836,1,0,0:0:0:0:
105,135,250972,1,8,0:0:0:0:
105,135,251108,1,8,0:0:0:0:
105,135,251245,1,0,0:0:0:0:
136,132,251381,1,0,0:0:0:0:
158,134,251517,1,8,0:0:0:0:
136,132,251654,1,0,0:0:0:0:
105,135,251790,1,0,0:0:0:0:
147,135,251858,1,0,0:0:0:0:
147,135,251926,1,8,0:0:0:0:
169,126,252063,1,8,0:0:0:0:
168,126,252199,1,0,0:0:0:0:
105,135,252336,1,0,0:0:0:0:
139,113,252472,1,8,0:0:0:0:
138,113,252540,1,8,0:0:0:0:
138,113,252608,1,8,0:0:0:0:
105,135,252745,1,0,0:0:0:0:
129,115,252813,1,8,0:0:0:0:
105,135,253017,1,8,0:0:0:0:
105,135,253154,1,8,0:0:0:0:
105,135,253290,1,0,0:0:0:0:
184,109,253426,1,0,0:0:0:0:
161,90,253563,1,8,0:0:0:0:
156,118,253699,1,0,0:0:0:0:
154,119,253767,1,8,0:0:0:0:
156,118,253904,1,8,0:0:0:0:
151,114,254108,1,8,0:0:0:0:
140,119,254245,1,8,0:0:0:0:
140,119,254381,1,0,0:0:0:0:
120,126,254517,1,0,0:0:0:0:
143,146,254586,1,0,0:0:0:0:
120,126,254654,1,8,0:0:0:0:
134,151,254790,1,8,0:0:0:0:
105,135,254926,1,0,0:0:0:0:
127,107,254995,1,8,0:0:0:0:
105,135,255199,1,0,0:0:0:0:
105,135,255336,1,8,0:0:0:0:
105,135,255472,1,8,0:0:0:0:
105,135,255608,1,0,0:0:0:0:
136,132,255745,1,0,0:0:0:0:
158,134,255881,1,8,0:0:0:0:
136,132,256017,1,0,0:0:0:0:
105,135,256086,1,8,0:0:0:0:
147,135,256290,1,8,0:0:0:0:
169,126,256426,1,8,0:0:0:0:
138,120,256495,1,0,0:0:0:0:
168,126,256563,1,8,0:0:0:0:
105,135,256699,1,0,0:0:0:0:
139,113,256836,1,8,0:0:0:0:
138,113,256904,1,8,0:0:0:0:
138,113,256972,1,8,0:0:0:0:
105,135,257108,1,0,0:0:0:0:
129,115,257176,1,8,0:0:0:0:
105,135,257381,1,8,0:0:0:0:
105,135,257517,1,8,0:0:0:0:
105,135,257654,1,0,0:0:0:0:
184,109,257790,1,0,0:0:0:0:
161,90,257926,1,8,0:0:0:0:
156,118,258063,1,0,0:0:0:0:
154,119,258131,1,8,0:0:0:0:
156,118,258267,1,8,0:0:0:0:
151,114,258472,1,8,0:0:0:0:
140,119,258608,1,8,0:0:0:0:
140,119,258745,1,0,0:0:0:0:
120,126,258881,1,0,0:0:0:0:
120,126,259017,1,8,0:0:0:0:
134,151,259154,1,8,0:0:0:0:
105,135,259290,1,0,0:0:0:0:
127,107,259358,1,8,0:0:0:0:
105,135,259563,1,0,0:0:0:0:
105,135,259699,1,8,0:0:0:0:
105,135,259836,1,8,0:0:0:0:
105,135,259972,1,0,0:0:0:0:
136,132,260108,1,0,0:0:0:0:
158,134,260245,1,8,0:0:0:0:
136,132,260381,1,0,0:0:0:0:
105,135,260517,1,0,0:0:0:0:
147,135,260586,1,0,0:0:0:0:
147,135,260654,1,8,0:0:0:0:
169,126,260790,1,8,0:0:0:0:
168,126,260926,1,0,0:0:0:0:
105,135,261063,1,0,0:0:0:0:
139,113,261199,1,8,0:0:0:0:
138,113,261336,1,8,0:0:0:0:
105,135,261472,1,0,0:0:0:0:
129,115,261540,1,8,0:0:0:0:
105,135,261745,1,8,0:0:0:0:
105,135,261881,1,8,0:0:0:0:
105,135,262017,1,0,0:0:0:0:
184,109,262154,1,0,0:0:0:0:
161,90,262290,1,8,0:0:0:0:
156,118,262426,1,0,0:0:0:0:
154,119,262495,1,8,0:0:0:0:
156,118,262631,1,8,0:0:0:0:
151,114,262836,1,8,0:0:0:0:
140,119,262972,1,8,0:0:0:0:
140,119,263108,1,0,0:0:0:0:
120,126,263245,1,0,0:0:0:0:
120,126,263381,1,8,0:0:0:0:
134,151,263517,1,8,0:0:0:0:
105,135,263654,1,0,0:0:0:0:
127,107,263722,1,8,0:0:0:0:
105,135,263926,1,0,0:0:0:0:
105,135,264063,1,8,0:0:0:0:
105,135,264199,1,8,0:0:0:0:
105,135,264336,1,0,0:0:0:0:
136,132,264472,1,0,0:0:0:0:
158,134,264608,1,8,0:0:0:0:
136,132,264745,1,0,0:0:0:0:
167,113,264813,1,8,0:0:0:0:
147,135,265017,1,8,0:0:0:0:
169,126,265154,1,8,0:0:0:0:
168,126,265290,1,0,0:0:0:0:
229,97,265426,5,0,0:0:0:0:
220,105,265563,1,8,0:0:0:0:
220,105,265699,1,8,0:0:0:0:
217,106,265836,1,0,0:0:0:0:
217,106,265904,1,8,0:0:0:0:
216,106,266108,1,8,0:0:0:0:
220,105,266245,1,8,0:0:0:0:
220,105,266381,1,0,0:0:0:0:
