osu file format v14

[General]
AudioFilename: audio.mp3
AudioLeadIn: 0
PreviewTime: 170517
Countdown: 0
SampleSet: Normal
StackLeniency: 0
Mode: 1
LetterboxInBreaks: 0
WidescreenStoryboard: 1

[Editor]
DistanceSpacing: 1.7
BeatDivisor: 1
GridSize: 32
TimelineZoom: 1.7

[Metadata]
Title:Free L-Town (Sped Up Ver.)
TitleUnicode:Free L-Town (Sped Up Ver.)
Artist:Spongebob Squarewave
ArtistUnicode:Spongebob Squarewave
Creator:liku
Version:Axer's Oni-Town
Source:
Tags:axer off me nut records omn167 return of the rave elton john your song buckwheat boyz peanut butter jelly time anastacia i'm outta love bassline dnb drum and n & bass happy hardcore uk hardtek jungle rave electronic english original mix
BeatmapID:3675569
BeatmapSetID:1791543

[Difficulty]
HPDrainRate:6
CircleSize:2
OverallDifficulty:6
ApproachRate:10
SliderMultiplier:1.3
SliderTickRate:1

[Events]
//Background and Video events
0,0,"peanut.png",0,-90
//Break Periods
2,161990,170067
//Storyboard Layer 0 (Background)
//Storyboard Layer 1 (Fail)
//Storyboard Layer 2 (Pass)
//Storyboard Layer 3 (Foreground)
//Storyboard Layer 4 (Overlay)
//Storyboard Sound Samples

[TimingPoints]
336,272.727272727273,4,1,0,66,1,0
336,-151.515151515152,4,1,0,66,0,0
17790,-133.333333333333,4,1,0,75,0,0
34972,-200,4,1,0,66,0,0
36333,-191.255735668343,4,1,0,66,0,0
37423,-183.251099122622,4,1,0,66,0,0
38514,-175.883100849472,4,1,0,66,0,0
39605,-169.084692919523,4,1,0,66,0,0
40696,-162.792284208551,4,1,0,66,0,0
41787,-156.951410013977,4,1,0,66,0,0
42878,-151.515151515152,4,1,0,66,0,0
43836,-133.333333333333,4,1,0,75,0,0
46151,-130.078392798593,4,1,0,75,0,0
46287,-128.515475454251,4,1,0,75,0,0
46423,-126.989669722101,4,1,0,75,0,0
46560,-125.488842880147,4,1,0,75,0,0
46696,-124.033651659845,4,1,0,75,0,0
46833,-122.60148897317,4,1,0,75,0,0
46969,-121.212121212121,4,1,0,75,0,0
47105,-119.853890307874,4,1,0,75,0,0
47242,-118.516104502743,4,1,0,75,0,0
47310,-117.863123210717,4,1,0,75,0,0
47378,-117.217297878055,4,1,0,75,0,0
47446,-116.578511513597,4,1,0,75,0,0
47514,-115.946649662575,4,1,0,75,0,0
47651,-114.694210097506,4,1,0,75,0,0
47787,-113.477390332059,4,1,0,75,0,0
47855,-112.878611520654,4,1,0,75,0,0
47923,-112.286118615721,4,1,0,75,0,0
47992,-111.691236691237,4,1,0,75,0,0
48060,-111.111111111111,4,1,0,75,0,0
48336,-100,4,1,0,75,0,0
48608,-151.515151515152,4,1,0,75,0,0
50514,-133.333333333333,4,1,0,75,0,0
50787,-127.995307229799,4,1,0,77,0,0
51060,-123.068245910885,4,1,0,78,0,0
51333,-118.506449422946,4,1,0,80,0,0
51605,-114.285714285714,4,1,0,82,0,0
51742,-112.271674813481,4,1,0,83,0,0
51878,-110.341340075853,4,1,0,85,0,0
52014,-108.476261496396,4,1,0,87,0,0
52151,-106.660149089576,4,1,0,88,0,0
52219,-105.78111744031,4,1,0,90,0,0
52287,-104.916456304844,4,1,0,92,0,0
52355,-104.065816144032,4,1,0,93,0,0
52423,-103.228858663513,4,1,0,95,0,0
52560,-101.582867783985,4,1,0,97,0,0
52628,-100.785219399538,4,1,0,98,0,0
52696,-100,4,1,0,100,0,0
70154,-100,4,1,0,100,0,1
85426,-100,4,1,0,100,0,0
87472,-133.333333333333,4,1,0,75,0,0
96199,-133.333333333333,4,1,0,75,0,0
98514,-130.078392798593,4,1,0,75,0,0
98650,-128.515475454251,4,1,0,75,0,0
98786,-126.989669722101,4,1,0,75,0,0
98923,-125.488842880147,4,1,0,75,0,0
99059,-124.033651659845,4,1,0,75,0,0
99196,-122.60148897317,4,1,0,75,0,0
99332,-121.212121212121,4,1,0,75,0,0
99468,-119.853890307874,4,1,0,75,0,0
99605,-118.516104502743,4,1,0,75,0,0
99673,-117.863123210717,4,1,0,75,0,0
99741,-117.217297878055,4,1,0,75,0,0
99809,-116.578511513597,4,1,0,75,0,0
99877,-115.946649662575,4,1,0,75,0,0
100014,-114.694210097506,4,1,0,75,0,0
100150,-113.477390332059,4,1,0,75,0,0
100218,-112.878611520654,4,1,0,75,0,0
100286,-112.286118615721,4,1,0,75,0,0
100355,-111.691236691237,4,1,0,75,0,0
100423,-111.111111111111,4,1,0,75,0,0
100699,-100,4,1,0,75,0,0
102878,-90.9090909090909,4,1,0,75,0,0
103151,-93.5697592143914,4,1,0,75,0,0
103423,-96.3802204112282,4,1,0,75,0,0
103696,-99.3760531948809,4,1,0,75,0,0
103969,-102.564102564103,4,1,0,75,0,0
104105,-104.229859800807,4,1,0,75,0,0
104242,-105.963480963481,4,1,0,75,0,0
104378,-107.742445190598,4,1,0,75,0,0
104514,-109.582161510647,4,1,0,75,0,0
104583,-110.539780642873,4,1,0,75,0,0
104651,-111.500038324944,4,1,0,75,0,0
104719,-112.477125699116,4,1,0,75,0,0
104787,-113.471489118282,4,1,0,75,0,0
104855,-114.483590860201,4,1,0,75,0,0
104923,-115.513909844093,4,1,0,75,0,0
105060,-117.647058823529,4,1,0,85,0,0
111540,-90.9090909090909,4,1,0,85,0,0
112696,-102.042343083714,4,1,0,85,0,0
112833,-103.099017384732,4,1,0,85,0,0
112969,-104.169848785703,4,1,0,85,0,0
113105,-105.263157894737,4,1,0,85,0,0
113242,-106.387957257624,4,1,0,85,0,0
113378,-107.528577059519,4,1,0,85,0,0
113514,-108.69391983425,4,1,0,85,0,0
113583,-109.294871794872,4,1,0,85,0,0
113651,-109.893651305189,4,1,0,85,0,0
113719,-110.49902786779,4,1,0,85,0,0
113787,-111.111111111111,4,1,0,85,0,0
114060,-110.587707492149,4,1,0,85,0,0
114333,-110.069211877651,4,1,0,85,0,0
114469,-109.812723814746,4,1,0,85,0,0
114605,-109.557428332108,4,1,0,85,0,0
114742,-109.301453032267,4,1,0,85,0,0
114878,-109.048526509222,4,1,0,85,0,0
115151,-108.544330595309,4,1,0,85,0,0
115423,-108.046597096954,4,1,0,85,0,0
115560,-107.797625054664,4,1,0,85,0,0
115628,-107.674473303988,4,1,0,85,0,0
115696,-107.551602617889,4,1,0,85,0,0
115833,-107.304903979775,4,1,0,85,0,0
115901,-107.18287482231,4,1,0,85,0,0
115969,-107.061122897282,4,1,0,85,0,0
116242,-106.575096448051,4,1,0,85,0,0
116514,-106.095219176268,4,1,0,85,0,0
116651,-105.855149062681,4,1,0,85,0,0
116787,-105.617903462369,4,1,0,85,0,0
116923,-105.381718927274,4,1,0,85,0,0
117060,-105.144863339568,4,1,0,85,0,0
117333,-104.676041615627,4,1,0,85,0,0
117605,-104.213076635392,4,1,0,85,0,0
117673,-104.097974564296,4,1,0,85,0,0
117742,-103.981439418522,4,1,0,85,0,0
117878,-103.752509227482,4,1,0,85,0,0
117946,-103.638421733506,4,1,0,85,0,0
118014,-103.524584867868,4,1,0,85,0,0
118083,-103.409329267309,4,1,0,85,0,0
118151,-103.295994842453,4,1,0,85,0,0
118423,-102.845130542228,4,1,0,85,0,0
118696,-102.396548969484,4,1,0,85,0,0
118833,-102.172907998151,4,1,0,85,0,0
118969,-101.951863576349,4,1,0,85,0,0
119105,-101.731773520215,4,1,0,85,0,0
119242,-101.511023821591,4,1,0,85,0,0
119514,-101.075574060056,4,1,0,85,0,0
119787,-100.642263783546,4,1,0,85,0,0
119923,-100.427785699735,4,1,0,85,0,0
119992,-100.319318786589,4,1,0,85,0,0
120060,-100.212652844232,4,1,0,85,0,0
120196,-100,4,1,0,85,0,0
120333,-90.9090909090909,4,1,0,85,0,0
120742,-95.2380952380952,4,1,0,85,0,0
121151,-100,4,1,0,85,0,0
121426,-102.564102564103,4,1,0,85,0,0
121560,-105.263157894737,4,1,0,85,0,0
121969,-111.111111111111,4,1,0,85,0,0
122245,-133.333333333333,4,1,0,85,0,0
123199,-111.111111111111,4,1,0,100,0,0
123472,-133.333333333333,4,1,0,85,0,0
124290,-90.9090909090909,4,1,0,100,0,0
124563,-133.333333333333,4,1,0,85,0,0
125381,-76.9230769230769,4,1,0,100,0,0
125654,-133.333333333333,4,1,0,85,0,0
126813,-100,4,1,0,100,0,0
126881,-90.0900900900901,4,1,0,100,0,1
143245,-100,4,1,0,100,0,0
144267,-83.3333333333333,4,1,0,100,0,0
144336,-83.3333333333333,4,1,0,100,0,1
148086,-75.187969924812,4,1,0,100,0,1
148495,-83.3333333333333,4,1,0,100,0,1
151151,-85.2296407435192,4,1,0,100,0,1
151287,-86.2068965517241,4,1,0,100,0,1
151423,-87.2068230277186,4,1,0,100,0,1
151560,-88.2378322402485,4,1,0,100,0,1
151696,-89.2857142857143,4,1,0,100,0,1
151833,-90.3667697746354,4,1,0,100,0,1
151969,-91.466141873155,4,1,0,100,0,1
152105,-92.5925925925926,4,1,0,100,0,1
152242,-93.7557307903906,4,1,0,100,0,1
152378,-94.9396471680594,4,1,0,100,0,1
152514,-96.1538461538461,4,1,0,100,0,1
152651,-97.4087834619415,4,1,0,100,0,1
152787,-98.6873853875109,4,1,0,100,0,1
152855,-99.3393568444574,4,1,0,100,0,1
152923,-100,4,1,0,100,0,1
153063,-83.3333333333333,4,1,0,100,0,1
156813,-75.187969924812,4,1,0,100,0,1
157222,-83.3333333333333,4,1,0,100,0,1
159608,-83.3333333333333,4,1,0,100,0,0
161926,-133.333333333333,4,1,0,85,0,0
179245,-111.111111111111,4,1,0,85,0,0
194583,-110.335760517799,4,1,0,85,0,0
194651,-109.582161510647,4,1,0,85,0,0
194787,-108.105430043599,4,1,0,85,0,0
194855,-107.38188976378,4,1,0,85,0,0
194923,-106.667970277669,4,1,0,85,0,0
195060,-105.258080077183,4,1,0,85,0,0
195128,-104.572031055305,4,1,0,85,0,0
195196,-103.894867155509,4,1,0,85,0,0
195333,-102.556871592405,4,1,0,85,0,0
195401,-101.905473566225,4,1,0,85,0,0
195469,-101.262298125116,4,1,0,85,0,0
195605,-100,4,1,0,85,0,0
195878,-102.942761668643,4,1,0,85,0,0
196083,-105.268959435626,4,1,0,85,0,0
196151,-106.063971568192,4,1,0,85,0,0
196287,-107.690572846189,4,1,0,85,0,0
196423,-109.36784241869,4,1,0,85,0,0
196492,-110.238947246912,4,1,0,85,0,0
196560,-111.111111111111,4,1,0,85,0,0
196699,-90.0900900900901,4,1,0,100,0,1
214154,-90.0900900900901,4,1,0,100,0,0
214290,-100,4,1,0,85,0,0
230514,-103.08576614733,4,1,0,85,0,0
230651,-104.713248569124,4,1,0,85,0,0
230787,-106.380487804878,4,1,0,85,0,0
230923,-108.101677439822,4,1,0,85,0,0
231060,-109.892767878739,4,1,0,85,0,0
231196,-111.730469710632,4,1,0,85,0,0
231333,-113.644890982616,4,1,0,85,0,0
231401,-114.619686330572,4,1,0,85,0,0
231469,-115.61134908181,4,1,0,85,0,0
231537,-116.620320855615,4,1,0,85,0,0
231605,-117.647058823529,4,1,0,85,0,0
231745,-117.647058823529,4,1,0,75,0,0
247969,-120.484056178783,4,1,0,75,0,0
248105,-121.949038891372,4,1,0,75,0,0
248242,-123.461259956553,4,1,0,75,0,0
248378,-125,4,1,0,75,0,0
248514,-126.577579806978,4,1,0,75,0,0
248651,-128.207538302472,4,1,0,75,0,0
248787,-129.867656859945,4,1,0,75,0,0
248855,-130.713943459511,4,1,0,75,0,0
248923,-131.571332111508,4,1,0,75,0,0
248992,-132.452903476403,4,1,0,75,0,0
249060,-133.333333333333,4,1,0,75,0,0
265290,-90.0900900900901,4,1,0,100,0,0

[HitObjects]
163,172,336,5,4,0:0:0:0:
226,252,608,1,8,0:0:0:0:
231,231,745,1,0,0:0:0:0:
231,231,1017,1,0,0:0:0:0:
231,231,1154,1,8,0:0:0:0:
213,231,1426,1,8,0:0:0:0:
181,67,1836,1,8,0:0:0:0:
181,67,1972,1,0,0:0:0:0:
181,67,2108,1,8,0:0:0:0:
182,153,2517,1,8,0:0:0:0:
163,69,2790,1,0,0:0:0:0:
160,74,2926,1,8,0:0:0:0:
152,126,3199,1,0,0:0:0:0:
152,126,3472,1,8,0:0:0:0:
146,78,3745,1,0,0:0:0:0:
146,78,4017,1,0,0:0:0:0:
146,78,4154,1,8,0:0:0:0:
146,78,4290,1,0,0:0:0:0:
146,78,4426,1,8,0:0:0:0:
215,107,4699,1,0,0:0:0:0:
139,78,4836,1,8,0:0:0:0:
139,78,4972,1,0,0:0:0:0:
123,81,5245,1,0,0:0:0:0:
123,81,5517,1,8,0:0:0:0:
123,81,5654,1,8,0:0:0:0:
121,81,5790,1,0,0:0:0:0:
122,81,5926,1,8,0:0:0:0:
108,86,6063,1,0,0:0:0:0:
108,86,6199,1,8,0:0:0:0:
108,86,6608,1,8,0:0:0:0:
174,121,6745,1,8,0:0:0:0:
175,159,6881,1,0,0:0:0:0:
174,121,7154,1,8,0:0:0:0:
174,121,7290,1,0,0:0:0:0:
147,74,7426,1,0,0:0:0:0:
140,76,7699,1,8,0:0:0:0:
139,77,7836,1,8,0:0:0:0:
115,80,7972,1,0,0:0:0:0:
115,80,8108,1,8,0:0:0:0:
115,80,8245,1,0,0:0:0:0:
115,80,8517,1,8,0:0:0:0:
115,80,8790,1,0,0:0:0:0:
163,172,9063,1,0,0:0:0:0:
201,81,9336,1,8,0:0:0:0:
231,231,9472,1,0,0:0:0:0:
231,231,9745,1,8,0:0:0:0:
231,231,9881,1,0,0:0:0:0:
213,231,10154,1,0,0:0:0:0:
212,231,10290,1,8,0:0:0:0:
181,67,10563,1,0,0:0:0:0:
181,67,10699,1,8,0:0:0:0:
181,67,10972,1,0,0:0:0:0:
181,67,11108,1,8,0:0:0:0:
241,147,11245,1,0,0:0:0:0:
163,69,11517,1,8,0:0:0:0:
160,74,11654,1,8,0:0:0:0:
163,69,11790,1,0,0:0:0:0:
152,126,12063,1,0,0:0:0:0:
178,171,12336,1,8,0:0:0:0:
177,63,12608,1,8,0:0:0:0:
146,78,12745,1,0,0:0:0:0:
146,78,12881,1,8,0:0:0:0:
146,78,13154,1,0,0:0:0:0:
172,171,13426,1,8,0:0:0:0:
123,81,13972,1,0,0:0:0:0:
123,81,14108,1,0,0:0:0:0:
123,81,14245,1,8,0:0:0:0:
121,81,14517,1,8,0:0:0:0:
108,86,14790,1,8,0:0:0:0:
108,86,14926,1,8,0:0:0:0:
108,86,15199,1,0,0:0:0:0:
108,86,15336,1,8,0:0:0:0:
186,23,15472,1,8,0:0:0:0:
175,159,15608,1,0,0:0:0:0:
174,121,15881,1,0,0:0:0:0:
174,121,16017,1,8,0:0:0:0:
147,74,16290,1,0,0:0:0:0:
140,76,16426,1,8,0:0:0:0:
185,188,16699,1,8,0:0:0:0:
115,80,16972,1,0,0:0:0:0:
115,80,17108,1,0,0:0:0:0:
115,80,17381,1,8,0:0:0:0:
115,80,17517,1,0,0:0:0:0:
167,152,17790,1,4,0:0:0:0:
222,244,18063,1,8,0:0:0:0:
209,244,18199,1,0,0:0:0:0:
209,244,18336,1,8,0:0:0:0:
207,237,18472,1,8,0:0:0:0:
207,237,18608,1,0,0:0:0:0:
171,184,18881,1,8,0:0:0:0:
142,144,19972,1,8,0:0:0:0:
143,112,20245,1,0,0:0:0:0:
143,112,20381,1,8,0:0:0:0:
136,115,20654,1,8,0:0:0:0:
134,116,20790,1,0,0:0:0:0:
112,113,21063,1,8,0:0:0:0:
91,106,21608,1,0,0:0:0:0:
104,166,22154,1,8,0:0:0:0:
149,76,22563,1,0,0:0:0:0:
91,106,22699,1,8,0:0:0:0:
149,76,22836,1,0,0:0:0:0:
131,80,23108,1,8,0:0:0:0:
71,94,23654,1,0,0:0:0:0:
98,72,23926,1,8,0:0:0:0:
147,142,24336,1,8,0:0:0:0:
42,74,24608,1,0,0:0:0:0:
41,74,24745,1,8,0:0:0:0:
42,74,25017,1,8,0:0:0:0:
212,85,25290,1,0,0:0:0:0:
42,74,25426,1,8,0:0:0:0:
41,74,25699,1,8,0:0:0:0:
42,74,25972,1,0,0:0:0:0:
42,74,26245,1,8,0:0:0:0:
145,142,26517,1,0,0:0:0:0:
54,53,26926,1,8,0:0:0:0:
137,63,27199,1,8,0:0:0:0:
127,65,27336,1,0,0:0:0:0:
112,66,27608,1,8,0:0:0:0:
106,67,27745,1,8,0:0:0:0:
96,68,28290,1,8,0:0:0:0:
145,142,28699,1,0,0:0:0:0:
192,79,28972,1,8,0:0:0:0:
192,79,29108,1,8,0:0:0:0:
179,68,29381,1,0,0:0:0:0:
179,68,29517,1,8,0:0:0:0:
145,142,29790,1,8,0:0:0:0:
145,135,30881,1,0,0:0:0:0:
154,73,31154,1,8,0:0:0:0:
154,73,31290,1,8,0:0:0:0:
154,73,31563,1,0,0:0:0:0:
154,73,31699,1,8,0:0:0:0:
154,73,31972,1,8,0:0:0:0:
73,50,32381,1,8,0:0:0:0:
77,62,32654,1,8,0:0:0:0:
147,132,33063,1,0,0:0:0:0:
78,43,33336,1,0,0:0:0:0:
78,43,33472,1,8,0:0:0:0:
78,43,33745,1,0,0:0:0:0:
71,44,34017,1,0,0:0:0:0:
147,132,34154,1,8,0:0:0:0:
149,134,35245,1,4,0:0:0:0:
310,108,36336,1,0,0:0:0:0:
210,55,37426,1,8,0:0:0:0:
146,135,38517,1,8,0:0:0:0:
146,135,39608,1,0,0:0:0:0:
146,135,40699,1,8,0:0:0:0:
161,139,41790,1,0,0:0:0:0:
192,153,42881,1,8,0:0:0:0:
256,192,43972,1,4,0:0:0:0:
256,192,44245,1,8,0:0:0:0:
256,192,44517,1,0,0:0:0:0:
256,192,44790,1,8,0:0:0:0:
256,192,45063,1,4,0:0:0:0:
256,192,45336,1,8,0:0:0:0:
256,192,45608,1,0,0:0:0:0:
256,192,45881,1,8,0:0:0:0:
256,192,46154,1,0,0:0:0:0:
256,192,46290,1,0,0:0:0:0:
256,192,46426,1,8,0:0:0:0:
256,192,46563,1,8,0:0:0:0:
256,192,46699,1,0,0:0:0:0:
256,192,46836,1,0,0:0:0:0:
256,192,46972,1,8,0:0:0:0:
256,192,47108,1,8,0:0:0:0:
256,192,47245,1,0,0:0:0:0:
256,192,47313,1,0,0:0:0:0:
256,192,47381,1,0,0:0:0:0:
256,192,47449,1,0,0:0:0:0:
256,192,47517,1,8,0:0:0:0:
256,192,47654,1,8,0:0:0:0:
256,192,47790,1,0,0:0:0:0:
256,192,47858,1,0,0:0:0:0:
256,192,47926,1,0,0:0:0:0:
256,192,47995,1,0,0:0:0:0:
256,192,48063,1,8,0:0:0:0:
256,192,48336,1,4,0:0:0:0:
256,192,48472,8,0,49836,0:0:0:0:
256,192,50517,5,8,0:0:0:0:
256,192,50790,1,8,0:0:0:0:
256,192,51063,1,8,0:0:0:0:
256,192,51336,1,8,0:0:0:0:
256,192,51608,1,8,0:0:0:0:
256,192,51745,1,8,0:0:0:0:
256,192,51881,1,8,0:0:0:0:
256,192,52017,1,8,0:0:0:0:
256,192,52154,1,0,0:0:0:0:
256,192,52222,1,0,0:0:0:0:
256,192,52290,1,0,0:0:0:0:
256,192,52358,1,0,0:0:0:0:
256,192,52426,1,8,0:0:0:0:
256,192,52563,1,8,0:0:0:0:
256,192,52631,1,8,0:0:0:0:
256,192,52699,1,4,0:0:0:0:
256,192,52972,1,8,0:0:0:0:
256,192,53108,1,0,0:0:0:0:
256,192,53176,1,8,0:0:0:0:
256,192,53313,1,0,0:0:0:0:
256,192,53381,1,0,0:0:0:0:
256,192,53517,1,8,0:0:0:0:
256,192,53654,1,0,0:0:0:0:
256,192,53790,1,8,0:0:0:0:
256,192,53926,1,0,0:0:0:0:
256,192,53995,1,0,0:0:0:0:
256,192,54063,1,8,0:0:0:0:
256,192,54199,1,8,0:0:0:0:
256,192,54336,1,0,0:0:0:0:
256,192,54472,1,8,0:0:0:0:
256,192,54540,1,8,0:0:0:0:
256,192,54608,1,0,0:0:0:0:
256,192,54745,1,8,0:0:0:0:
256,192,54881,1,0,0:0:0:0:
256,192,55154,1,8,0:0:0:0:
256,192,55290,1,0,0:0:0:0:
256,192,55426,1,0,0:0:0:0:
256,192,55563,1,8,0:0:0:0:
256,192,55631,1,0,0:0:0:0:
256,192,55699,1,8,0:0:0:0:
256,192,55836,1,0,0:0:0:0:
256,192,55972,1,8,0:0:0:0:
256,192,56108,1,0,0:0:0:0:
256,192,56176,1,0,0:0:0:0:
256,192,56245,1,8,0:0:0:0:
256,192,56381,1,8,0:0:0:0:
256,192,56517,1,0,0:0:0:0:
256,192,56654,1,8,0:0:0:0:
256,192,56722,1,8,0:0:0:0:
256,192,56790,1,0,0:0:0:0:
256,192,56926,1,8,0:0:0:0:
256,192,57063,1,4,0:0:0:0:
256,192,57336,1,8,0:0:0:0:
256,192,57472,1,0,0:0:0:0:
256,192,57608,1,8,0:0:0:0:
256,192,57745,1,0,0:0:0:0:
256,192,57813,1,0,0:0:0:0:
256,192,57881,1,8,0:0:0:0:
256,192,58017,1,8,0:0:0:0:
256,192,58154,1,0,0:0:0:0:
256,192,58222,1,8,0:0:0:0:
256,192,58290,1,0,0:0:0:0:
256,192,58426,1,8,0:0:0:0:
256,192,58563,1,8,0:0:0:0:
256,192,58699,1,0,0:0:0:0:
256,192,58767,1,0,0:0:0:0:
256,192,58836,1,8,0:0:0:0:
256,192,58972,1,0,0:0:0:0:
256,192,59040,1,0,0:0:0:0:
256,192,59108,1,8,0:0:0:0:
256,192,59245,1,0,0:0:0:0:
256,192,59517,1,8,0:0:0:0:
256,192,59654,1,8,0:0:0:0:
256,192,59790,1,0,0:0:0:0:
256,192,59926,1,8,0:0:0:0:
256,192,59995,1,0,0:0:0:0:
256,192,60063,1,8,0:0:0:0:
256,192,60199,1,0,0:0:0:0:
256,192,60336,1,8,0:0:0:0:
256,192,60472,1,0,0:0:0:0:
256,192,60540,1,0,0:0:0:0:
256,192,60608,1,8,0:0:0:0:
256,192,60745,1,0,0:0:0:0:
256,192,60881,1,8,0:0:0:0:
256,192,61017,1,0,0:0:0:0:
256,192,61086,1,0,0:0:0:0:
256,192,61154,1,8,0:0:0:0:
256,192,61290,1,8,0:0:0:0:
256,192,61426,1,4,0:0:0:0:
256,192,61699,1,8,0:0:0:0:
256,192,61836,1,0,0:0:0:0:
256,192,61972,1,0,0:0:0:0:
256,192,62108,1,8,0:0:0:0:
256,192,62176,1,0,0:0:0:0:
256,192,62245,1,8,0:0:0:0:
256,192,62381,1,0,0:0:0:0:
256,192,62517,1,8,0:0:0:0:
256,192,62654,1,0,0:0:0:0:
256,192,62722,1,0,0:0:0:0:
256,192,62790,1,8,0:0:0:0:
256,192,62926,1,8,0:0:0:0:
256,192,63063,1,0,0:0:0:0:
256,192,63199,1,0,0:0:0:0:
256,192,63267,1,0,0:0:0:0:
256,192,63336,1,8,0:0:0:0:
256,192,63472,1,8,0:0:0:0:
256,192,63608,1,0,0:0:0:0:
256,192,63881,1,8,0:0:0:0:
256,192,64017,1,0,0:0:0:0:
256,192,64154,1,0,0:0:0:0:
256,192,64290,1,8,0:0:0:0:
256,192,64358,1,0,0:0:0:0:
256,192,64426,1,8,0:0:0:0:
256,192,64563,1,0,0:0:0:0:
256,192,64699,1,8,0:0:0:0:
256,192,64836,1,0,0:0:0:0:
256,192,64904,1,0,0:0:0:0:
256,192,64972,1,8,0:0:0:0:
256,192,65108,1,8,0:0:0:0:
256,192,65245,1,0,0:0:0:0:
256,192,65381,1,8,0:0:0:0:
256,192,65449,1,8,0:0:0:0:
256,192,65517,1,0,0:0:0:0:
256,192,65654,1,8,0:0:0:0:
256,192,65790,1,4,0:0:0:0:
256,192,66063,1,8,0:0:0:0:
256,192,66199,1,8,0:0:0:0:
256,192,66336,1,0,0:0:0:0:
256,192,66472,1,8,0:0:0:0:
256,192,66540,1,0,0:0:0:0:
256,192,66608,1,8,0:0:0:0:
256,192,66745,1,0,0:0:0:0:
256,192,66881,1,8,0:0:0:0:
256,192,67017,1,0,0:0:0:0:
256,192,67086,1,0,0:0:0:0:
256,192,67154,1,8,0:0:0:0:
256,192,67290,1,8,0:0:0:0:
256,192,67426,1,0,0:0:0:0:
256,192,67563,1,0,0:0:0:0:
256,192,67699,1,8,0:0:0:0:
256,192,67767,1,8,0:0:0:0:
256,192,67836,1,0,0:0:0:0:
256,192,67972,1,8,0:0:0:0:
256,192,68245,1,8,0:0:0:0:
256,192,68381,1,8,0:0:0:0:
256,192,68517,1,0,0:0:0:0:
256,192,68654,1,8,0:0:0:0:
256,192,68722,1,0,0:0:0:0:
256,192,68790,1,8,0:0:0:0:
256,192,68926,1,0,0:0:0:0:
256,192,69063,1,8,0:0:0:0:
256,192,69199,1,0,0:0:0:0:
256,192,69336,1,8,0:0:0:0:
256,192,69472,1,8,0:0:0:0:
256,192,69608,1,0,0:0:0:0:
256,192,69745,1,8,0:0:0:0:
256,192,69813,1,8,0:0:0:0:
256,192,69881,1,0,0:0:0:0:
256,192,70017,1,8,0:0:0:0:
256,192,70154,1,4,0:0:0:0:
256,192,70426,1,8,0:0:0:0:
256,192,70563,1,8,0:0:0:0:
256,192,70699,1,0,0:0:0:0:
256,192,70836,1,0,0:0:0:0:
256,192,70904,1,0,0:0:0:0:
256,192,70972,1,8,0:0:0:0:
256,192,71108,1,8,0:0:0:0:
256,192,71245,1,0,0:0:0:0:
256,192,71381,1,8,0:0:0:0:
256,192,71449,1,8,0:0:0:0:
256,192,71517,1,0,0:0:0:0:
256,192,71654,1,8,0:0:0:0:
256,192,71790,1,0,0:0:0:0:
256,192,71926,1,8,0:0:0:0:
256,192,71995,1,8,0:0:0:0:
256,192,72063,1,0,0:0:0:0:
256,192,72199,1,8,0:0:0:0:
256,192,72336,1,0,0:0:0:0:
256,192,72608,1,8,0:0:0:0:
256,192,72745,1,0,0:0:0:0:
256,192,72881,1,0,0:0:0:0:
256,192,72949,1,0,0:0:0:0:
256,192,73017,1,8,0:0:0:0:
256,192,73086,1,0,0:0:0:0:
256,192,73154,1,8,0:0:0:0:
256,192,73290,1,0,0:0:0:0:
256,192,73426,1,8,0:0:0:0:
256,192,73563,1,0,0:0:0:0:
256,192,73631,1,0,0:0:0:0:
256,192,73699,1,8,0:0:0:0:
256,192,73836,1,8,0:0:0:0:
256,192,73972,1,0,0:0:0:0:
256,192,74040,1,0,0:0:0:0:
256,192,74108,1,8,0:0:0:0:
256,192,74176,1,8,0:0:0:0:
256,192,74245,1,0,0:0:0:0:
256,192,74381,1,8,0:0:0:0:
256,192,74517,1,4,0:0:0:0:
256,192,74790,1,8,0:0:0:0:
256,192,74926,1,8,0:0:0:0:
256,192,75063,1,0,0:0:0:0:
256,192,75199,1,0,0:0:0:0:
256,192,75267,1,0,0:0:0:0:
256,192,75336,1,8,0:0:0:0:
256,192,75472,1,8,0:0:0:0:
256,192,75608,1,0,0:0:0:0:
256,192,75676,1,8,0:0:0:0:
256,192,75745,1,0,0:0:0:0:
256,192,75881,1,8,0:0:0:0:
256,192,76017,1,8,0:0:0:0:
256,192,76154,1,0,0:0:0:0:
256,192,76222,1,0,0:0:0:0:
256,192,76290,1,8,0:0:0:0:
256,192,76426,1,0,0:0:0:0:
256,192,76495,1,0,0:0:0:0:
256,192,76563,1,8,0:0:0:0:
256,192,76699,1,0,0:0:0:0:
256,192,76972,1,8,0:0:0:0:
256,192,77108,1,8,0:0:0:0:
256,192,77245,1,0,0:0:0:0:
256,192,77313,1,0,0:0:0:0:
256,192,77381,1,8,0:0:0:0:
256,192,77449,1,0,0:0:0:0:
256,192,77517,1,8,0:0:0:0:
256,192,77654,1,0,0:0:0:0:
256,192,77790,1,8,0:0:0:0:
256,192,77926,1,0,0:0:0:0:
256,192,77995,1,0,0:0:0:0:
256,192,78063,1,8,0:0:0:0:
256,192,78199,1,0,0:0:0:0:
256,192,78336,1,8,0:0:0:0:
256,192,78404,1,8,0:0:0:0:
256,192,78472,1,0,0:0:0:0:
256,192,78540,1,0,0:0:0:0:
256,192,78608,1,8,0:0:0:0:
256,192,78745,1,8,0:0:0:0:
256,192,78881,1,4,0:0:0:0:
256,192,79154,1,8,0:0:0:0:
256,192,79290,1,8,0:0:0:0:
256,192,79426,1,0,0:0:0:0:
256,192,79563,1,0,0:0:0:0:
256,192,79631,1,0,0:0:0:0:
256,192,79699,1,8,0:0:0:0:
256,192,79836,1,8,0:0:0:0:
256,192,79972,1,0,0:0:0:0:
256,192,80108,1,8,0:0:0:0:
256,192,80176,1,8,0:0:0:0:
256,192,80245,1,0,0:0:0:0:
256,192,80381,1,8,0:0:0:0:
256,192,80517,1,0,0:0:0:0:
256,192,80654,1,0,0:0:0:0:
256,192,80722,1,0,0:0:0:0:
256,192,80790,1,8,0:0:0:0:
256,192,80926,1,8,0:0:0:0:
256,192,81063,1,0,0:0:0:0:
256,192,81336,1,8,0:0:0:0:
256,192,81472,1,0,0:0:0:0:
256,192,81608,1,0,0:0:0:0:
256,192,81676,1,0,0:0:0:0:
256,192,81745,1,8,0:0:0:0:
256,192,81813,1,0,0:0:0:0:
256,192,81881,1,8,0:0:0:0:
256,192,82017,1,0,0:0:0:0:
256,192,82154,1,8,0:0:0:0:
256,192,82290,1,0,0:0:0:0:
256,192,82358,1,0,0:0:0:0:
256,192,82426,1,8,0:0:0:0:
256,192,82563,1,8,0:0:0:0:
256,192,82699,1,0,0:0:0:0:
256,192,82836,1,8,0:0:0:0:
256,192,82904,1,8,0:0:0:0:
256,192,82972,1,0,0:0:0:0:
256,192,83108,1,8,0:0:0:0:
256,192,83245,1,4,0:0:0:0:
256,192,83517,1,8,0:0:0:0:
256,192,83654,1,8,0:0:0:0:
256,192,83790,1,0,0:0:0:0:
256,192,83926,1,0,0:0:0:0:
256,192,83995,1,0,0:0:0:0:
256,192,84063,1,8,0:0:0:0:
256,192,84199,1,8,0:0:0:0:
256,192,84336,1,0,0:0:0:0:
256,192,84472,1,8,0:0:0:0:
256,192,84540,1,8,0:0:0:0:
256,192,84608,1,8,0:0:0:0:
256,192,84745,1,8,0:0:0:0:
256,192,84881,1,0,0:0:0:0:
256,192,85017,1,0,0:0:0:0:
256,192,85154,1,8,0:0:0:0:
256,192,85222,1,8,0:0:0:0:
256,192,85290,1,0,0:0:0:0:
256,192,85426,8,0,86517,0:0:0:0:
256,192,87608,5,4,0:0:0:0:
256,192,88699,1,8,0:0:0:0:
256,192,89790,1,0,0:0:0:0:
256,192,90881,1,0,0:0:0:0:
256,192,91972,1,0,0:0:0:0:
256,192,93063,1,8,0:0:0:0:
256,192,94154,1,0,0:0:0:0:
256,192,95245,1,0,0:0:0:0:
256,192,96336,1,4,0:0:0:0:
256,192,96608,1,8,0:0:0:0:
256,192,96881,1,0,0:0:0:0:
256,192,97154,1,8,0:0:0:0:
256,192,97426,1,0,0:0:0:0:
256,192,97699,1,8,0:0:0:0:
256,192,97972,1,0,0:0:0:0:
256,192,98245,1,8,0:0:0:0:
256,192,98517,1,0,0:0:0:0:
256,192,98654,1,0,0:0:0:0:
256,192,98790,1,8,0:0:0:0:
256,192,98926,1,8,0:0:0:0:
256,192,99063,1,0,0:0:0:0:
256,192,99199,1,0,0:0:0:0:
256,192,99336,1,8,0:0:0:0:
256,192,99472,1,8,0:0:0:0:
256,192,99608,1,0,0:0:0:0:
256,192,99676,1,0,0:0:0:0:
256,192,99745,1,0,0:0:0:0:
256,192,99813,1,0,0:0:0:0:
256,192,99881,1,8,0:0:0:0:
256,192,100017,1,8,0:0:0:0:
256,192,100154,1,0,0:0:0:0:
256,192,100222,1,0,0:0:0:0:
256,192,100290,1,0,0:0:0:0:
256,192,100358,1,0,0:0:0:0:
256,192,100426,1,8,0:0:0:0:
256,192,100699,1,4,0:0:0:0:
256,192,100836,8,0,102199,0:0:0:0:
256,192,102881,5,4,0:0:0:0:
256,192,103154,1,4,0:0:0:0:
256,192,103426,1,4,0:0:0:0:
256,192,103699,1,4,0:0:0:0:
256,192,103972,1,8,0:0:0:0:
256,192,104108,1,8,0:0:0:0:
256,192,104245,1,8,0:0:0:0:
256,192,104381,1,8,0:0:0:0:
256,192,104517,1,8,0:0:0:0:
256,192,104586,1,8,0:0:0:0:
256,192,104654,1,8,0:0:0:0:
256,192,104722,1,8,0:0:0:0:
256,192,104790,1,8,0:0:0:0:
256,192,104858,1,8,0:0:0:0:
256,192,104926,1,8,0:0:0:0:
256,192,105063,1,4,0:0:0:0:
256,192,105336,1,8,0:0:0:0:
256,192,105608,1,0,0:0:0:0:
256,192,105745,1,0,0:0:0:0:
256,192,105881,1,8,0:0:0:0:
256,192,106154,1,0,0:0:0:0:
256,192,106426,1,8,0:0:0:0:
256,192,106699,1,0,0:0:0:0:
256,192,106836,1,0,0:0:0:0:
256,192,106972,1,8,0:0:0:0:
256,192,107108,1,8,0:0:0:0:
256,192,107176,1,8,0:0:0:0:
256,192,107245,1,0,0:0:0:0:
256,192,107517,1,8,0:0:0:0:
256,192,107790,1,0,0:0:0:0:
256,192,107926,1,0,0:0:0:0:
256,192,108063,1,8,0:0:0:0:
256,192,108336,1,0,0:0:0:0:
256,192,108608,1,8,0:0:0:0:
256,192,108881,1,0,0:0:0:0:
256,192,109017,1,0,0:0:0:0:
256,192,109154,1,8,0:0:0:0:
256,192,109222,1,8,0:0:0:0:
256,192,109290,1,0,0:0:0:0:
256,192,109358,1,8,0:0:0:0:
256,192,109426,1,0,0:0:0:0:
256,192,109699,1,8,0:0:0:0:
256,192,109972,1,0,0:0:0:0:
256,192,110108,1,0,0:0:0:0:
256,192,110245,1,8,0:0:0:0:
256,192,110517,1,0,0:0:0:0:
256,192,110790,1,8,0:0:0:0:
256,192,111063,1,0,0:0:0:0:
256,192,111199,1,0,0:0:0:0:
256,192,111267,1,0,0:0:0:0:
256,192,111336,1,8,0:0:0:0:
256,192,111472,1,8,0:0:0:0:
256,192,111608,1,4,0:0:0:0:
256,192,112017,1,4,0:0:0:0:
256,192,112290,1,0,0:0:0:0:
256,192,112426,1,4,0:0:0:0:
256,192,112699,1,0,0:0:0:0:
256,192,112836,1,0,0:0:0:0:
256,192,112972,1,8,0:0:0:0:
256,192,113108,1,8,0:0:0:0:
256,192,113245,1,0,0:0:0:0:
256,192,113381,1,0,0:0:0:0:
256,192,113517,1,8,0:0:0:0:
256,192,113586,1,8,0:0:0:0:
256,192,113654,1,8,0:0:0:0:
256,192,113722,1,8,0:0:0:0:
256,192,113790,1,4,0:0:0:0:
256,192,114063,1,8,0:0:0:0:
256,192,114336,1,0,0:0:0:0:
256,192,114472,1,0,0:0:0:0:
256,192,114608,1,8,0:0:0:0:
256,192,114745,1,8,0:0:0:0:
256,192,114881,1,0,0:0:0:0:
256,192,115154,1,8,0:0:0:0:
256,192,115426,1,0,0:0:0:0:
256,192,115563,1,0,0:0:0:0:
256,192,115631,1,0,0:0:0:0:
256,192,115699,1,8,0:0:0:0:
256,192,115836,1,8,0:0:0:0:
256,192,115904,1,8,0:0:0:0:
256,192,115972,1,0,0:0:0:0:
256,192,116245,1,8,0:0:0:0:
256,192,116517,1,0,0:0:0:0:
256,192,116654,1,0,0:0:0:0:
256,192,116790,1,8,0:0:0:0:
256,192,116926,1,8,0:0:0:0:
256,192,117063,1,0,0:0:0:0:
256,192,117336,1,8,0:0:0:0:
256,192,117608,1,0,0:0:0:0:
256,192,117676,1,0,0:0:0:0:
256,192,117745,1,0,0:0:0:0:
256,192,117881,1,8,0:0:0:0:
256,192,117949,1,8,0:0:0:0:
256,192,118017,1,0,0:0:0:0:
256,192,118086,1,8,0:0:0:0:
256,192,118154,1,0,0:0:0:0:
256,192,118426,1,8,0:0:0:0:
256,192,118699,1,0,0:0:0:0:
256,192,118836,1,0,0:0:0:0:
256,192,118972,1,8,0:0:0:0:
256,192,119108,1,8,0:0:0:0:
256,192,119245,1,0,0:0:0:0:
256,192,119517,1,8,0:0:0:0:
256,192,119790,1,0,0:0:0:0:
256,192,119926,1,0,0:0:0:0:
256,192,119995,1,0,0:0:0:0:
256,192,120063,1,8,0:0:0:0:
256,192,120199,1,8,0:0:0:0:
256,192,120336,1,4,0:0:0:0:
256,192,120745,1,4,0:0:0:0:
256,192,121154,1,4,0:0:0:0:
256,192,121563,1,4,0:0:0:0:
256,192,121972,1,4,0:0:0:0:
256,192,122517,1,0,0:0:0:0:
256,192,122790,1,0,0:0:0:0:
256,192,123063,1,0,0:0:0:0:
256,192,123336,1,12,0:0:0:0:
256,192,123608,1,0,0:0:0:0:
256,192,123881,1,0,0:0:0:0:
256,192,124154,1,0,0:0:0:0:
256,192,124426,1,12,0:0:0:0:
256,192,124699,1,0,0:0:0:0:
256,192,124972,1,0,0:0:0:0:
256,192,125245,1,0,0:0:0:0:
256,192,125517,1,12,0:0:0:0:
256,192,125790,8,0,126608,0:0:0:0:
256,192,126881,5,8,0:0:0:0:
256,192,127017,1,0,0:0:0:0:
256,192,127086,1,0,0:0:0:0:
256,192,127154,1,8,0:0:0:0:
256,192,127290,1,0,0:0:0:0:
256,192,127426,1,8,0:0:0:0:
256,192,127495,1,8,0:0:0:0:
256,192,127563,1,0,0:0:0:0:
256,192,127699,1,8,0:0:0:0:
256,192,127767,1,0,0:0:0:0:
256,192,127836,1,0,0:0:0:0:
256,192,127972,1,8,0:0:0:0:
256,192,128108,1,0,0:0:0:0:
256,192,128176,1,0,0:0:0:0:
256,192,128245,1,8,0:0:0:0:
256,192,128381,1,0,0:0:0:0:
256,192,128517,1,8,0:0:0:0:
256,192,128586,1,8,0:0:0:0:
256,192,128654,1,0,0:0:0:0:
256,192,128790,1,8,0:0:0:0:
256,192,128858,1,0,0:0:0:0:
256,192,128926,1,0,0:0:0:0:
256,192,128995,1,0,0:0:0:0:
256,192,129063,1,8,0:0:0:0:
256,192,129199,1,0,0:0:0:0:
256,192,129267,1,0,0:0:0:0:
256,192,129336,1,8,0:0:0:0:
256,192,129472,1,0,0:0:0:0:
256,192,129608,1,8,0:0:0:0:
256,192,129676,1,8,0:0:0:0:
256,192,129745,1,0,0:0:0:0:
256,192,129881,1,8,0:0:0:0:
256,192,129949,1,0,0:0:0:0:
256,192,130017,1,0,0:0:0:0:
256,192,130154,1,8,0:0:0:0:
256,192,130290,1,0,0:0:0:0:
256,192,130358,1,0,0:0:0:0:
256,192,130426,1,8,0:0:0:0:
256,192,130563,1,0,0:0:0:0:
256,192,130699,1,8,0:0:0:0:
256,192,130767,1,8,0:0:0:0:
256,192,130836,1,0,0:0:0:0:
256,192,130972,1,8,0:0:0:0:
256,192,131245,1,4,0:0:0:0:
256,192,131381,1,8,0:0:0:0:
256,192,131449,1,8,0:0:0:0:
256,192,131517,1,0,0:0:0:0:
256,192,131654,1,8,0:0:0:0:
256,192,131790,1,0,0:0:0:0:
256,192,131858,1,0,0:0:0:0:
256,192,131926,1,8,0:0:0:0:
256,192,131995,1,8,0:0:0:0:
256,192,132063,1,0,0:0:0:0:
256,192,132199,1,8,0:0:0:0:
256,192,132336,1,0,0:0:0:0:
256,192,132404,1,0,0:0:0:0:
256,192,132472,1,8,0:0:0:0:
256,192,132540,1,8,0:0:0:0:
256,192,132608,1,0,0:0:0:0:
256,192,132745,1,8,0:0:0:0:
256,192,132813,1,8,0:0:0:0:
256,192,132881,1,0,0:0:0:0:
256,192,133017,1,0,0:0:0:0:
256,192,133154,1,8,0:0:0:0:
256,192,133426,1,4,0:0:0:0:
256,192,133699,1,8,0:0:0:0:
256,192,133836,1,4,0:0:0:0:
256,192,134108,1,0,0:0:0:0:
256,192,134245,1,4,0:0:0:0:
256,192,134517,1,0,0:0:0:0:
256,192,134654,1,0,0:0:0:0:
256,192,134790,1,8,0:0:0:0:
256,192,134926,1,8,0:0:0:0:
256,192,135063,1,0,0:0:0:0:
256,192,135131,1,0,0:0:0:0:
256,192,135199,1,0,0:0:0:0:
256,192,135267,1,0,0:0:0:0:
256,192,135336,1,8,0:0:0:0:
256,192,135608,1,8,0:0:0:0:
256,192,135745,1,0,0:0:0:0:
256,192,135813,1,0,0:0:0:0:
256,192,135881,1,8,0:0:0:0:
256,192,136017,1,0,0:0:0:0:
256,192,136154,1,8,0:0:0:0:
256,192,136222,1,8,0:0:0:0:
256,192,136290,1,0,0:0:0:0:
256,192,136426,1,8,0:0:0:0:
256,192,136495,1,0,0:0:0:0:
256,192,136563,1,0,0:0:0:0:
256,192,136699,1,8,0:0:0:0:
256,192,136836,1,0,0:0:0:0:
256,192,136904,1,0,0:0:0:0:
256,192,136972,1,8,0:0:0:0:
256,192,137108,1,0,0:0:0:0:
256,192,137245,1,8,0:0:0:0:
256,192,137313,1,8,0:0:0:0:
256,192,137381,1,0,0:0:0:0:
256,192,137517,1,8,0:0:0:0:
256,192,137586,1,0,0:0:0:0:
256,192,137654,1,0,0:0:0:0:
256,192,137722,1,0,0:0:0:0:
256,192,137790,1,8,0:0:0:0:
256,192,137926,1,0,0:0:0:0:
256,192,137995,1,0,0:0:0:0:
256,192,138063,1,8,0:0:0:0:
256,192,138199,1,0,0:0:0:0:
256,192,138336,1,8,0:0:0:0:
256,192,138404,1,8,0:0:0:0:
256,192,138472,1,0,0:0:0:0:
256,192,138608,1,8,0:0:0:0:
256,192,138676,1,0,0:0:0:0:
256,192,138745,1,0,0:0:0:0:
256,192,138881,1,8,0:0:0:0:
256,192,139017,1,0,0:0:0:0:
256,192,139086,1,0,0:0:0:0:
256,192,139154,1,8,0:0:0:0:
256,192,139290,1,0,0:0:0:0:
256,192,139426,1,8,0:0:0:0:
256,192,139495,1,8,0:0:0:0:
256,192,139563,1,0,0:0:0:0:
256,192,139699,1,8,0:0:0:0:
256,192,139972,1,4,0:0:0:0:
256,192,140108,1,0,0:0:0:0:
256,192,140245,1,8,0:0:0:0:
256,192,140517,1,0,0:0:0:0:
256,192,140654,1,0,0:0:0:0:
256,192,140790,1,8,0:0:0:0:
256,192,141063,1,0,0:0:0:0:
256,192,141199,1,0,0:0:0:0:
256,192,141267,1,0,0:0:0:0:
256,192,141336,1,8,0:0:0:0:
256,192,141472,1,8,0:0:0:0:
256,192,141608,1,0,0:0:0:0:
256,192,141745,1,0,0:0:0:0:
256,192,141881,1,8,0:0:0:0:
256,192,142154,1,4,0:0:0:0:
256,192,142426,1,8,0:0:0:0:
256,192,142699,1,0,0:0:0:0:
256,192,142972,1,8,0:0:0:0:
256,192,143245,8,0,144063,0:0:0:0:
256,192,144336,5,4,0:0:0:0:
256,192,144472,1,8,0:0:0:0:
256,192,144540,1,8,0:0:0:0:
256,192,144608,1,0,0:0:0:0:
256,192,144676,1,0,0:0:0:0:
256,192,144745,1,8,0:0:0:0:
256,192,144881,1,0,0:0:0:0:
256,192,145017,1,8,0:0:0:0:
256,192,145086,1,8,0:0:0:0:
256,192,145154,1,0,0:0:0:0:
256,192,145222,1,0,0:0:0:0:
256,192,145290,1,8,0:0:0:0:
256,192,145426,1,0,0:0:0:0:
256,192,145563,1,0,0:0:0:0:
256,192,145631,1,8,0:0:0:0:
256,192,145699,1,0,0:0:0:0:
256,192,145836,1,8,0:0:0:0:
256,192,145972,1,0,0:0:0:0:
256,192,146108,1,8,0:0:0:0:
256,192,146176,1,8,0:0:0:0:
256,192,146245,1,0,0:0:0:0:
256,192,146381,1,8,0:0:0:0:
256,192,146517,1,0,0:0:0:0:
256,192,146654,1,8,0:0:0:0:
256,192,146722,1,8,0:0:0:0:
256,192,146790,1,0,0:0:0:0:
256,192,146858,1,0,0:0:0:0:
256,192,146926,1,8,0:0:0:0:
256,192,147063,1,0,0:0:0:0:
256,192,147199,1,8,0:0:0:0:
256,192,147267,1,8,0:0:0:0:
256,192,147336,1,0,0:0:0:0:
256,192,147404,1,0,0:0:0:0:
256,192,147472,1,8,0:0:0:0:
256,192,147608,1,0,0:0:0:0:
256,192,147745,1,8,0:0:0:0:
256,192,147813,1,0,0:0:0:0:
256,192,147881,1,8,0:0:0:0:
256,192,147949,1,0,0:0:0:0:
256,192,148017,1,8,0:0:0:0:
256,192,148154,1,4,0:0:0:0:
256,192,148290,1,4,0:0:0:0:
256,192,148426,1,4,0:0:0:0:
256,192,148699,1,12,0:0:0:0:
256,192,148836,1,0,0:0:0:0:
256,192,148904,1,0,0:0:0:0:
256,192,148972,1,8,0:0:0:0:
256,192,149040,1,8,0:0:0:0:
256,192,149108,1,0,0:0:0:0:
256,192,149245,1,8,0:0:0:0:
256,192,149381,1,0,0:0:0:0:
256,192,149449,1,0,0:0:0:0:
256,192,149517,1,8,0:0:0:0:
256,192,149586,1,8,0:0:0:0:
256,192,149654,1,0,0:0:0:0:
256,192,149790,1,8,0:0:0:0:
256,192,149926,1,8,0:0:0:0:
256,192,149995,1,0,0:0:0:0:
256,192,150063,1,8,0:0:0:0:
256,192,150199,1,0,0:0:0:0:
256,192,150336,1,8,0:0:0:0:
256,192,150472,1,0,0:0:0:0:
256,192,150540,1,0,0:0:0:0:
256,192,150608,1,8,0:0:0:0:
256,192,150745,1,8,0:0:0:0:
256,192,150881,1,4,0:0:0:0:
256,192,151154,1,8,0:0:0:0:
256,192,151290,1,0,0:0:0:0:
256,192,151426,1,8,0:0:0:0:
256,192,151563,1,8,0:0:0:0:
256,192,151699,1,0,0:0:0:0:
256,192,151836,1,8,0:0:0:0:
256,192,151972,1,0,0:0:0:0:
256,192,152108,1,0,0:0:0:0:
256,192,152245,1,8,0:0:0:0:
256,192,152381,1,8,0:0:0:0:
256,192,152517,1,0,0:0:0:0:
256,192,152654,1,0,0:0:0:0:
256,192,152790,1,8,0:0:0:0:
256,192,152858,1,8,0:0:0:0:
256,192,152926,1,8,0:0:0:0:
256,192,153063,1,4,0:0:0:0:
256,192,153336,1,0,0:0:0:0:
256,192,153404,1,0,0:0:0:0:
256,192,153472,1,8,0:0:0:0:
256,192,153608,1,0,0:0:0:0:
256,192,153745,1,8,0:0:0:0:
256,192,153813,1,8,0:0:0:0:
256,192,153881,1,0,0:0:0:0:
256,192,153949,1,0,0:0:0:0:
256,192,154017,1,8,0:0:0:0:
256,192,154154,1,0,0:0:0:0:
256,192,154290,1,0,0:0:0:0:
256,192,154358,1,8,0:0:0:0:
256,192,154426,1,0,0:0:0:0:
256,192,154563,1,8,0:0:0:0:
256,192,154699,1,0,0:0:0:0:
256,192,154836,1,8,0:0:0:0:
256,192,154904,1,8,0:0:0:0:
256,192,154972,1,0,0:0:0:0:
256,192,155108,1,8,0:0:0:0:
256,192,155245,1,0,0:0:0:0:
256,192,155381,1,8,0:0:0:0:
256,192,155449,1,8,0:0:0:0:
256,192,155517,1,0,0:0:0:0:
256,192,155586,1,0,0:0:0:0:
256,192,155654,1,8,0:0:0:0:
256,192,155790,1,0,0:0:0:0:
256,192,155926,1,8,0:0:0:0:
256,192,155995,1,8,0:0:0:0:
256,192,156063,1,0,0:0:0:0:
256,192,156131,1,0,0:0:0:0:
256,192,156199,1,8,0:0:0:0:
256,192,156336,1,0,0:0:0:0:
256,192,156472,1,8,0:0:0:0:
256,192,156540,1,0,0:0:0:0:
256,192,156608,1,8,0:0:0:0:
256,192,156676,1,0,0:0:0:0:
256,192,156745,1,8,0:0:0:0:
256,192,156881,1,4,0:0:0:0:
256,192,157017,1,4,0:0:0:0:
256,192,157154,1,4,0:0:0:0:
256,192,157426,1,8,0:0:0:0:
256,192,157563,1,0,0:0:0:0:
256,192,157631,1,0,0:0:0:0:
256,192,157699,1,8,0:0:0:0:
256,192,157767,1,8,0:0:0:0:
256,192,157836,1,0,0:0:0:0:
256,192,157972,1,8,0:0:0:0:
256,192,158108,1,0,0:0:0:0:
256,192,158176,1,0,0:0:0:0:
256,192,158245,1,8,0:0:0:0:
256,192,158313,1,8,0:0:0:0:
256,192,158381,1,0,0:0:0:0:
256,192,158517,1,8,0:0:0:0:
256,192,158654,1,8,0:0:0:0:
256,192,158722,1,0,0:0:0:0:
256,192,158790,1,8,0:0:0:0:
256,192,158926,1,0,0:0:0:0:
256,192,159063,1,8,0:0:0:0:
256,192,159199,1,0,0:0:0:0:
256,192,159267,1,0,0:0:0:0:
256,192,159336,1,8,0:0:0:0:
256,192,159472,1,0,0:0:0:0:
256,192,159608,8,0,160426,0:0:0:0:
256,192,160699,8,0,160972,0:0:0:0:
256,192,161245,8,0,161517,0:0:0:0:
256,192,161790,5,4,0:0:0:0:
256,192,170517,5,4,0:0:0:0:
256,192,171608,1,0,0:0:0:0:
256,192,172699,1,8,0:0:0:0:
256,192,173790,1,8,0:0:0:0:
256,192,174881,1,0,0:0:0:0:
256,192,175972,1,0,0:0:0:0:
256,192,177063,1,8,0:0:0:0:
256,192,178154,1,8,0:0:0:0:
256,192,179245,1,4,0:0:0:0:
256,192,179381,1,8,0:0:0:0:
256,192,179517,1,8,0:0:0:0:
256,192,179654,1,0,0:0:0:0:
256,192,179722,1,8,0:0:0:0:
256,192,179926,1,8,0:0:0:0:
256,192,180063,1,8,0:0:0:0:
256,192,180199,1,0,0:0:0:0:
256,192,180472,1,8,0:0:0:0:
256,192,180608,1,8,0:0:0:0:
256,192,180745,1,0,0:0:0:0:
256,192,180813,1,8,0:0:0:0:
256,192,181017,1,0,0:0:0:0:
256,192,181154,1,8,0:0:0:0:
256,192,181290,1,0,0:0:0:0:
256,192,181563,1,8,0:0:0:0:
256,192,181699,1,8,0:0:0:0:
256,192,181836,1,0,0:0:0:0:
256,192,181904,1,0,0:0:0:0:
256,192,181972,1,0,0:0:0:0:
256,192,182108,1,8,0:0:0:0:
256,192,182245,1,8,0:0:0:0:
256,192,182381,1,0,0:0:0:0:
256,192,182517,1,8,0:0:0:0:
256,192,182654,1,0,0:0:0:0:
256,192,182790,1,8,0:0:0:0:
256,192,182926,1,0,0:0:0:0:
256,192,182995,1,8,0:0:0:0:
256,192,183199,1,8,0:0:0:0:
256,192,183336,1,8,0:0:0:0:
256,192,183472,1,0,0:0:0:0:
256,192,183745,1,8,0:0:0:0:
256,192,183881,1,8,0:0:0:0:
256,192,184017,1,0,0:0:0:0:
256,192,184086,1,8,0:0:0:0:
256,192,184290,1,8,0:0:0:0:
256,192,184426,1,8,0:0:0:0:
256,192,184563,1,0,0:0:0:0:
256,192,184836,1,8,0:0:0:0:
256,192,184972,1,8,0:0:0:0:
256,192,185108,1,0,0:0:0:0:
256,192,185176,1,8,0:0:0:0:
256,192,185381,1,0,0:0:0:0:
256,192,185517,1,8,0:0:0:0:
256,192,185654,1,0,0:0:0:0:
256,192,185926,1,8,0:0:0:0:
256,192,186063,1,8,0:0:0:0:
256,192,186199,1,0,0:0:0:0:
256,192,186267,1,0,0:0:0:0:
256,192,186336,1,0,0:0:0:0:
256,192,186472,1,8,0:0:0:0:
256,192,186608,1,8,0:0:0:0:
256,192,186745,1,0,0:0:0:0:
256,192,186881,1,8,0:0:0:0:
256,192,187017,1,0,0:0:0:0:
256,192,187154,1,8,0:0:0:0:
256,192,187290,1,0,0:0:0:0:
256,192,187358,1,8,0:0:0:0:
256,192,187563,1,8,0:0:0:0:
256,192,187699,1,8,0:0:0:0:
256,192,187836,1,8,0:0:0:0:
256,192,187972,1,4,0:0:0:0:
256,192,188517,1,8,0:0:0:0:
256,192,189063,1,0,0:0:0:0:
256,192,189608,1,8,0:0:0:0:
256,192,190154,1,0,0:0:0:0:
256,192,190426,1,0,0:0:0:0:
256,192,190699,1,8,0:0:0:0:
256,192,190972,1,8,0:0:0:0:
256,192,191245,1,0,0:0:0:0:
256,192,191517,1,0,0:0:0:0:
256,192,191790,1,8,0:0:0:0:
256,192,192063,1,8,0:0:0:0:
256,192,192336,1,0,0:0:0:0:
256,192,192472,1,0,0:0:0:0:
256,192,192608,1,0,0:0:0:0:
256,192,192745,1,0,0:0:0:0:
256,192,192881,1,8,0:0:0:0:
256,192,193017,1,8,0:0:0:0:
256,192,193154,1,8,0:0:0:0:
256,192,193290,1,8,0:0:0:0:
256,192,193426,1,0,0:0:0:0:
256,192,193563,1,0,0:0:0:0:
256,192,193699,1,0,0:0:0:0:
256,192,193836,1,0,0:0:0:0:
256,192,193972,1,8,0:0:0:0:
256,192,194108,1,8,0:0:0:0:
256,192,194245,1,8,0:0:0:0:
256,192,194381,1,8,0:0:0:0:
256,192,194517,1,0,0:0:0:0:
256,192,194586,1,0,0:0:0:0:
256,192,194654,1,0,0:0:0:0:
256,192,194790,1,8,0:0:0:0:
256,192,194858,1,8,0:0:0:0:
256,192,194926,1,8,0:0:0:0:
256,192,195063,1,0,0:0:0:0:
256,192,195131,1,0,0:0:0:0:
256,192,195199,1,0,0:0:0:0:
256,192,195336,1,8,0:0:0:0:
256,192,195404,1,8,0:0:0:0:
256,192,195472,1,8,0:0:0:0:
256,192,195608,1,0,0:0:0:0:
256,192,195881,1,8,0:0:0:0:
256,192,196086,1,8,0:0:0:0:
256,192,196154,1,8,0:0:0:0:
256,192,196290,1,8,0:0:0:0:
256,192,196426,1,8,0:0:0:0:
256,192,196495,1,8,0:0:0:0:
256,192,196563,1,8,0:0:0:0:
256,192,196699,1,4,0:0:0:0:
256,192,196972,1,8,0:0:0:0:
256,192,197108,1,0,0:0:0:0:
256,192,197176,1,8,0:0:0:0:
256,192,197313,1,0,0:0:0:0:
256,192,197381,1,0,0:0:0:0:
256,192,197517,1,8,0:0:0:0:
256,192,197654,1,8,0:0:0:0:
256,192,197790,1,0,0:0:0:0:
256,192,197858,1,0,0:0:0:0:
256,192,197926,1,8,0:0:0:0:
256,192,198063,1,8,0:0:0:0:
256,192,198199,1,0,0:0:0:0:
256,192,198267,1,8,0:0:0:0:
256,192,198404,1,0,0:0:0:0:
256,192,198472,1,0,0:0:0:0:
256,192,198608,1,8,0:0:0:0:
256,192,198745,1,8,0:0:0:0:
256,192,198881,1,0,0:0:0:0:
256,192,199017,1,8,0:0:0:0:
256,192,199086,1,0,0:0:0:0:
256,192,199154,1,8,0:0:0:0:
256,192,199290,1,0,0:0:0:0:
256,192,199358,1,0,0:0:0:0:
256,192,199495,1,0,0:0:0:0:
256,192,199563,1,8,0:0:0:0:
256,192,199699,1,8,0:0:0:0:
256,192,199836,1,0,0:0:0:0:
256,192,199972,1,8,0:0:0:0:
256,192,200040,1,8,0:0:0:0:
256,192,200108,1,0,0:0:0:0:
256,192,200245,1,8,0:0:0:0:
256,192,200381,1,0,0:0:0:0:
256,192,200449,1,8,0:0:0:0:
256,192,200586,1,0,0:0:0:0:
256,192,200654,1,0,0:0:0:0:
256,192,200790,1,8,0:0:0:0:
256,192,200858,1,8,0:0:0:0:
256,192,200926,1,8,0:0:0:0:
256,192,201063,1,0,0:0:0:0:
256,192,201336,1,8,0:0:0:0:
256,192,201472,1,0,0:0:0:0:
256,192,201540,1,8,0:0:0:0:
256,192,201676,1,0,0:0:0:0:
256,192,201745,1,0,0:0:0:0:
256,192,201881,1,8,0:0:0:0:
256,192,202017,1,8,0:0:0:0:
256,192,202154,1,0,0:0:0:0:
256,192,202222,1,0,0:0:0:0:
256,192,202290,1,0,0:0:0:0:
256,192,202426,1,8,0:0:0:0:
256,192,202563,1,0,0:0:0:0:
256,192,202631,1,8,0:0:0:0:
256,192,202767,1,0,0:0:0:0:
256,192,202836,1,0,0:0:0:0:
256,192,202972,1,8,0:0:0:0:
256,192,203108,1,8,0:0:0:0:
256,192,203245,1,0,0:0:0:0:
256,192,203381,1,8,0:0:0:0:
256,192,203449,1,8,0:0:0:0:
256,192,203517,1,8,0:0:0:0:
256,192,203654,1,0,0:0:0:0:
256,192,203722,1,8,0:0:0:0:
256,192,203858,1,0,0:0:0:0:
256,192,203926,1,0,0:0:0:0:
256,192,204063,1,8,0:0:0:0:
256,192,204199,1,8,0:0:0:0:
256,192,204336,1,0,0:0:0:0:
256,192,204472,1,0,0:0:0:0:
256,192,204608,1,8,0:0:0:0:
256,192,204745,1,8,0:0:0:0:
256,192,204881,1,0,0:0:0:0:
256,192,205017,1,0,0:0:0:0:
256,192,205154,1,8,0:0:0:0:
256,192,205222,1,8,0:0:0:0:
256,192,205290,1,8,0:0:0:0:
256,192,205358,1,8,0:0:0:0:
256,192,205426,1,4,0:0:0:0:
256,192,205699,1,8,0:0:0:0:
256,192,205836,1,0,0:0:0:0:
256,192,205904,1,8,0:0:0:0:
256,192,206040,1,0,0:0:0:0:
256,192,206108,1,0,0:0:0:0:
256,192,206245,1,8,0:0:0:0:
256,192,206381,1,8,0:0:0:0:
256,192,206517,1,0,0:0:0:0:
256,192,206586,1,0,0:0:0:0:
256,192,206654,1,8,0:0:0:0:
256,192,206790,1,8,0:0:0:0:
256,192,206926,1,0,0:0:0:0:
256,192,206995,1,8,0:0:0:0:
256,192,207131,1,0,0:0:0:0:
256,192,207199,1,0,0:0:0:0:
256,192,207336,1,8,0:0:0:0:
256,192,207472,1,8,0:0:0:0:
256,192,207608,1,0,0:0:0:0:
256,192,207745,1,8,0:0:0:0:
256,192,207813,1,0,0:0:0:0:
256,192,207881,1,8,0:0:0:0:
256,192,208017,1,0,0:0:0:0:
256,192,208086,1,0,0:0:0:0:
256,192,208222,1,0,0:0:0:0:
256,192,208290,1,8,0:0:0:0:
256,192,208426,1,8,0:0:0:0:
256,192,208563,1,0,0:0:0:0:
256,192,208699,1,8,0:0:0:0:
256,192,208767,1,8,0:0:0:0:
256,192,208836,1,0,0:0:0:0:
256,192,208972,1,8,0:0:0:0:
256,192,209108,1,0,0:0:0:0:
256,192,209176,1,8,0:0:0:0:
256,192,209313,1,0,0:0:0:0:
256,192,209381,1,0,0:0:0:0:
256,192,209517,1,8,0:0:0:0:
256,192,209586,1,8,0:0:0:0:
256,192,209654,1,8,0:0:0:0:
256,192,209790,1,0,0:0:0:0:
256,192,210063,1,8,0:0:0:0:
256,192,210199,1,0,0:0:0:0:
256,192,210267,1,8,0:0:0:0:
256,192,210404,1,0,0:0:0:0:
256,192,210472,1,0,0:0:0:0:
256,192,210608,1,8,0:0:0:0:
256,192,210745,1,8,0:0:0:0:
256,192,210881,1,0,0:0:0:0:
256,192,210949,1,0,0:0:0:0:
256,192,211017,1,0,0:0:0:0:
256,192,211154,1,8,0:0:0:0:
256,192,211290,1,0,0:0:0:0:
256,192,211358,1,8,0:0:0:0:
256,192,211495,1,0,0:0:0:0:
256,192,211563,1,0,0:0:0:0:
256,192,211699,1,8,0:0:0:0:
256,192,211836,1,8,0:0:0:0:
256,192,211972,1,0,0:0:0:0:
256,192,212108,1,8,0:0:0:0:
256,192,212245,1,0,0:0:0:0:
256,192,212313,1,0,0:0:0:0:
256,192,212381,1,0,0:0:0:0:
256,192,212449,1,0,0:0:0:0:
256,192,212517,1,8,0:0:0:0:
256,192,212654,1,0,0:0:0:0:
256,192,212790,1,8,0:0:0:0:
256,192,212858,1,8,0:0:0:0:
256,192,212926,1,0,0:0:0:0:
256,192,213063,1,8,0:0:0:0:
256,192,213199,1,0,0:0:0:0:
256,192,213336,1,8,0:0:0:0:
256,192,213472,1,0,0:0:0:0:
256,192,213540,1,8,0:0:0:0:
256,192,213676,1,0,0:0:0:0:
256,192,213745,1,0,0:0:0:0:
256,192,213881,1,8,0:0:0:0:
256,192,213949,1,8,0:0:0:0:
256,192,214017,1,8,0:0:0:0:
256,192,214086,1,8,0:0:0:0:
256,192,214154,1,4,0:0:0:0:
256,192,214426,1,8,0:0:0:0:
256,192,214563,1,0,0:0:0:0:
256,192,214631,1,8,0:0:0:0:
256,192,214767,1,0,0:0:0:0:
256,192,214836,1,0,0:0:0:0:
256,192,214972,1,8,0:0:0:0:
256,192,215108,1,8,0:0:0:0:
256,192,215381,1,8,0:0:0:0:
256,192,215517,1,8,0:0:0:0:
256,192,215654,1,0,0:0:0:0:
256,192,215722,1,8,0:0:0:0:
256,192,215858,1,0,0:0:0:0:
256,192,215926,1,0,0:0:0:0:
256,192,216063,1,8,0:0:0:0:
256,192,216199,1,8,0:0:0:0:
256,192,216472,1,8,0:0:0:0:
256,192,216540,1,0,0:0:0:0:
256,192,216608,1,8,0:0:0:0:
256,192,216745,1,0,0:0:0:0:
256,192,216813,1,0,0:0:0:0:
256,192,216949,1,0,0:0:0:0:
256,192,217017,1,8,0:0:0:0:
256,192,217154,1,8,0:0:0:0:
256,192,217426,1,8,0:0:0:0:
256,192,217495,1,8,0:0:0:0:
256,192,217563,1,0,0:0:0:0:
256,192,217699,1,8,0:0:0:0:
256,192,217836,1,0,0:0:0:0:
256,192,217904,1,8,0:0:0:0:
256,192,218040,1,0,0:0:0:0:
256,192,218108,1,0,0:0:0:0:
256,192,218245,1,8,0:0:0:0:
256,192,218313,1,8,0:0:0:0:
256,192,218381,1,8,0:0:0:0:
256,192,218517,1,0,0:0:0:0:
256,192,218790,1,8,0:0:0:0:
256,192,218926,1,0,0:0:0:0:
256,192,218995,1,8,0:0:0:0:
256,192,219131,1,0,0:0:0:0:
256,192,219199,1,0,0:0:0:0:
256,192,219336,1,8,0:0:0:0:
256,192,219472,1,8,0:0:0:0:
256,192,219745,1,0,0:0:0:0:
256,192,219881,1,8,0:0:0:0:
256,192,220017,1,0,0:0:0:0:
256,192,220086,1,8,0:0:0:0:
256,192,220222,1,0,0:0:0:0:
256,192,220290,1,0,0:0:0:0:
256,192,220426,1,8,0:0:0:0:
256,192,220563,1,8,0:0:0:0:
256,192,220836,1,8,0:0:0:0:
256,192,220904,1,8,0:0:0:0:
256,192,220972,1,8,0:0:0:0:
256,192,221108,1,0,0:0:0:0:
256,192,221176,1,8,0:0:0:0:
256,192,221313,1,0,0:0:0:0:
256,192,221381,1,0,0:0:0:0:
256,192,221517,1,8,0:0:0:0:
256,192,221790,1,0,0:0:0:0:
256,192,221926,1,0,0:0:0:0:
256,192,222063,1,8,0:0:0:0:
256,192,222199,1,8,0:0:0:0:
256,192,222336,1,0,0:0:0:0:
256,192,222472,1,0,0:0:0:0:
256,192,222608,1,8,0:0:0:0:
256,192,222676,1,8,0:0:0:0:
256,192,222745,1,8,0:0:0:0:
256,192,222813,1,8,0:0:0:0:
256,192,222881,1,4,0:0:0:0:
256,192,223154,1,8,0:0:0:0:
256,192,223290,1,0,0:0:0:0:
256,192,223358,1,8,0:0:0:0:
256,192,223495,1,0,0:0:0:0:
256,192,223563,1,0,0:0:0:0:
256,192,223699,1,8,0:0:0:0:
256,192,223836,1,8,0:0:0:0:
256,192,224108,1,8,0:0:0:0:
256,192,224245,1,8,0:0:0:0:
256,192,224381,1,0,0:0:0:0:
256,192,224449,1,8,0:0:0:0:
256,192,224586,1,0,0:0:0:0:
256,192,224654,1,0,0:0:0:0:
256,192,224790,1,8,0:0:0:0:
256,192,224926,1,8,0:0:0:0:
256,192,225199,1,8,0:0:0:0:
256,192,225267,1,0,0:0:0:0:
256,192,225336,1,8,0:0:0:0:
256,192,225472,1,0,0:0:0:0:
256,192,225540,1,0,0:0:0:0:
256,192,225676,1,0,0:0:0:0:
256,192,225745,1,8,0:0:0:0:
256,192,225881,1,8,0:0:0:0:
256,192,226154,1,8,0:0:0:0:
256,192,226222,1,8,0:0:0:0:
256,192,226290,1,0,0:0:0:0:
256,192,226426,1,8,0:0:0:0:
256,192,226563,1,0,0:0:0:0:
256,192,226631,1,8,0:0:0:0:
256,192,226767,1,0,0:0:0:0:
256,192,226836,1,0,0:0:0:0:
256,192,226972,1,8,0:0:0:0:
256,192,227040,1,8,0:0:0:0:
256,192,227108,1,8,0:0:0:0:
256,192,227245,1,0,0:0:0:0:
256,192,227517,1,8,0:0:0:0:
256,192,227654,1,0,0:0:0:0:
256,192,227722,1,8,0:0:0:0:
256,192,227858,1,0,0:0:0:0:
256,192,227926,1,0,0:0:0:0:
256,192,228063,1,8,0:0:0:0:
256,192,228199,1,8,0:0:0:0:
256,192,228472,1,0,0:0:0:0:
256,192,228608,1,8,0:0:0:0:
256,192,228745,1,0,0:0:0:0:
256,192,228813,1,8,0:0:0:0:
256,192,228949,1,0,0:0:0:0:
256,192,229017,1,0,0:0:0:0:
256,192,229154,1,8,0:0:0:0:
256,192,229290,1,8,0:0:0:0:
256,192,229563,1,8,0:0:0:0:
256,192,229699,1,0,0:0:0:0:
256,192,229836,1,0,0:0:0:0:
256,192,229904,1,8,0:0:0:0:
256,192,230040,1,8,0:0:0:0:
256,192,230108,1,0,0:0:0:0:
256,192,230245,1,8,0:0:0:0:
256,192,230517,1,0,0:0:0:0:
256,192,230654,1,0,0:0:0:0:
256,192,230790,1,8,0:0:0:0:
256,192,230926,1,8,0:0:0:0:
256,192,231063,1,0,0:0:0:0:
256,192,231199,1,0,0:0:0:0:
256,192,231336,1,8,0:0:0:0:
256,192,231404,1,8,0:0:0:0:
256,192,231472,1,8,0:0:0:0:
256,192,231540,1,8,0:0:0:0:
256,192,231608,1,4,0:0:0:0:
256,192,231881,1,8,0:0:0:0:
256,192,232154,1,0,0:0:0:0:
256,192,232426,1,8,0:0:0:0:
256,192,232699,1,0,0:0:0:0:
256,192,232972,1,8,0:0:0:0:
256,192,233245,1,0,0:0:0:0:
256,192,233517,1,8,0:0:0:0:
256,192,233722,1,8,0:0:0:0:
256,192,233790,1,0,0:0:0:0:
256,192,234063,1,8,0:0:0:0:
256,192,234336,1,0,0:0:0:0:
256,192,234608,1,8,0:0:0:0:
256,192,234881,1,0,0:0:0:0:
256,192,235154,1,8,0:0:0:0:
256,192,235426,1,0,0:0:0:0:
256,192,235699,1,8,0:0:0:0:
256,192,235767,1,8,0:0:0:0:
256,192,235904,1,8,0:0:0:0:
256,192,235972,1,0,0:0:0:0:
256,192,236245,1,8,0:0:0:0:
256,192,236517,1,0,0:0:0:0:
256,192,236790,1,8,0:0:0:0:
256,192,237063,1,0,0:0:0:0:
256,192,237336,1,8,0:0:0:0:
256,192,237608,1,0,0:0:0:0:
256,192,237881,1,8,0:0:0:0:
256,192,238154,1,0,0:0:0:0:
256,192,238426,1,8,0:0:0:0:
256,192,238699,1,0,0:0:0:0:
256,192,238972,1,8,0:0:0:0:
256,192,239245,1,0,0:0:0:0:
256,192,239381,1,0,0:0:0:0:
256,192,239517,1,8,0:0:0:0:
256,192,239654,1,8,0:0:0:0:
256,192,239790,1,0,0:0:0:0:
256,192,239926,1,0,0:0:0:0:
256,192,240063,1,8,0:0:0:0:
256,192,240131,1,8,0:0:0:0:
256,192,240199,1,8,0:0:0:0:
256,192,240267,1,8,0:0:0:0:
256,192,240336,1,4,0:0:0:0:
256,192,240608,1,8,0:0:0:0:
256,192,240881,1,0,0:0:0:0:
256,192,241154,1,8,0:0:0:0:
256,192,241426,1,0,0:0:0:0:
256,192,241699,1,8,0:0:0:0:
256,192,241972,1,0,0:0:0:0:
256,192,242245,1,8,0:0:0:0:
256,192,242449,1,8,0:0:0:0:
256,192,242517,1,0,0:0:0:0:
256,192,242790,1,8,0:0:0:0:
256,192,243063,1,0,0:0:0:0:
256,192,243336,1,8,0:0:0:0:
256,192,243608,1,0,0:0:0:0:
256,192,243881,1,8,0:0:0:0:
256,192,244154,1,0,0:0:0:0:
256,192,244426,1,8,0:0:0:0:
256,192,244495,1,8,0:0:0:0:
256,192,244631,1,8,0:0:0:0:
256,192,244699,1,0,0:0:0:0:
256,192,244972,1,8,0:0:0:0:
256,192,245245,1,0,0:0:0:0:
256,192,245517,1,8,0:0:0:0:
256,192,245790,1,0,0:0:0:0:
256,192,246063,1,8,0:0:0:0:
256,192,246336,1,0,0:0:0:0:
256,192,246608,1,8,0:0:0:0:
256,192,246881,1,0,0:0:0:0:
256,192,247154,1,8,0:0:0:0:
256,192,247426,1,0,0:0:0:0:
256,192,247699,1,8,0:0:0:0:
256,192,247972,1,0,0:0:0:0:
256,192,248108,1,0,0:0:0:0:
256,192,248245,1,8,0:0:0:0:
256,192,248381,1,8,0:0:0:0:
256,192,248517,1,0,0:0:0:0:
256,192,248654,1,0,0:0:0:0:
256,192,248790,1,8,0:0:0:0:
256,192,248858,1,8,0:0:0:0:
256,192,248926,1,8,0:0:0:0:
256,192,248995,1,8,0:0:0:0:
256,192,249063,1,4,0:0:0:0:
256,192,249745,1,8,0:0:0:0:
256,192,250154,1,0,0:0:0:0:
256,192,250290,1,8,0:0:0:0:
256,192,250836,1,8,0:0:0:0:
256,192,251245,1,8,0:0:0:0:
256,192,251381,1,8,0:0:0:0:
256,192,251926,1,8,0:0:0:0:
256,192,252336,1,0,0:0:0:0:
256,192,252472,1,8,0:0:0:0:
256,192,252881,1,8,0:0:0:0:
256,192,253154,1,8,0:0:0:0:
256,192,253426,1,8,0:0:0:0:
256,192,253563,1,8,0:0:0:0:
256,192,254108,1,8,0:0:0:0:
256,192,254517,1,0,0:0:0:0:
256,192,254654,1,8,0:0:0:0:
256,192,255199,1,8,0:0:0:0:
256,192,255608,1,8,0:0:0:0:
256,192,255745,1,8,0:0:0:0:
256,192,256290,1,8,0:0:0:0:
256,192,256699,1,0,0:0:0:0:
256,192,256836,1,8,0:0:0:0:
256,192,257245,1,8,0:0:0:0:
256,192,257517,1,8,0:0:0:0:
256,192,257790,1,8,0:0:0:0:
256,192,257926,1,8,0:0:0:0:
256,192,258472,1,8,0:0:0:0:
256,192,259017,1,8,0:0:0:0:
256,192,259563,1,8,0:0:0:0:
256,192,259972,1,8,0:0:0:0:
256,192,260108,1,8,0:0:0:0:
256,192,260654,1,8,0:0:0:0:
256,192,261199,1,8,0:0:0:0:
256,192,261745,1,8,0:0:0:0:
256,192,262154,1,8,0:0:0:0:
256,192,262290,1,8,0:0:0:0:
256,192,262836,1,8,0:0:0:0:
256,192,263381,1,8,0:0:0:0:
256,192,263926,1,8,0:0:0:0:
256,192,264336,1,8,0:0:0:0:
256,192,264472,1,8,0:0:0:0:
256,192,265017,1,8,0:0:0:0:
256,192,265426,1,0,0:0:0:0:
256,192,265563,1,8,0:0:0:0:
256,192,265699,1,8,0:0:0:0:
256,192,265836,1,0,0:0:0:0:
256,192,265904,1,8,0:0:0:0:
256,192,266108,1,8,0:0:0:0:
256,192,266245,1,8,0:0:0:0:
256,192,266381,1,0,0:0:0:0:
