osu file format v14

[General]
AudioFilename: audio.mp3
AudioLeadIn: 0
PreviewTime: -1
Countdown: 1
SampleSet: None
StackLeniency: 0.7
Mode: 0
LetterboxInBreaks: 0
WidescreenStoryboard: 0

[Editor]
DistanceSpacing: 2.5
BeatDivisor: 3
GridSize: 4
TimelineZoom: 1

[Metadata]
Title:The Campfire Song Song
TitleUnicode:The Campfire Song Song
Artist:Spongebob Squarepants
ArtistUnicode:Spongebob Squarepants
Creator:Shogud
Version:C - A - M - P - F - I - R - E
Source:
Tags:
BeatmapID:1045560
BeatmapSetID:490551

[Difficulty]
HPDrainRate:4
CircleSize:4
OverallDifficulty:8
ApproachRate:9.6
SliderMultiplier:1.4
SliderTickRate:1

[Events]
//Background and Video events
//Break Periods
//Storyboard Layer 0 (Background)
//Storyboard Layer 1 (Fail)
//Storyboard Layer 2 (Pass)
//Storyboard Layer 3 (Foreground)
//Storyboard Sound Samples

[TimingPoints]
428.831462899937,618.556701030928,4,1,0,100,1,0
20844,857.142857142857,4,1,0,100,1,0
25134,326.000000000006,4,1,0,100,1,0
25134,-50,4,1,0,100,0,0
35566,306.900000000002,4,1,0,100,1,0
35566,-50,4,1,0,100,0,0
43264,655.766666666664,4,1,0,100,1,0

[HitObjects]
256,192,428,12,0,2903,0:0:0:0:
60,104,3521,5,0,0:0:0:0:
204,60,3830,1,0,0:0:0:0:
336,112,4140,2,0,P|384:136|388:148,1,70
356,284,4758,5,0,0:0:0:0:
216,296,5068,1,0,0:0:0:0:
92,228,5377,2,0,P|92:184|112:160,1,70
208,68,5995,5,0,0:0:0:0:
328,140,6305,1,0,0:0:0:0:
192,176,6614,1,0,0:0:0:0:
308,252,6923,1,0,0:0:0:0:
168,236,7232,6,0,P|168:184|180:156,1,70
344,148,7851,2,0,P|344:200|332:228,1,70
256,192,8470,5,0,0:0:0:0:
80,128,8779,5,0,0:0:0:0:
188,40,9088,1,0,0:0:0:0:
432,128,9397,5,0,0:0:0:0:
324,40,9706,1,0,0:0:0:0:
432,256,10016,5,0,0:0:0:0:
324,344,10325,1,0,0:0:0:0:
80,256,10635,5,0,0:0:0:0:
188,344,10944,1,0,0:0:0:0:
324,312,11253,5,0,0:0:0:0:
188,72,11562,1,0,0:0:0:0:
188,312,11872,5,0,0:0:0:0:
324,72,12181,1,0,0:0:0:0:
256,192,12490,5,0,0:0:0:0:
116,192,12799,5,0,0:0:0:0:
204,84,13109,2,0,P|244:68|288:76,1,70
312,204,13727,5,0,0:0:0:0:
188,272,14037,2,0,P|204:308|232:320,1,70
364,280,14655,5,0,0:0:0:0:
304,152,14964,1,0,0:0:0:0:
168,120,15274,1,0,0:0:0:0:
136,256,15583,6,0,P|184:280|212:280,1,70
340,276,16202,1,0,0:0:0:0:
380,144,16511,1,0,0:0:0:0:
256,80,16820,6,0,P|208:80|176:96,1,70
60,144,17439,1,0,0:0:0:0:
256,192,17748,1,0,0:0:0:0:
256,192,18057,5,0,0:0:0:0:
256,192,18212,1,0,0:0:0:0:
256,192,18366,1,0,0:0:0:0:
256,332,18676,2,0,L|256:192,1,140
256,52,19913,2,0,L|256:192,1,140
256,192,20841,1,0,0:0:0:0:
172,224,21701,6,0,P|236:260|288:264,1,105
340,160,22558,6,0,P|276:124|224:120,1,105
256,192,23415,12,0,24272,0:0:0:0:
80,56,25460,5,0,0:0:0:0:
348,132,25623,1,0,0:0:0:0:
72,188,25786,1,0,0:0:0:0:
328,304,25949,1,0,0:0:0:0:
208,52,26112,5,0,0:0:0:0:
128,320,26275,1,0,0:0:0:0:
344,144,26438,1,0,0:0:0:0:
80,240,26601,1,0,0:0:0:0:
356,284,26764,2,0,P|404:212|416:152,1,140
152,68,27090,2,0,P|92:128|64:204,1,140
256,192,27416,5,0,0:0:0:0:
416,68,28068,5,0,0:0:0:0:
136,68,28231,1,0,0:0:0:0:
216,336,28394,1,0,0:0:0:0:
432,160,28557,1,0,0:0:0:0:
156,104,28720,5,0,0:0:0:0:
332,324,28883,1,0,0:0:0:0:
396,52,29046,1,0,0:0:0:0:
140,168,29209,1,0,0:0:0:0:
388,300,29372,5,0,0:0:0:0:
224,72,29535,1,0,0:0:0:0:
48,292,29698,1,0,0:0:0:0:
324,240,29861,1,0,0:0:0:0:
80,100,30024,1,0,0:0:0:0:
436,192,30350,6,0,B|404:124|404:124|328:96,1,140
80,192,30676,1,0,0:0:0:0:
340,300,30839,1,0,0:0:0:0:
444,40,31002,1,0,0:0:0:0:
168,92,31165,5,0,0:0:0:0:
408,236,31328,1,0,0:0:0:0:
132,276,31491,1,0,0:0:0:0:
344,92,31654,1,0,0:0:0:0:
216,340,31817,5,0,0:0:0:0:
88,92,31980,1,0,0:0:0:0:
320,248,32143,1,0,0:0:0:0:
40,228,32306,2,0,P|36:144|80:104,1,140
256,192,32632,1,0,0:0:0:0:
256,192,32958,5,0,0:0:0:0:
256,192,33039,1,0,0:0:0:0:
256,192,33121,1,0,0:0:0:0:
40,188,33284,2,0,P|80:116|160:100,1,140
412,104,33610,5,0,0:0:0:0:
240,328,33773,1,0,0:0:0:0:
40,132,33936,2,0,P|80:64|136:48,1,140
388,172,34262,5,0,0:0:0:0:
164,340,34425,1,0,0:0:0:0:
152,60,34588,1,0,0:0:0:0:
328,280,34751,1,0,0:0:0:0:
468,36,34914,5,0,0:0:0:0:
372,300,35077,1,0,0:0:0:0:
208,72,35240,1,0,0:0:0:0:
100,328,35403,1,0,0:0:0:0:
68,56,35566,5,0,0:0:0:0:
412,112,35719,1,0,0:0:0:0:
84,232,35872,1,0,0:0:0:0:
424,316,36026,1,0,0:0:0:0:
212,40,36179,5,0,0:0:0:0:
400,336,36333,1,0,0:0:0:0:
116,136,36486,1,0,0:0:0:0:
460,200,36640,1,0,0:0:0:0:
128,304,36793,5,0,0:0:0:0:
352,36,36947,1,0,0:0:0:0:
68,240,37100,1,0,0:0:0:0:
392,112,37253,1,0,0:0:0:0:
48,36,37407,5,0,0:0:0:0:
212,344,37560,1,0,0:0:0:0:
404,48,37714,1,0,0:0:0:0:
88,192,37867,1,0,0:0:0:0:
440,192,38021,2,0,P|412:116|336:100,1,140
92,104,38635,6,0,B|128:96|128:96|128:116|128:116|144:104|144:104|160:124|160:124|172:108|172:108|176:124|176:124|188:116|188:116|196:136|196:136|212:124|212:124|216:140|216:140|220:128|220:128|228:140,1,233.333333333333
80,64,39248,5,0,0:0:0:0:
448,240,39402,5,0,0:0:0:0:
252,52,39555,5,0,0:0:0:0:
76,328,39709,5,0,0:0:0:0:
440,60,39862,5,0,0:0:0:0:
160,344,40016,5,0,0:0:0:0:
324,28,40169,5,0,0:0:0:0:
256,192,40476,12,0,40783,0:0:0:0:
256,192,42164,12,0,42931,0:0:0:0:
108,92,43264,6,0,L|256:92,1,140
404,292,44575,6,0,L|256:292,1,140
256,192,45449,5,0,0:0:0:0:
256,192,45668,1,0,0:0:0:0:
168,288,45887,6,0,P|120:220|120:156,1,140
344,96,47198,6,0,P|392:164|392:228,1,140
256,192,48072,5,0,0:0:0:0:
256,192,48291,1,0,0:0:0:0:
256,192,48510,12,0,55723,0:0:0:0:
