osu file format v14

[General]
AudioFilename: audio.mp3
AudioLeadIn: 0
PreviewTime: 106449
Countdown: 1
SampleSet: Soft
StackLeniency: 0.7
Mode: 0
LetterboxInBreaks: 0
WidescreenStoryboard: 0

[Editor]
Bookmarks: 29505,178396,181260,185351
DistanceSpacing: 1.5
BeatDivisor: 4
GridSize: 16
TimelineZoom: 1

[Metadata]
Title:Rai v Shalashe
TitleUnicode:Rai v Shalashe
Artist:Splin
ArtistUnicode:Splin
Creator:Crz_Pac_Man
Version:Normal
Source:
Tags:
BeatmapID:1475563
BeatmapSetID:696638

[Difficulty]
HPDrainRate:4
CircleSize:4
OverallDifficulty:5
ApproachRate:8
SliderMultiplier:1
SliderTickRate:1

[Events]
//Background and Video events
0,0,"vesna-lilac-tsvetenie-siren-blossom-purple-spring-flowers-1.jpg",0,0
//Break Periods
//Storyboard Layer 0 (Background)
//Storyboard Layer 1 (Fail)
//Storyboard Layer 2 (Pass)
//Storyboard Layer 3 (Foreground)
//Storyboard Sound Samples

[TimingPoints]
3312,818.153888130969,4,2,1,40,1,0
33593,-100,4,2,1,40,0,0
34401,-90.9090909090909,4,2,1,40,0,0
35220,-83.3333333333333,4,2,1,40,0,0
36038,-100,4,2,1,40,0,0
40128,-100,4,2,1,40,0,0
40947,-90.9090909090909,4,2,1,40,0,0
41765,-83.3333333333333,4,2,1,40,0,0
42582,-100,4,2,1,40,0,0
46674,-100,4,2,1,40,0,0
47492,-90.9090909090909,4,2,1,40,0,0
48310,-83.3333333333333,4,2,1,40,0,0
49128,-100,4,2,1,40,0,0
53219,-100,4,2,1,40,0,0
54037,-90.9090909090909,4,2,1,40,0,0
55673,-100,4,2,1,40,0,0
66309,-100,4,2,1,40,0,0
67128,-90.9090909090909,4,2,1,40,0,0
68764,-100,4,2,1,40,0,0
74491,-90.9090909090909,4,2,1,40,0,0
75309,-100,4,2,1,40,0,0
81036,-90.9090909090909,4,2,1,40,0,0
81854,-100,4,2,1,40,0,0
87581,-90.9090909090909,4,2,1,40,0,0
88400,-100,4,2,1,40,0,0
94127,-90.9090909090909,4,2,1,40,0,0
94945,-100,4,2,1,40,0,0
100672,-90.9090909090909,4,2,1,40,0,0
101490,-100,4,2,1,40,0,0
107217,-83.3333333333333,4,2,1,40,0,0
108035,-80,4,2,1,40,0,1
153852,-100,4,2,1,40,0,0

[Colours]
Combo1 : 128,0,128
Combo2 : 255,0,128
Combo3 : 128,0,64
Combo4 : 255,128,255

[HitObjects]
80,144,3312,6,0,P|128:112|192:112,1,100
304,176,4948,2,0,L|272:288,1,100
128,304,6584,2,0,L|160:208,1,100,0|2,0:0|0:0,0:0:0:0:
208,64,8220,1,2,0:0:0:0:
352,96,9039,1,2,0:0:0:0:
400,240,9857,6,0,P|352:224|304:176,1,100
256,48,11493,2,0,L|240:160,1,100
224,304,13129,2,0,P|176:336|112:336,1,100,0|2,0:0|0:0,0:0:0:0:
32,224,14766,1,2,0:0:0:0:
176,160,15584,1,2,0:0:0:0:
304,240,16402,6,0,L|336:352,1,100
464,272,18038,2,0,L|436:175,1,100
400,32,19675,2,0,P|352:48|304:96,1,100,0|2,0:0|0:0,0:0:0:0:
240,208,21311,1,2,0:0:0:0:
96,176,22129,1,2,0:0:0:0:
32,32,22947,6,0,L|128:80,1,100
144,224,24584,2,0,L|54:179,1,100
112,320,26220,2,0,P|160:352|208:352,1,100,0|2,0:0|0:0,0:0:0:0:
336,272,27856,1,2,0:0:0:0:
224,160,28674,1,2,0:0:0:0:
336,48,29492,6,0,P|400:80|400:112,2,100,0|2|0,0:0|0:0|0:0,0:0:0:0:
240,176,31947,1,0,0:0:0:0:
384,224,32765,1,0,0:0:0:0:
464,352,33583,6,0,L|432:304,1,50,2|0,0:0|0:0,0:0:0:0:
368,304,34401,2,0,L|320:240,1,55.0000016784668,2|0,0:0|0:0,0:0:0:0:
272,304,35220,2,0,L|192:304,1,59.9999981689454,2|0,0:0|0:0,0:0:0:0:
64,304,36038,2,0,P|48:192|64:96,1,200,2|0,0:0|0:0,0:0:0:0:
208,48,38492,1,0,0:0:0:0:
144,192,39310,1,0,0:0:0:0:
208,336,40128,6,0,L|272:304,1,50,2|0,0:0|0:0,0:0:0:0:
240,240,40947,2,0,L|272:192,1,55.0000016784668,2|0,0:0|0:0,0:0:0:0:
256,112,41765,2,0,L|256:32,1,59.9999981689454,2|0,0:0|0:0,0:0:0:0:
400,96,42583,2,0,P|432:192|416:304,1,200,2|0,0:0|0:0,0:0:0:0:
272,336,45037,1,0,0:0:0:0:
176,208,45856,1,0,0:0:0:0:
304,128,46674,6,0,L|262:155,1,50,2|0,0:0|0:0,0:0:0:0:
240,80,47492,2,0,L|176:96,1,55.0000016784668,2|0,0:0|0:0,0:0:0:0:
144,32,48310,2,0,L|64:32,1,59.9999981689454,2|0,0:0|0:0,0:0:0:0:
32,176,49128,2,0,B|112:176|144:208|240:192,1,200,2|0,0:0|0:0,0:0:0:0:
384,176,51583,1,0,0:0:0:0:
336,320,52401,1,0,0:0:0:0:
208,240,53219,6,0,L|235:198,1,50,2|0,0:0|0:0,0:0:0:0:
192,128,54037,2,0,L|128:144,1,55.0000016784668,2|0,0:0|0:0,0:0:0:0:
64,160,54855,1,2,0:0:0:0:
80,320,55264,1,4,0:0:0:0:
224,352,55673,2,0,B|240:272|272:240|304:160,1,200,2|0,0:0|0:0,0:0:0:0:
368,32,58128,1,0,0:0:0:0:
464,160,58946,6,0,P|400:192|368:176,1,100
288,64,60582,1,2,0:0:0:0:
176,176,61400,1,2,0:0:0:0:
256,304,62219,2,0,P|368:336|432:288,2,200,2|4|4,0:0|0:0|0:0,0:0:0:0:
176,176,66309,6,0,L|224:144,1,50,2|0,0:0|0:0,0:0:0:0:
272,208,67128,2,0,L|336:192,1,55.0000016784668,2|0,0:0|0:0,0:0:0:0:
400,176,67946,1,2,0:0:0:0:
480,48,68355,1,4,0:0:0:0:
320,48,68764,2,0,B|256:80|192:32|112:48,1,200,2|0,0:0|0:0,0:0:0:0:
48,192,71218,1,0,0:0:0:0:
160,304,72036,2,0,P|192:256|192:208,1,100
144,48,73673,6,0,L|208:48,1,50,2|0,0:0|0:0,0:0:0:0:
240,128,74491,2,0,L|304:144,1,55.0000016784668,2|0,0:0|0:0,0:0:0:0:
432,192,75309,2,0,P|384:288|288:288,1,200,2|0,0:0|0:0,0:0:0:0:
160,224,77764,1,0,0:0:0:0:
96,80,78582,2,0,P|64:118|48:176,1,100
64,320,80218,6,0,L|128:336,1,50,2|0,0:0|0:0,0:0:0:0:
144,256,81036,6,0,L|224:256,1,55.0000016784668,2|0,0:0|0:0,0:0:0:0:
352,256,81854,2,0,P|400:176|352:80,1,200,2|0,0:0|0:0,0:0:0:0:
208,64,84309,1,0,0:0:0:0:
96,176,85127,2,0,P|144:192|196:176,1,100
320,112,86763,6,0,L|384:112,1,50,2|0,0:0|0:0,0:0:0:0:
416,48,87581,2,0,L|480:64,1,55.0000016784668,2|0,0:0|0:0,0:0:0:0:
496,208,88400,2,0,B|448:224|352:192|288:208,1,200,2|0,0:0|0:0,0:0:0:0:
176,304,90854,1,0,0:0:0:0:
96,176,91672,2,0,P|160:176|208:208,1,100
288,304,93308,6,0,L|352:320,1,50,2|0,0:0|0:0,0:0:0:0:
384,240,94127,2,0,L|320:224,1,55.0000016784668,2|0,0:0|0:0,0:0:0:0:
192,192,94945,2,0,P|162:96|242:32,1,200,2|0,0:0|0:0,0:0:0:0:
352,128,97399,1,0,0:0:0:0:
464,240,98217,2,0,P|400:240|352:224,1,100
240,160,99854,6,0,L|208:112,1,50,2|0,0:0|0:0,0:0:0:0:
144,112,100672,2,0,L|96:80,1,55.0000016784668,2|0,0:0|0:0,0:0:0:0:
0,192,101490,2,0,P|76:260|176:240,1,200,2|0,0:0|0:0,0:0:0:0:
288,160,103944,1,0,0:0:0:0:
416,240,104763,2,0,P|324:271|242:219,1,200
160,80,107217,2,10,L|112:80,2,39.9999987792969
320,80,108035,6,0,P|336:144|336:208,1,125,10|0,0:0|0:0,0:0:0:0:
224,304,109672,2,0,L|304:320,1,62.5
352,336,110490,1,10,0:0:0:0:
448,224,111308,6,0,P|464:160|448:96,1,125
304,48,112944,2,0,P|336:64|368:96,1,62.5,2|0,0:0|0:0,0:0:0:0:
336,160,113762,2,0,P|307:146|283:126,1,62.5,2|0,0:0|0:0,0:0:0:0:
160,32,114580,2,0,P|112:96|112:144,1,125,2|0,0:0|0:0,0:0:0:0:
112,320,116217,6,0,L|48:352,1,62.5,2|0,0:0|0:0,0:0:0:0:
80,256,117035,2,0,L|144:224,1,62.5,2|0,0:0|0:0,0:0:0:0:
272,160,117853,2,0,P|304:224|288:288,1,125,2|0,0:0|0:0,0:0:0:0:
80,256,119489,1,0,0:0:0:0:
272,160,120308,1,0,0:0:0:0:
464,64,121126,6,0,P|480:128|464:208,1,125,10|0,0:0|0:0,0:0:0:0:
384,320,122762,2,0,L|448:352,1,62.5,2|0,0:0|0:0,0:0:0:0:
432,256,123580,2,0,L|368:224,1,62.5,2|0,0:0|0:0,0:0:0:0:
240,160,124398,2,0,L|272:80,2,62.5,2|0|0,0:0|0:0|0:0,0:0:0:0:
176,304,126035,6,0,L|112:256,1,62.5,2|0,0:0|0:0,0:0:0:0:
176,192,126853,2,0,L|144:128,1,62.5,2|0,0:0|0:0,0:0:0:0:
256,32,127671,2,0,P|320:48|352:96,1,125,10|0,0:0|0:0,0:0:0:0:
320,272,129307,1,2,0:0:0:0:
132,272,130125,1,2,0:0:0:0:
64,96,130944,6,0,P|32:160|48:224,1,125,2|0,0:0|0:0,0:0:0:0:
208,144,132580,2,0,L|128:176,1,62.5
176,288,133398,2,4,L|199:253,2,41.6666666666667
288,352,134216,2,0,P|344:313|352:256,1,125,6|0,0:0|0:0,0:0:0:0:
352,96,135852,6,0,L|416:64,1,62.5,2|0,0:0|0:0,0:0:0:0:
432,144,136671,2,0,L|376:171,1,62.5,2|0,0:0|0:0,0:0:0:0:
224,192,137489,2,0,P|157:192|96:144,1,125,2|0,0:0|0:0,0:0:0:0:
192,32,139125,1,2,0:0:0:0:
224,192,139943,1,2,0:0:0:0:
144,336,140761,6,0,L|288:368,1,125,10|0,0:0|0:0,0:0:0:0:
416,288,142398,2,0,L|384:352,1,62.5,2|0,0:0|0:0,0:0:0:0:
352,256,143216,2,0,L|288:304,1,62.5,2|0,0:0|0:0,0:0:0:0:
304,192,144034,2,0,L|224:192,2,62.5,2|0|0,0:0|0:0|0:0,0:0:0:0:
464,192,145670,6,0,L|400:160,1,62.5
384,80,146488,2,10,L|432:64,2,41.6666666666667
288,112,147307,2,0,P|224:128|160:96,1,125,10|0,0:0|0:0,0:0:0:0:
48,16,148943,1,2,0:0:0:0:
208,48,149761,1,2,0:0:0:0:
192,208,150579,6,0,P|144:256|80:256,1,125,2|0,0:0|0:0,0:0:0:0:
46,106,152216,2,0,B|96:96|144:112|174:106,1,125,0|10,0:0|0:0,0:0:0:0:
320,112,153852,6,0,B|320:176|272:256|288:320,1,200,10|0,0:0|0:0,0:0:0:0:
432,352,156306,1,2,0:0:0:0:
496,208,157124,2,0,B|464:176|352:144|304:96,1,200
192,32,159579,1,2,0:0:0:0:
80,144,160397,6,0,B|112:176|240:176|272:192,1,200
368,304,162852,1,2,0:0:0:0:
224,352,163670,2,0,B|144:384|80:304|112:240,1,200
240,160,166124,1,2,0:0:0:0:
144,48,166942,6,0,P|128:96|144:160,1,100
192,288,168579,2,0,P|240:304|304:288,1,100
400,192,170215,2,0,P|352:176|288:192,1,100,0|2,0:0|0:0,0:0:0:0:
192,288,171851,1,2,0:0:0:0:
80,176,172669,1,2,0:0:0:0:
128,32,173488,6,0,P|176:32|240:48,1,100
345,131,175124,2,0,P|304:160|256:176,1,100
112,224,176760,2,0,P|144:256|208:272,1,100
256,192,178396,12,4,181260,0:0:0:0:
