osu file format v14

[General]
AudioFilename: audio.mp3
AudioLeadIn: 0
PreviewTime: 125245
Countdown: 0
SampleSet: Normal
StackLeniency: 0.7
Mode: 0
LetterboxInBreaks: 0
WidescreenStoryboard: 0

[Editor]
DistanceSpacing: 0.8
BeatDivisor: 8
GridSize: 4
TimelineZoom: 3.099999

[Metadata]
Title:Despise
TitleUnicode:Despise
Artist:Spite
ArtistUnicode:Spite
Creator:TommyB
Version:Extra
Source:
Tags:
BeatmapID:1289221
BeatmapSetID:610588

[Difficulty]
HPDrainRate:6
CircleSize:4.5
OverallDifficulty:9
ApproachRate:9.3
SliderMultiplier:1.4
SliderTickRate:1

[Events]
//Background and Video events
0,0,"tumblr_static_tumblr2.jpg",0,0
//Break Periods
2,29053,34786
2,35766,41709
//Storyboard Layer 0 (Background)
//Storyboard Layer 1 (Fail)
//Storyboard Layer 2 (Pass)
//Storyboard Layer 3 (Foreground)
//Storyboard Sound Samples

[TimingPoints]
4363,333.333333333333,4,1,0,100,1,0
8362,-125,4,1,0,100,0,0
10029,-133.333333333333,4,1,0,100,0,0
15029,-500,4,1,0,100,0,0
15279,-500,4,1,0,5,0,0
15362,-100,4,1,0,100,0,0
15612,-100,4,1,0,5,0,0
15696,-100,4,1,0,100,0,0
19362,-90.9090909090909,4,1,0,100,0,0
22029,-117.647058823529,4,1,0,100,0,0
25696,759.493670886076,4,1,0,100,1,0
28853,419.58041958042,4,1,0,100,1,0
44797,-333.333333333333,4,1,0,100,0,0
48853,-100,4,1,0,100,0,0
49832,-333.333333333333,4,1,0,100,0,0
55706,-100,4,1,0,100,0,0
59901,-333.333333333333,4,1,0,100,0,0
65356,-100,4,1,0,100,0,0
66615,-333.333333333333,4,1,0,100,0,0
67454,-333.333333333333,4,1,0,100,0,1
70811,-100,4,1,0,100,0,1
74167,-100,4,1,0,100,0,0
86335,-133.333333333333,4,1,0,100,0,0
94307,759.493670886076,4,1,0,100,1,0
94496,-133.333333333333,4,1,0,5,0,0
100382,-100,4,1,0,100,0,0
101047,-100,4,1,0,5,0,0
101142,-100,4,1,0,100,0,0
101807,-100,4,1,0,5,0,0
101901,-100,4,1,0,100,0,0
102566,-100,4,1,0,5,0,0
102661,-100,4,1,0,100,0,0
104085,-100,4,1,0,5,0,0
104180,-100,4,1,0,100,0,0
104844,-100,4,1,0,5,0,0
104939,-100,4,1,0,100,0,0
105604,-100,4,1,0,5,0,0
105699,-100,4,1,0,100,0,0
106363,-100,4,1,0,5,0,0
106458,-100,4,1,0,100,0,0
107123,-100,4,1,0,5,0,0
107218,-100,4,1,0,100,0,0
107882,-100,4,1,0,5,0,0
107977,-100,4,1,0,100,0,0
108642,-100,4,1,0,5,0,0
108737,-100,4,1,0,100,0,0
110161,-100,4,1,0,5,0,0
110256,-100,4,1,0,100,0,0
110920,-100,4,1,0,5,0,0
111015,-100,4,1,0,100,0,0
125245,545.454545454546,4,1,0,100,1,0
125245,-66.6666666666667,4,1,0,100,0,0

[HitObjects]
108,196,4362,5,0,0:0:0:0:
216,80,4529,1,0,0:0:0:0:
336,176,4696,2,0,B|312:204|260:212,1,70
100,268,5029,2,0,L|176:288,1,70
288,288,5362,2,0,P|324:268|348:240,1,70
360,108,5696,5,0,0:0:0:0:
304,104,5862,1,0,0:0:0:0:
248,100,6029,1,0,0:0:0:0:
192,96,6196,1,0,0:0:0:0:
152,164,6362,5,0,0:0:0:0:
208,172,6529,1,0,0:0:0:0:
260,192,6696,1,0,0:0:0:0:
300,232,6862,1,0,0:0:0:0:
420,240,7029,6,0,B|396:212|364:196,1,70
176,160,7362,1,0,0:0:0:0:
212,280,7529,2,0,P|276:300|300:292,1,70
380,248,7862,5,0,0:0:0:0:
365,196,8029,1,0,0:0:0:0:
324,236,8196,1,0,0:0:0:0:
88,76,8362,6,0,L|132:128,1,56
196,244,8696,2,0,L|260:224,1,56
392,224,9029,1,0,0:0:0:0:
292,172,9196,2,0,L|280:112,1,56
160,80,9529,1,0,0:0:0:0:
108,176,9696,2,0,L|148:224,1,56
376,120,10029,6,0,L|320:160,1,52.5000020027161
240,236,10362,1,0,0:0:0:0:
448,216,10529,1,0,0:0:0:0:
276,52,10696,1,0,0:0:0:0:
164,272,10862,1,0,0:0:0:0:
69,176,11029,2,0,L|28:144,1,52.5000020027161
140,220,11362,1,0,0:0:0:0:
356,176,11529,1,0,0:0:0:0:
168,84,11696,5,0,0:0:0:0:
152,80,11862,1,0,0:0:0:0:
136,80,12029,1,0,0:0:0:0:
124,80,12196,1,0,0:0:0:0:
164,204,12362,2,0,L|128:256,1,52.5000020027161
164,204,12696,2,0,L|136:248,1,52.5000020027161
312,104,13029,5,0,0:0:0:0:
312,104,13196,1,0,0:0:0:0:
380,292,13362,1,0,0:0:0:0:
108,128,13529,1,0,0:0:0:0:
116,248,13696,2,0,L|176:268,1,52.5000020027161
328,232,14029,2,0,L|280:208,1,52.5000020027161
136,172,14362,5,0,0:0:0:0:
136,60,14529,1,0,0:0:0:0:
80,116,14696,1,0,0:0:0:0:
191,116,14862,1,0,0:0:0:0:
312,84,15029,6,0,L|312:104,1,21
310,148,15362,2,0,P|264:188|200:196,1,105
140,296,15696,5,0,0:0:0:0:
80,180,15862,2,0,L|132:132,1,70
131,132,16196,1,0,0:0:0:0:
136,136,16362,2,0,L|68:192,1,70
140,268,16696,5,0,0:0:0:0:
140,268,16862,1,0,0:0:0:0:
272,104,17029,1,0,0:0:0:0:
272,104,17196,1,0,0:0:0:0:
432,272,17362,1,0,0:0:0:0:
432,272,17529,1,0,0:0:0:0:
288,272,17696,6,0,L|232:228,1,70
80,224,18029,1,0,0:0:0:0:
200,120,18196,1,0,0:0:0:0:
240,296,18362,1,0,0:0:0:0:
160,156,18529,5,0,0:0:0:0:
300,56,18696,1,0,0:0:0:0:
348,236,18862,1,0,0:0:0:0:
248,88,19029,5,0,0:0:0:0:
392,40,19196,1,0,0:0:0:0:
356,164,19362,6,0,L|424:212,1,77.0000023498536
364,288,19696,2,0,L|272:296,1,77.0000023498536
220,232,20029,2,0,L|284:176,1,77.0000023498536
312,40,20362,2,0,L|252:96,1,77.0000023498536
120,216,20696,1,0,0:0:0:0:
120,216,20862,1,0,0:0:0:0:
240,40,21029,5,0,0:0:0:0:
408,192,21196,1,0,0:0:0:0:
408,192,21362,1,0,0:0:0:0:
240,40,21529,1,0,0:0:0:0:
156,208,21696,1,0,0:0:0:0:
240,40,21862,1,0,0:0:0:0:
228,280,22029,6,0,L|296:284,1,59.5000011348725
212,208,22362,2,0,L|160:164,1,59.5000011348725
308,192,22696,2,0,L|380:176,1,59.5000011348725
260,116,23029,5,0,0:0:0:0:
260,116,23196,1,0,0:0:0:0:
116,56,23362,1,0,0:0:0:0:
52,192,23529,1,0,0:0:0:0:
52,308,23696,2,0,L|128:288,1,59.5000011348725
244,260,24029,1,0,0:0:0:0:
356,120,24196,2,0,L|440:108,2,59.5000011348725
392,232,24696,5,0,0:0:0:0:
392,232,24862,1,0,0:0:0:0:
392,232,25029,1,0,0:0:0:0:
392,232,25196,1,0,0:0:0:0:
392,232,25362,1,0,0:0:0:0:
392,232,25529,1,0,0:0:0:0:
116,76,25696,5,0,0:0:0:0:
320,228,26455,1,0,0:0:0:0:
420,64,27214,1,0,0:0:0:0:
168,232,27974,1,0,0:0:0:0:
328,280,28607,6,0,L|312:264,1,23.3333333333333
160,80,28853,1,0,0:0:0:0:
156,136,35356,5,0,0:0:0:0:
156,136,35461,1,0,0:0:0:0:
156,136,35566,1,0,0:0:0:0:
344,96,42279,5,0,0:0:0:0:
344,96,42489,1,0,0:0:0:0:
344,96,42699,1,0,0:0:0:0:
272,292,43118,1,0,0:0:0:0:
272,292,43538,1,0,0:0:0:0:
144,196,43957,1,0,0:0:0:0:
144,196,44377,1,0,0:0:0:0:
88,56,44797,2,0,P|104:68|128:72,1,41.9999987182618
372,64,45636,5,0,0:0:0:0:
104,228,45846,1,0,0:0:0:0:
372,64,46055,1,0,0:0:0:0:
412,236,46475,2,0,L|368:232,1,41.9999987182618
236,176,47314,2,0,L|284:188,1,41.9999987182618
384,136,48153,2,0,L|336:136,1,41.9999987182618
216,96,48853,6,0,L|204:124,1,23.3333333333333
164,236,48992,1,0,0:0:0:0:
156,260,49202,1,0,0:0:0:0:
148,280,49412,1,0,0:0:0:0:
216,96,49832,6,0,L|260:80,1,41.9999987182618
376,64,50671,2,0,L|360:112,1,41.9999987182618
372,164,51510,2,0,L|332:184,1,41.9999987182618
184,304,52349,5,0,0:0:0:0:
80,36,52559,1,0,0:0:0:0:
184,304,52769,1,0,0:0:0:0:
300,156,53188,1,0,0:0:0:0:
300,156,53608,1,0,0:0:0:0:
372,48,54027,1,0,0:0:0:0:
284,292,54447,1,0,0:0:0:0:
184,232,54866,2,0,L|160:192,1,41.9999987182618
112,80,55496,5,0,0:0:0:0:
112,80,55566,1,0,0:0:0:0:
112,80,55636,1,0,0:0:0:0:
112,80,55706,2,0,L|180:100,3,70
400,272,56545,5,0,0:0:0:0:
400,272,56964,1,0,0:0:0:0:
348,144,57384,1,0,0:0:0:0:
348,144,57804,1,0,0:0:0:0:
192,60,58223,1,0,0:0:0:0:
96,276,58643,6,0,B|56:217|56:217|64:205|64:205|72:197|72:197|60:189|60:189|52:161,1,140
136,60,59272,1,0,0:0:0:0:
260,172,59482,1,0,0:0:0:0:
328,284,59901,2,0,L|356:244,1,41.9999987182618
404,152,60741,2,0,L|368:128,1,41.9999987182618
192,88,61580,5,0,0:0:0:0:
192,88,61999,1,0,0:0:0:0:
372,156,63258,6,0,L|336:180,1,41.9999987182618
132,212,64097,1,0,0:0:0:0:
324,60,64517,1,0,0:0:0:0:
420,224,64936,1,0,0:0:0:0:
304,264,65356,2,0,B|276:240|276:240|256:236|256:236|240:224|240:224|172:212,1,140
88,180,65985,1,0,0:0:0:0:
352,96,66195,1,0,0:0:0:0:
348,208,66615,6,0,L|312:236,1,41.9999987182618
116,204,67454,5,0,0:0:0:0:
132,180,67559,1,0,0:0:0:0:
152,164,67664,1,0,0:0:0:0:
176,152,67769,1,0,0:0:0:0:
248,200,67873,5,0,0:0:0:0:
240,224,67978,1,0,0:0:0:0:
232,248,68083,1,0,0:0:0:0:
232,276,68188,1,0,0:0:0:0:
120,268,68293,5,0,0:0:0:0:
104,248,68398,1,0,0:0:0:0:
92,228,68503,1,0,0:0:0:0:
80,204,68608,1,0,0:0:0:0:
76,108,68713,5,0,0:0:0:0:
76,108,68818,1,0,0:0:0:0:
212,68,68922,1,0,0:0:0:0:
212,68,69027,1,0,0:0:0:0:
344,120,69132,5,0,0:0:0:0:
336,144,69237,1,0,0:0:0:0:
328,168,69342,1,0,0:0:0:0:
312,188,69447,1,0,0:0:0:0:
340,304,69552,5,0,0:0:0:0:
360,288,69657,1,0,0:0:0:0:
384,280,69762,1,0,0:0:0:0:
404,260,69866,1,0,0:0:0:0:
432,132,69971,5,0,0:0:0:0:
412,116,70076,1,0,0:0:0:0:
388,108,70181,1,0,0:0:0:0:
364,100,70286,1,0,0:0:0:0:
372,208,70391,5,0,0:0:0:0:
372,208,70496,1,0,0:0:0:0:
292,284,70601,1,0,0:0:0:0:
292,284,70706,1,0,0:0:0:0:
148,272,70811,6,0,L|136:240,1,35
96,168,71020,2,0,L|124:136,1,35
240,192,71230,2,0,L|220:144,1,35
264,272,71440,2,0,L|224:252,1,35
380,272,71650,2,0,L|336:280,1,35
416,172,71859,6,0,L|396:216,1,35
392,48,72069,2,0,L|412:96,1,35
296,72,72279,2,0,L|248:72,1,35
180,164,72489,2,0,L|140:132,1,35
320,204,72699,6,0,L|364:192,1,35
316,104,72908,2,0,L|272:96,1,35
112,120,73118,1,0,0:0:0:0:
112,120,73223,2,0,L|132:152,3,35
80,220,73643,1,0,0:0:0:0:
80,220,73748,2,0,L|112:248,3,35
324,296,74167,6,0,P|368:272|396:232,1,70
416,164,74587,1,0,0:0:0:0:
456,36,74797,1,0,0:0:0:0:
348,76,75006,2,0,P|316:96|292:120,1,70
200,200,75426,1,0,0:0:0:0:
104,184,75636,2,0,P|88:144|96:120,1,70
156,52,76055,1,0,0:0:0:0:
300,120,76265,1,0,0:0:0:0:
196,248,76475,5,0,0:0:0:0:
196,248,76685,1,0,0:0:0:0:
196,248,76894,1,0,0:0:0:0:
368,284,77104,1,0,0:0:0:0:
432,104,77314,1,0,0:0:0:0:
104,100,77524,1,0,0:0:0:0:
96,196,77734,6,0,P|160:200|192:192,1,70
280,192,78153,1,0,0:0:0:0:
452,96,78363,2,0,P|400:104|368:92,1,70
288,60,78783,1,0,0:0:0:0:
168,112,78992,2,0,P|136:100|104:72,2,70
324,64,79622,1,0,0:0:0:0:
388,160,79832,6,0,P|348:184|312:188,1,70
184,220,80251,1,0,0:0:0:0:
184,220,80356,1,0,0:0:0:0:
120,168,80461,1,0,0:0:0:0:
120,168,80566,1,0,0:0:0:0:
120,88,80671,1,0,0:0:0:0:
120,88,80776,1,0,0:0:0:0:
196,40,80880,6,0,B|212:40|212:40|260:80,1,70
320,164,81300,1,0,0:0:0:0:
364,264,81510,1,0,0:0:0:0:
456,220,81720,2,0,P|472:180|456:160,1,70
392,96,82139,1,0,0:0:0:0:
232,52,82349,2,0,P|192:76|172:92,1,70
120,156,82769,5,0,0:0:0:0:
120,156,82978,1,0,0:0:0:0:
120,156,83188,1,0,0:0:0:0:
120,156,83398,1,0,0:0:0:0:
120,156,83608,1,0,0:0:0:0:
424,128,83818,5,0,0:0:0:0:
116,248,84027,1,0,0:0:0:0:
352,332,84237,1,0,0:0:0:0:
416,236,84447,6,0,L|352:200,1,70
354,201,84866,1,0,0:0:0:0:
354,201,85076,2,0,L|264:204,1,70
288,200,85496,1,0,0:0:0:0:
288,200,85706,2,0,L|236:148,1,70
238,150,86125,1,0,0:0:0:0:
216,244,86335,6,0,L|196:300,1,52.5000020027161
108,212,86755,2,0,L|76:164,1,52.5000020027161
112,52,87174,2,0,L|116:36,1,8.75000033378602
264,96,87384,1,0,0:0:0:0:
128,200,87594,1,0,0:0:0:0:
120,320,88013,5,0,0:0:0:0:
260,56,88433,1,0,0:0:0:0:
404,248,88853,1,0,0:0:0:0:
96,136,89062,1,0,0:0:0:0:
404,248,89272,1,0,0:0:0:0:
256,52,89692,5,0,0:0:0:0:
92,104,90111,1,0,0:0:0:0:
152,240,90426,2,0,L|172:244,2,13.125000500679
276,260,90741,1,0,0:0:0:0:
392,64,90950,5,0,0:0:0:0:
120,304,91370,1,0,0:0:0:0:
432,156,91790,1,0,0:0:0:0:
80,52,92209,1,0,0:0:0:0:
192,180,92419,1,0,0:0:0:0:
316,316,92629,1,0,0:0:0:0:
316,316,93048,1,0,0:0:0:0:
316,316,93468,1,0,0:0:0:0:
428,204,93783,5,0,0:0:0:0:
428,204,93835,1,0,0:0:0:0:
428,204,93887,1,0,0:0:0:0:
336,96,94097,1,0,0:0:0:0:
128,232,94307,1,0,0:0:0:0:
256,192,94496,12,0,100193,0:0:0:0:
352,80,100382,6,0,B|336:128|336:128|308:152|308:152|268:164,1,122.5
232,256,101142,2,0,B|196:260|196:260|136:232|136:232|132:200,1,122.5
228,92,101901,2,0,B|192:88|192:88|152:96|152:96|108:76|108:76,1,122.5
76,216,102661,1,0,0:0:0:0:
360,164,103041,1,0,0:0:0:0:
456,124,103420,6,0,B|440:156|440:156|448:196|448:196|404:224,1,122.5
304,264,104180,2,0,B|264:256|264:256|252:240|208:240|208:240|184:252,1,122.5
144,168,104939,2,0,B|188:156|240:160|240:160|272:176,1,122.5
368,176,105699,2,0,B|400:172|416:160|432:148|424:120|400:104|372:100,1,122.5
280,116,106458,6,0,B|244:120|216:132|188:152|184:188,1,122.5
316,212,107218,2,0,B|348:224|348:224|356:264|356:264|404:268,1,122.5
316,348,107977,2,0,B|252:340|216:320|196:288,1,122.5
156,248,108737,2,0,P|132:204|104:192,1,70
76,168,109496,6,0,B|128:148|172:144|204:152,1,122.5
368,160,110256,2,0,B|344:128|344:128|308:116|308:116|300:68|300:68,1,122.5
176,84,111015,1,0,0:0:0:0:
96,160,111585,1,0,0:0:0:0:
96,184,111680,1,0,0:0:0:0:
96,212,111775,1,0,0:0:0:0:
184,304,112155,1,0,0:0:0:0:
324,280,112344,1,0,0:0:0:0:
296,144,112534,5,0,0:0:0:0:
268,124,112629,1,0,0:0:0:0:
236,116,112724,1,0,0:0:0:0:
200,112,112819,1,0,0:0:0:0:
164,120,112914,1,0,0:0:0:0:
132,136,113009,1,0,0:0:0:0:
104,156,113104,1,0,0:0:0:0:
88,188,113199,1,0,0:0:0:0:
80,220,113294,5,0,0:0:0:0:
92,252,113389,1,0,0:0:0:0:
124,264,113484,1,0,0:0:0:0:
156,248,113579,1,0,0:0:0:0:
184,228,113674,1,0,0:0:0:0:
212,208,113769,1,0,0:0:0:0:
240,188,113863,1,0,0:0:0:0:
276,192,113958,1,0,0:0:0:0:
308,204,114053,5,0,0:0:0:0:
336,228,114148,1,0,0:0:0:0:
368,244,114243,1,0,0:0:0:0:
396,224,114338,1,0,0:0:0:0:
408,192,114433,1,0,0:0:0:0:
396,160,114528,1,0,0:0:0:0:
376,132,114623,1,0,0:0:0:0:
352,108,114718,1,0,0:0:0:0:
320,92,114813,5,0,0:0:0:0:
288,76,114908,1,0,0:0:0:0:
252,80,115003,1,0,0:0:0:0:
220,96,115098,1,0,0:0:0:0:
192,116,115193,1,0,0:0:0:0:
168,140,115288,1,0,0:0:0:0:
136,156,115382,1,0,0:0:0:0:
104,140,115477,1,0,0:0:0:0:
80,116,115572,5,0,0:0:0:0:
72,80,115667,1,0,0:0:0:0:
100,56,115762,1,0,0:0:0:0:
132,44,115857,1,0,0:0:0:0:
168,44,115952,1,0,0:0:0:0:
204,44,116047,1,0,0:0:0:0:
236,60,116142,1,0,0:0:0:0:
268,76,116237,1,0,0:0:0:0:
296,96,116332,5,0,0:0:0:0:
324,116,116427,1,0,0:0:0:0:
348,140,116522,1,0,0:0:0:0:
360,172,116617,1,0,0:0:0:0:
364,208,116712,1,0,0:0:0:0:
364,244,116807,1,0,0:0:0:0:
360,280,116901,1,0,0:0:0:0:
332,300,116996,1,0,0:0:0:0:
296,304,117091,5,0,0:0:0:0:
260,308,117186,1,0,0:0:0:0:
228,296,117281,1,0,0:0:0:0:
200,276,117376,1,0,0:0:0:0:
164,268,117471,1,0,0:0:0:0:
148,236,117566,1,0,0:0:0:0:
156,200,117661,1,0,0:0:0:0:
184,180,117756,1,0,0:0:0:0:
216,164,117851,5,0,0:0:0:0:
252,160,117946,1,0,0:0:0:0:
288,160,118041,1,0,0:0:0:0:
324,160,118136,1,0,0:0:0:0:
392,156,118231,2,0,L|380:128,1,17.5
448,56,118420,2,0,L|428:48,1,17.5
312,52,118610,5,0,0:0:0:0:
280,60,118705,1,0,0:0:0:0:
248,72,118800,1,0,0:0:0:0:
216,88,118895,1,0,0:0:0:0:
196,116,118990,1,0,0:0:0:0:
180,148,119085,1,0,0:0:0:0:
168,180,119180,1,0,0:0:0:0:
180,212,119275,1,0,0:0:0:0:
204,236,119370,5,0,0:0:0:0:
236,244,119465,1,0,0:0:0:0:
272,252,119560,1,0,0:0:0:0:
304,268,119655,1,0,0:0:0:0:
316,300,119750,1,0,0:0:0:0:
296,328,119844,1,0,0:0:0:0:
264,344,119939,1,0,0:0:0:0:
228,348,120034,1,0,0:0:0:0:
192,344,120129,5,0,0:0:0:0:
156,336,120224,1,0,0:0:0:0:
124,324,120319,1,0,0:0:0:0:
96,304,120414,1,0,0:0:0:0:
68,280,120509,1,0,0:0:0:0:
52,248,120604,1,0,0:0:0:0:
72,220,120699,1,0,0:0:0:0:
100,200,120794,1,0,0:0:0:0:
132,184,120889,5,0,0:0:0:0:
168,188,120984,1,0,0:0:0:0:
200,200,121079,1,0,0:0:0:0:
228,220,121174,1,0,0:0:0:0:
260,240,121269,1,0,0:0:0:0:
292,232,121363,1,0,0:0:0:0:
320,212,121458,1,0,0:0:0:0:
340,184,121553,1,0,0:0:0:0:
372,168,121648,5,0,0:0:0:0:
408,164,121743,1,0,0:0:0:0:
436,140,121838,1,0,0:0:0:0:
416,112,121933,1,0,0:0:0:0:
384,96,122028,1,0,0:0:0:0:
352,84,122123,1,0,0:0:0:0:
316,88,122218,1,0,0:0:0:0:
284,100,122313,1,0,0:0:0:0:
252,116,122408,5,0,0:0:0:0:
224,136,122503,1,0,0:0:0:0:
196,160,122598,1,0,0:0:0:0:
172,184,122693,1,0,0:0:0:0:
144,204,122788,1,0,0:0:0:0:
108,200,122882,1,0,0:0:0:0:
76,184,122977,1,0,0:0:0:0:
48,164,123072,1,0,0:0:0:0:
44,128,123167,1,0,0:0:0:0:
200,60,123547,5,0,0:0:0:0:
356,240,123927,1,0,0:0:0:0:
104,280,124307,1,0,0:0:0:0:
400,80,125245,6,0,B|384:128|384:128|316:124|316:124|312:148|312:148|224:196,1,210.000008010865
168,148,126063,1,0,0:0:0:0:
132,184,126131,1,0,0:0:0:0:
108,232,126199,1,0,0:0:0:0:
140,276,126267,1,0,0:0:0:0:
192,280,126335,1,0,0:0:0:0:
