osu file format v14

[General]
AudioFilename: audio.mp3
AudioLeadIn: 0
PreviewTime: 96030
Countdown: 0
SampleSet: Soft
StackLeniency: 0.5
Mode: 0
LetterboxInBreaks: 0
WidescreenStoryboard: 1

[Editor]
Bookmarks: 48030,60030,72030,84030,96030,108030,120030,144030,156030,168030,168530,190530
DistanceSpacing: 0.7
BeatDivisor: 4
GridSize: 8
TimelineZoom: 0.7000054

[Metadata]
Title:Somnambulism
TitleUnicode:Somnambulism
Artist:Spire
ArtistUnicode:Spire
Creator:verychill
Version:Chai's Extra
Source:
Tags:electronic instrumental breakcore dark ambient hardcore frenchcore idm supire おとにっき vol​.​3 otonikki chai the tea LMT
BeatmapID:3102501
BeatmapSetID:1171893

[Difficulty]
HPDrainRate:5
CircleSize:4
OverallDifficulty:8.5
ApproachRate:9.6
SliderMultiplier:1.2
SliderTickRate:1

[Events]
//Background and Video events
0,0,"somnambulism.png",0,0
//Break Periods
2,121730,140420
//Storyboard Layer 0 (Background)
//Storyboard Layer 1 (Fail)
//Storyboard Layer 2 (Pass)
//Storyboard Layer 3 (Foreground)
//Storyboard Layer 4 (Overlay)
//Storyboard Sound Samples

[TimingPoints]
30,250,6,2,1,50,1,0
47405,-55.5555555555556,6,2,1,50,0,0
48030,-58.8235294117647,6,2,1,65,0,0
50905,-142.857142857143,6,2,1,65,0,0
51030,-58.8235294117647,6,2,1,65,0,0
52030,-66.6666666666667,6,2,1,65,0,0
52530,-58.8235294117647,6,2,1,65,0,0
53530,-153.846153846154,6,2,1,65,0,0
53780,-76.9230769230769,6,2,1,65,0,0
54405,-58.8235294117647,6,2,1,65,0,0
56467,-58.8235294117647,6,2,99,5,0,0
56530,-50,6,2,1,65,0,0
57030,-55.5555555555556,6,2,1,65,0,0
58280,-100,6,2,1,65,0,0
59405,-50,6,2,1,65,0,0
59530,-62.5,6,2,1,65,0,0
59967,-62.5,6,2,99,5,0,0
60030,-58.8235294117647,6,2,1,65,0,0
61530,-62.5,6,2,1,65,0,0
61717,-62.5,6,2,99,5,0,0
61780,-39.2807909267295,6,2,1,65,0,0
61967,-39.2807909267295,6,2,99,5,0,0
62030,-45.4545454545455,6,2,1,65,0,0
62530,-66.6666666666667,6,2,1,65,0,0
62967,-66.6666666666667,6,2,99,5,0,0
63030,-58.8235294117647,6,2,1,65,0,0
64030,-50,6,2,1,65,0,0
64280,-35.7142857142857,6,2,1,65,0,0
64467,-35.7142857142857,6,2,99,5,0,0
64530,-76.9230769230769,6,2,1,65,0,0
65154,-58.8235294117647,6,2,1,65,0,0
65280,-43.4782608695652,6,2,1,65,0,0
65717,-250.000000000001,6,2,1,65,0,0
65967,-250.000000000001,6,2,99,5,0,0
66030,-55.5555555555556,6,2,1,65,0,0
66530,-142.857142857143,6,2,1,65,0,0
67030,-200,6,2,1,65,0,0
67530,-50,6,2,1,65,0,0
68280,-58.8235294117647,6,2,1,65,0,0
69155,-76.9230769230769,6,2,1,65,0,0
69405,-100,6,2,1,65,0,0
69905,-66.6666666666667,6,2,1,65,0,0
70280,-62.5,6,2,1,65,0,0
70467,-62.5,6,2,99,5,0,0
70530,-62.5,6,2,1,65,0,0
71280,-71.4285714285714,6,2,1,65,0,0
71467,-71.4285714285714,6,2,99,5,0,0
71530,-166.666666666667,6,2,1,65,0,0
71967,-166.666666666667,6,2,99,5,0,0
72030,-166.666666666667,6,2,1,65,0,0
72155,-76.9230769230769,6,2,1,65,0,0
73530,-62.5,6,2,1,65,0,0
74280,-55.5555555555556,6,2,1,65,0,0
74530,-76.9230769230769,6,2,1,65,0,0
75280,-47.6190476190476,6,2,1,65,0,0
75467,-47.6190476190476,6,2,1,5,0,0
75530,-76.9230769230769,6,2,1,65,0,0
76280,-66.6666666666667,6,2,1,65,0,0
76592,-66.6666666666667,6,2,99,5,0,0
76655,-18.3648816353007,6,2,1,65,0,0
76967,-18.3648816353007,6,2,99,5,0,0
77030,-45.4545454545455,6,2,1,65,0,0
77530,-100,6,2,1,65,0,0
77780,-76.9230769230769,6,2,1,65,0,0
77967,-76.9230769230769,6,2,99,5,0,0
78030,-62.5,6,2,1,65,0,0
78405,-45.4545454545455,6,2,1,65,0,0
79030,-62.5,6,2,1,65,0,0
79280,-33.5615542449963,6,2,1,65,0,0
79467,-33.5615542449963,6,2,1,5,0,0
79530,-100,6,2,1,65,0,0
80405,-64.5161290322581,6,2,1,65,0,0
80905,-64.5161290322581,6,2,1,40,0,0
81030,-76.9230769230769,6,2,1,65,0,0
81280,-55.5555555555556,6,2,1,65,0,0
82655,-142.857142857143,6,2,1,65,0,0
83030,-71.4285714285715,6,2,1,65,0,0
83280,-111.111111111111,6,2,1,65,0,0
83405,-83.3333333333333,6,2,1,65,0,0
83530,-66.6666666666667,6,2,1,65,0,0
83655,-55.5555555555556,6,2,1,65,0,0
83905,-47.6190476190476,6,2,1,65,0,0
84030,-35.7142857142857,6,2,1,65,0,0
84905,-90.9090909090909,6,2,1,65,0,0
85030,-166.666666666667,6,2,1,65,0,0
85155,-90.9090909090909,6,2,1,65,0,0
85280,-111.111111111111,6,2,1,65,0,0
85530,-55.5555555555556,6,2,1,65,0,0
86280,-71.4285714285714,6,2,1,65,0,0
86780,-100,6,2,1,65,0,0
87030,-58.8235294117647,6,2,1,65,0,0
87405,-71.4285714285714,6,2,1,60,0,0
87780,-142.857142857143,6,2,1,55,0,0
89780,-100,6,2,1,55,0,0
90280,-71.4285714285714,6,2,1,60,0,0
90467,-71.4285714285714,6,2,99,5,0,0
90530,-76.9230769230769,6,2,1,60,0,0
90780,-50,6,2,1,60,0,0
91155,-71.4285714285715,6,2,1,65,0,0
91280,-41.6666666666667,6,2,1,65,0,0
91530,-58.8235294117647,6,2,1,65,0,0
92030,-43.4782608695652,6,2,1,65,0,0
92342,-43.4782608695652,6,2,99,5,0,0
92405,-100,6,2,1,65,0,0
92780,-75.0187546886722,6,2,1,65,0,0
93030,272.727272727273,6,2,1,65,1,0
93030,-50,6,2,1,65,0,0
93439,300,6,2,1,65,1,0
93439,-55.5555555555556,6,2,1,65,0,0
93889,375,6,2,1,65,1,0
94264,451.127819548872,6,2,1,60,1,0
94489,500,6,2,1,60,1,0
94739,731.707317073171,6,2,1,55,1,0
94739,-71.4285714285714,6,2,1,55,0,0
95104,1176.47058823529,6,2,1,55,1,0
95104,-53.1914893617021,6,2,1,55,0,0
95692,338.028169014084,6,2,1,55,1,0
96030,250,6,2,1,65,1,0
96030,-58.8235294117647,6,2,1,65,0,0
98530,-66.6666666666667,6,2,1,65,0,0
99030,-58.8235294117647,6,2,1,65,0,0
101467,-58.8235294117647,6,2,99,5,0,0
101530,-62.5,6,2,1,65,0,0
102030,-58.8235294117647,6,2,1,65,0,0
104530,-55.5555555555556,6,2,1,65,0,0
104780,-71.4285714285714,6,2,1,65,0,0
104967,-71.4285714285714,6,2,99,5,0,0
105030,-58.8235294117647,6,2,1,65,0,0
107030,-142.857142857143,6,2,1,65,0,0
107780,-71.4285714285714,6,2,1,65,0,0
107905,-50,6,2,1,65,0,0
108030,-58.8235294117647,6,2,1,65,0,0
110530,-66.6666666666667,6,2,1,65,0,0
111030,-58.8235294117647,6,2,1,65,0,0
113405,-100,6,2,1,65,0,0
113905,-83.3333333333333,6,2,1,65,0,0
114030,-58.8235294117647,6,2,1,65,0,0
116530,-50,6,2,1,65,0,0
116717,-50,6,2,99,5,0,0
116780,-73.7096245479461,6,2,1,65,0,0
116967,-73.7096245479461,6,2,99,5,0,0
117030,-58.8235294117647,6,2,1,65,0,0
118530,-41.6666666666667,6,2,1,65,0,0
118780,-58.8235294117647,6,2,1,65,0,0
119030,-44.4444444444445,6,2,1,65,0,0
119217,-44.4444444444445,6,2,99,5,0,0
119280,-44.4444444444445,6,2,1,65,0,0
121530,-44.4444444444445,6,2,1,50,0,0
143280,-57.1428571428571,6,2,1,50,0,0
143967,-57.1428571428571,6,2,99,5,0,0
144030,-50,6,2,1,70,0,0
144655,-83.3333333333333,6,2,1,70,0,0
145280,-62.5,6,2,1,70,0,0
145530,-45.4545454545455,6,2,1,70,0,0
146280,-40,6,2,1,70,0,0
147530,-50,6,2,1,70,0,0
148030,-58.8235294117647,6,2,1,70,0,0
149280,-71.4285714285714,6,2,1,70,0,0
149530,-55.5555555555556,6,2,1,70,0,0
150030,-41.6666666666667,6,2,1,70,0,0
150217,-41.6666666666667,6,2,99,5,0,0
150280,-58.8235294117647,6,2,1,70,0,0
152030,-55.5555555555556,6,2,1,70,0,0
153030,-31.25,6,2,1,70,0,0
154030,-41.6666666666667,6,2,1,70,0,0
154530,-47.6190476190476,6,2,1,70,0,0
154717,-47.6190476190476,6,2,99,5,0,0
154780,-100,6,2,1,65,0,0
155280,-100,6,2,1,60,0,0
155530,-142.857142857143,6,2,1,55,0,0
156030,-50,6,2,1,70,0,0
156280,-100,6,2,1,70,0,0
156655,-83.3333333333333,6,2,1,70,0,0
156780,-58.8235294117647,6,2,1,70,0,0
157280,-62.5,6,2,1,70,0,0
157530,-55.5555555555556,6,2,1,70,0,0
158780,-66.6666666666667,6,2,1,70,0,0
158967,-66.6666666666667,6,2,99,5,0,0
159030,-76.9230769230769,6,2,1,70,0,0
159280,-41.6666666666667,6,2,1,70,0,0
159467,-41.6666666666667,6,2,99,5,0,0
159530,-76.9230769230769,6,2,1,70,0,0
159780,-45.4545454545455,6,2,1,70,0,0
160030,-58.8235294117647,6,2,1,70,0,0
160280,-117.647058823529,6,2,1,70,0,0
160780,-17.7825867680945,6,2,1,70,0,0
161030,-56.373703845325,6,2,1,70,0,0
161530,-41.6666666666667,6,2,1,70,0,0
162030,-50,6,2,1,70,0,0
162530,-100,6,2,1,70,0,0
163030,-50,6,2,1,70,0,0
163280,-58.8235294117647,6,2,1,70,0,0
163655,-100,6,2,1,70,0,0
164280,-66.6666666666667,6,2,1,70,0,0
164530,-166.666666666667,6,2,1,70,0,0
164780,-90.9090909090909,6,2,1,70,0,0
165530,-14.2280508816651,6,2,1,70,0,0
166030,-71.4285714285714,6,2,1,70,0,0
166280,-66.6666666666667,6,2,1,70,0,0
167217,-50,6,2,1,70,0,0
167530,-95.2380952380951,6,2,1,70,0,0
168030,-47.6190476190476,6,2,1,75,0,1
168217,-47.6190476190476,6,2,99,5,0,1
168280,-27.7777777777778,6,2,1,75,0,1
169280,-31.25,6,2,1,75,0,1
169530,-45.4545454545455,6,2,1,75,0,1
169717,-45.4545454545455,6,2,99,5,0,1
169780,-43.4782608695652,6,2,1,75,0,1
171030,-47.6190476190476,6,2,1,75,0,1
171217,-47.6190476190476,6,2,99,5,0,1
171280,-55.5555555555556,6,2,1,75,0,1
172530,-47.6190476190476,6,2,1,75,0,1
172717,-47.6190476190476,6,2,99,5,0,1
172780,-52.6315789473684,6,2,1,75,0,1
173280,-100,6,2,1,60,0,0
174030,-45.4545454545455,6,2,1,75,0,1
174217,-45.4545454545455,6,2,99,5,0,1
174280,-28.5714285714286,6,2,1,75,0,1
175530,-45.4545454545455,6,2,1,75,0,1
175717,-45.4545454545455,6,2,99,5,0,1
175780,-25,6,2,1,75,0,1
176030,-50,6,2,1,75,0,1
176780,-66.6666666666667,6,2,1,75,0,1
177030,-47.6190476190476,6,2,1,75,0,1
177217,-47.6190476190476,6,2,99,5,0,1
177280,-55.5555555555556,6,2,1,75,0,1
177530,-76.9230769230769,6,2,1,65,0,0
178030,-66.6666666666667,6,2,1,65,0,0
178342,-66.6666666666667,6,2,99,5,0,0
178405,-18.3648816353007,6,2,1,65,0,0
178717,-18.3648816353007,6,2,99,5,0,0
178780,-45.4545454545455,6,2,1,65,0,0
179280,-100,6,2,1,65,0,0
179530,-71.4285714285714,6,2,1,65,0,0
179717,-71.4285714285714,6,2,99,5,0,0
179780,-55.5555555555556,6,2,1,65,0,0
180030,-50,6,2,1,75,0,1
180217,-50,6,2,99,5,0,1
180280,-25,6,2,1,75,0,1
181280,-31.25,6,2,1,75,0,1
181530,-25,6,2,1,75,0,1
183030,-50,6,2,1,75,0,1
183217,-50,6,2,99,5,0,1
183280,-58.8235294117647,6,2,1,75,0,1
183780,-50,6,2,1,75,0,1
184530,-58.8235294117647,6,2,1,75,0,1
185280,-58.8235294117647,6,2,1,60,0,0
185405,-100,6,2,1,60,0,0
186030,-45.4545454545455,6,2,1,75,0,1
186217,-45.4545454545455,6,2,99,5,0,1
186280,-25,6,2,1,75,0,1
187280,-40,6,2,1,75,0,1
187530,-47.6190476190476,6,2,1,75,0,1
187717,-47.6190476190476,6,2,99,5,0,1
187780,-25,6,2,1,75,0,1
188030,-50,6,2,1,75,0,1
189030,-50,6,2,1,70,0,0
189155,-50,6,2,1,68,0,0
189280,-100,6,2,1,66,0,0
189405,-100,6,2,1,64,0,0
189530,-100,6,2,1,62,0,0
189655,-100,6,2,1,60,0,0
189780,-142.857142857143,6,2,1,58,0,0
189904,-142.857142857143,6,2,1,56,0,0
190030,-142.857142857143,6,2,1,54,0,0
190155,-142.857142857143,6,2,1,52,0,0
190280,-200,6,2,1,50,0,0
190405,-200,6,2,1,48,0,0
190530,-100,6,2,1,46,0,0
191030,-133.333333333333,6,2,1,46,0,0
191530,-133.333333333333,6,2,1,55,0,0

[Colours]
Combo1 : 85,85,85
Combo2 : 74,114,146
Combo3 : 108,159,179
Combo4 : 200,16,16
Combo5 : 215,47,47
Combo6 : 143,51,151
Combo7 : 185,96,176

[HitObjects]
256,384,47280,5,2,2:0:0:0:
229,222,47405,2,0,B|226:226|226:226|226:233|226:233|237:263|237:263|267:294|267:294|276:314|276:314|279:289|279:289|293:253,1,161.999995056153,2|0,2:0|2:0,2:0:0:0:
292,256,47655,2,0,B|294:250|294:250|294:241|294:241|286:206|286:206|241:160|241:160|231:140|231:140|235:194|235:194|220:228,1,215.999993408203,2|0,2:0|2:0,2:0:0:0:
314,65,48030,6,0,B|285:105|274:155|274:155|230:120|175:124,1,204.000003890991,2|0,3:2|1:2,2:0:0:0:
0,92,48405,2,0,P|23:14|87:82,1,204.000003890991,0|0,3:2|1:2,2:0:0:0:
117,236,48780,1,0,3:2:0:0:
28,258,48905,1,0,3:2:0:0:
105,79,49030,86,0,P|96:106|80:126,3,51.0000009727478,0|0|0|0,2:0|2:0|2:0|2:0,2:0:0:0:
0,182,49280,1,0,1:2:0:0:
0,182,49405,1,0,1:2:0:0:
207,253,49530,6,0,B|252:209|237:154|216:140|216:140|187:125|156:153|181:180,1,204.000003890991,2|0,3:2|1:2,2:0:0:0:
328,209,49905,2,0,P|307:234|299:254,3,51.0000009727478,0|0|0|0,2:0|2:0|2:0|2:0,2:0:0:0:
319,337,50155,1,0,1:2:0:0:
197,264,50280,2,0,P|201:284|218:309,3,51.0000009727478,0|0|0|0,2:0|2:0|2:0|2:0,2:0:0:0:
319,337,50530,86,0,B|313:357|313:357|307:343,4,25.5000004863739,0|0|0|0|0,3:2|3:2|3:2|3:2|3:2,2:0:0:0:
314,369,50716,1,0,3:2:0:0:
320,377,50780,1,0,1:2:0:0:
439,240,50905,2,0,P|424:249|418:262,1,20.9999993591309,2|2,2:1|2:1,2:0:0:0:
512,294,51030,6,0,B|491:315|454:314|431:279|431:279|428:267|428:267|417:225|377:207|359:206,1,204.000003890991,2|0,3:2|1:2,2:0:0:0:
414,371,51405,2,0,P|432:266|493:184,1,204.000003890991,0|0,3:2|1:2,2:0:0:0:
402,0,51780,85,8,2:3:0:0:
367,17,51842,1,8,2:3:0:0:
345,32,51905,1,4,2:3:0:0:
348,42,51967,1,4,2:3:0:0:
353,53,52030,2,0,P|377:64|400:65,3,45.0000017166138,0|0|0|0,2:0|2:0|2:0|2:0,2:0:0:0:
470,38,52280,5,2,1:2:0:0:
265,17,52405,85,8,2:0:0:0:
269,29,52467,1,8,2:0:0:0:
270,44,52530,2,0,B|269:64|269:64|253:80|253:80|248:96,3,51.0000009727478,2|0|0|0,2:0|2:0|2:0|2:0,2:0:0:0:
268,259,52780,1,0,1:2:0:0:
298,152,52905,2,0,B|297:171|297:171|315:191|315:191|314:205,3,51.0000009727478,2|0|0|0,2:0|2:0|2:0|2:0,2:0:0:0:
282,381,53155,1,0,1:2:0:0:
268,259,53280,2,0,L|250:316,2,51.0000009727478,2|0|0,2:0|2:0|2:0,2:0:0:0:
37,256,53530,6,0,L|16:252,1,19.4999991073609,4|4,2:3|2:3,2:0:0:0:
76,244,53655,2,0,L|89:228,1,19.4999991073609,4|4,2:3|2:3,2:0:0:0:
66,284,53780,2,0,L|72:303,6,19.4999991073609,2|0|0|0|0|0|0,2:0|2:0|2:0|2:0|2:0|2:0|2:0,2:0:0:0:
105,376,54030,85,4,3:0:0:0:
4,328,54155,1,4,3:0:0:0:
33,171,54280,1,0,1:0:0:0:
145,278,54405,2,0,B|198:248|307:330|351:299,1,204.000003890991,0|0,3:0|1:2,2:3:0:0:
217,153,54780,6,0,B|215:165|215:165|223:182,4,25.5000004863739,2|0|0|0|2,2:0|2:0|2:0|2:0|2:0,2:0:0:0:
258,329,55030,2,0,L|276:391,3,51.0000009727478,0|0|0|0,2:0|2:0|2:0|2:0,2:0:0:0:
343,303,55280,1,0,1:2:0:0:
356,263,55342,1,0,1:2:0:0:
344,221,55405,1,0,1:2:0:0:
302,221,55467,1,0,1:2:0:0:
268,248,55530,1,2,3:2:0:0:
268,248,55780,85,0,1:2:0:0:
198,32,55905,2,0,P|201:56|181:86,3,51.0000009727478,0|0|0|0,3:2|2:0|2:0|2:0,2:0:0:0:
118,203,56155,1,2,2:1:0:0:
95,174,56217,1,2,2:1:0:0:
77,147,56280,2,0,B|84:140|84:140|144:159|144:159|154:158|154:158|202:173|202:173|211:176|211:176|230:180,1,153.000002918243,8|0,2:0|2:0,2:0:0:0:
396,14,56530,6,2,B|386:39|386:39|379:59|379:59|367:57|367:57|330:64|330:64|322:86,1,120,2|2,2:3|2:3,2:1:0:0:
180,76,56717,1,2,2:3:0:0:
207,58,56780,2,2,B|216:85|216:85|254:78|254:78|256:94|256:94|288:123|288:123|285:140,1,120,4|4,2:3|2:3,2:1:0:0:
403,195,57030,86,0,B|405:211|405:211|414:217|414:217|408:225|408:225|420:305|420:305,1,107.999996704102,2|0,3:2|2:0,2:0:0:0:
418,307,57217,1,0,2:0:0:0:
419,316,57280,1,0,1:2:0:0:
493,198,57405,2,0,B|495:214|495:214|504:220|504:220|498:228|498:228|510:308|510:308,1,107.999996704102,2|0,3:2|2:0,2:0:0:0:
511,313,57592,1,0,2:0:0:0:
512,322,57655,1,0,1:2:0:0:
381,380,57780,5,2,3:2:0:0:
312,189,57905,2,0,B|314:205|314:205|323:211|323:211|317:219|317:219|329:299|329:299,1,107.999996704102,2|0,3:2|2:0,2:0:0:0:
330,304,58092,1,0,2:0:0:0:
331,313,58155,1,0,1:2:0:0:
389,129,58280,86,0,L|365:125,6,15,2|0|0|0|0|0|0,2:0|2:0|2:0|2:0|2:0|2:0|2:0,2:0:0:0:
337,118,58530,6,0,L|307:112,3,30,2|2|2|2,2:0|2:0|2:0|2:0,2:0:0:0:
191,112,58780,85,4,2:3:0:0:
252,17,58905,1,4,2:3:0:0:
413,46,59030,1,0,2:0:0:0:
413,46,59280,5,8,3:1:0:0:
413,46,59342,1,8,3:1:0:0:
413,46,59405,2,0,L|343:47,1,60,8|8,3:1|3:1,2:0:0:0:
262,18,59530,86,0,P|245:41|242:62,1,48,8|0,2:0|2:0,2:0:0:0:
185,112,59655,2,0,P|191:136|212:161,1,48,8|0,2:0|2:0,2:0:0:0:
258,214,59780,6,0,B|229:201|229:201|194:196|194:196|167:186|167:186|138:181|138:181|116:169,1,144,2|2,2:0|2:0,2:0:0:0:
82,87,60030,86,0,B|127:123|120:169|92:180|64:210|69:251|115:283,1,204.000003890991,2|0,3:2|1:2,2:0:0:0:
214,368,60405,2,0,B|224:374|264:356|276:258|160:221,1,204.000003890991,0|0,3:2|1:2,2:0:0:0:
61,337,60780,5,0,3:2:0:0:
91,341,60842,1,0,3:2:0:0:
95,371,60905,1,0,3:2:0:0:
68,384,60967,1,0,3:2:0:0:
40,369,61030,2,0,P|77:343|144:340,1,102.000001945496,0|0,1:2|1:2,2:0:0:0:
291,215,61280,85,2,2:1:0:0:
293,190,61342,1,2,2:1:0:0:
288,166,61405,2,0,P|266:182|253:204,1,51.0000009727478,2|2,2:1|2:1,2:0:0:0:
124,185,61530,2,0,P|164:223|211:304,1,144,10|0,2:0|2:0,2:0:0:0:
333,369,61780,86,0,B|332:367|332:367|335:373|335:373|337:373|330:372|339:373|339:373|342:370|342:370|345:373|345:373|347:373|349:375|349:375|351:370|351:370|354:372|354:372|356:372|356:372|356:372|360:368|360:368|364:369|364:369|365:369|366:368|366:368|368:364|368:364|371:369|371:369|373:364|375:363|375:363|376:359|376:359|379:359|379:359|380:358|382:357|382:357|382:358|382:358|385:351|385:351|386:351|390:346|390:346|385:345|385:345|389:343|389:343|389:341|389:339|389:339|386:337|386:337|389:333|389:333|389:332|391:330|391:330|387:332|387:332|384:333|384:333|381:330|381:330|380:330|378:330|378:330|375:332|375:332|372:329|372:329|371:329|367:325|367:325|366:331|366:331|363:328|363:328|361:328|360:328|360:328|356:332|356:332|353:329|353:329|352:329|350:329|350:329|347:332|347:332|344:331|344:331|342:331|341:328|341:328|339:335|339:335|335:333|335:333|334:334|332:335|332:335|325:335|325:335|327:338|327:338|325:339|324:340|324:340|324:344|324:344|320:345|320:345|318:348|317:351,1,229.119615150646,2|0,3:2|2:0,2:0:0:0:
239,381,62030,6,2,B|224:363|224:363|258:274|258:274|280:272|280:272,1,132.00000402832,4|0,2:3|2:0,2:3:0:0:
445,179,62280,5,2,2:3:0:0:
445,179,62342,1,2,2:3:0:0:
445,179,62405,2,0,B|458:181|458:181|473:218|473:218|466:229,1,66.0000020141602,2|2,2:3|2:3,2:0:0:0:
363,237,62530,2,0,L|396:268,1,45.0000017166138,2|0,2:3|2:0,2:0:0:0:
419,346,62655,2,0,L|386:314,1,45.0000017166138,2|0,2:3|2:0,2:0:0:0:
249,247,62780,2,0,B|286:258|286:258|313:327|313:327|303:355,1,135.000005149841,2|0,2:3|2:0,2:0:0:0:
239,381,63030,86,0,B|227:356|227:356|231:337|231:337|227:325,3,51.0000009727478,2|0|0|0,2:0|2:0|2:0|2:0,2:0:0:0:
327,158,63280,1,0,1:2:0:0:
249,247,63405,2,0,B|253:228|253:228|274:214|274:214|285:204,3,51.0000009727478,2|0|0|0,2:0|2:0|2:0|2:0,2:0:0:0:
341,72,63655,1,0,1:2:0:0:
239,7,63780,5,2,2:1:0:0:
231,11,63842,1,2,2:1:0:0:
205,2,63905,1,2,2:1:0:0:
196,4,63967,1,2,2:1:0:0:
174,30,64030,2,0,B|169:45|147:57|147:57|159:81|167:101|167:101|187:91|205:98|205:98,1,120,4|4,3:0|3:0,2:0:0:0:
376,141,64280,2,0,B|393:128|393:128|405:102|405:102|432:84|432:84|410:52|410:52|399:27|399:27|397:-8|397:-8|364:3|364:3|336:-5|336:-5|310:-2|310:-2,1,251.999992309571,2|0,2:0|2:0,2:0:0:0:
311,5,64530,86,0,L|329:50,4,38.9999982147218,10|0|0|0|0,2:0|2:0|2:0|2:0|2:0,2:0:0:0:
376,141,64904,2,0,L|394:182,1,38.9999982147218,8|0,2:0|2:0,2:0:0:0:
459,234,65029,5,2,2:1:0:0:
488,217,65092,1,2,2:1:0:0:
490,185,65154,2,0,P|481:156|459:140,1,51.0000009727478,2|2,2:1|2:1,2:0:0:0:
341,243,65280,2,0,B|338:245|336:248|336:248|337:252|337:252|333:253|333:253|333:255|333:257|333:257|329:256|329:256|332:263|332:263|332:265|331:266|331:266|335:269|335:269|329:274|329:274|332:273|333:275|333:275|335:278|335:278|334:282|334:282|335:283|335:284|335:284|339:286|339:286|337:291|337:291|337:292|338:294|338:294|342:295|342:295|337:299|337:299|342:301|343:302|343:302|347:303|347:303|346:307|346:307|347:309|347:310|347:310|351:311|351:311|352:314|352:314|351:319|351:319|352:316|353:316|353:316|356:311|356:311|359:313|359:313|361:312|362:312|362:312|363:307|363:307|366:311|366:311|369:306|368:305|368:305|373:299|373:299|372:299|372:299|373:297|373:296|373:296|372:293|372:293|375:291|375:291|375:288|379:285|379:285|373:284|373:284|376:280|376:280|376:279|376:278|376:278|374:275|374:275|376:270|376:270|376:270|375:268|375:268|372:266|372:266|375:262|375:262|373:261|372:259|372:259|368:258|368:258|370:254|370:254|365:246|369:252|368:250|368:250|361:250|361:250|365:246,1,207.000003948212,2|0,3:2|2:0,2:0:0:0:
304,170,65529,85,8,2:1:0:0:
277,162,65592,1,8,2:1:0:0:
241,133,65655,1,8,2:1:0:0:
217,126,65717,2,0,P|189:150|184:161,1,48,8|0,2:1|2:0,2:0:0:0:
239,244,66030,6,0,B|233:252|246:264|246:264|238:318|206:335,1,107.999996704102,2|0,3:2|2:0,2:0:0:0:
52,374,66280,86,0,P|61:327|80:317,1,53.9999983520508,2|0,3:2|2:0,2:0:0:0:
72,218,66405,2,0,P|98:223|115:243,1,53.9999983520508,2|0,3:2|2:0,2:0:0:0:
184,159,66530,6,0,B|183:146|183:146|178:138,1,20.9999993591309,2|2,2:3|2:0,2:0:0:0:
289,97,66655,2,0,B|277:94|277:94|267:96,1,20.9999993591309,2|0,2:3|2:0,2:0:0:0:
267,5,66780,85,2,2:0:0:0:
255,0,66842,1,2,2:0:0:0:
243,7,66905,1,2,2:0:0:0:
227,7,66967,1,2,2:0:0:0:
212,21,67030,6,0,L|209:43,3,15,2|2|2|2,2:0|2:0|2:0|2:0,2:0:0:0:
199,113,67280,86,0,L|197:132,3,15,2|2|2|2,2:0|2:0|2:0|2:0,2:0:0:0:
89,8,67530,6,0,B|113:44|113:44|122:45|122:45|115:47|115:47|121:108,1,120,2|0,3:2|2:0,2:0:0:0:
117,128,67718,1,0,2:0:0:0:
117,143,67780,1,0,1:2:0:0:
5,42,67905,86,0,B|31:77|31:77|41:77|41:77|33:80|33:80|42:150,1,120,2|0,3:2|2:0,2:0:0:0:
42,156,68093,1,0,2:0:0:0:
40,170,68155,1,0,1:2:0:0:
195,217,68280,6,0,L|254:201,3,51.0000009727478,2|0|0|0,2:0|2:0|2:0|2:0,2:0:0:0:
206,74,68530,2,0,L|265:58,3,51.0000009727478,0|0|0|0,1:2|2:0|2:0|2:0,2:0:0:0:
255,48,68780,1,8,2:0:0:0:
437,89,68905,85,8,2:0:0:0:
437,89,68967,1,8,2:0:0:0:
437,89,69030,1,2,3:2:0:0:
336,30,69155,2,0,L|361:113,1,77.9999964294435,0|0,3:2|1:0,2:0:0:0:
399,292,69405,2,0,B|374:225|374:225|372:183|387:177,1,120,0|0,3:2|1:2,2:0:0:0:
302,354,69780,6,0,L|318:324,1,30,2|0,2:0|2:0,2:0:0:0:
383,178,69905,2,0,B|364:209|364:209|339:228|339:228|308:240|308:240|268:241|268:241|249:235|249:235|230:225,1,180.000006866455,2|2,2:0|2:0,2:0:0:0:
33,104,70280,2,0,L|46:80,6,24,2|0|0|0|0|0|0,2:0|2:0|2:0|2:0|2:0|2:0|2:0,2:0:0:0:
116,96,70530,1,4,3:0:0:0:
145,108,70592,1,4,3:0:0:0:
171,120,70655,2,0,B|179:124|179:124|172:149|172:149|176:158,6,24,4|0|0|0|0|0|0,3:0|2:0|2:0|2:0|2:0|2:0|2:0,2:0:0:0:
198,122,70905,86,0,L|186:168,1,48,4|4,3:0|3:0,2:0:0:0:
253,212,71030,2,0,L|277:119,1,96,4|4,3:0|3:0,2:0:0:0:
471,40,71280,2,0,B|462:62|462:62|385:74|385:74|371:56,1,125.999996154785,8|0,2:0|2:0,2:0:0:0:
369,44,71530,86,0,P|415:0|465:27,1,125.999996154785,0|0,2:0|2:0,2:0:0:0:
482,147,72030,69,2,3:2:0:0:
482,147,72092,1,0,2:0:0:0:
482,147,72155,2,0,L|443:165,1,38.9999982147218,0|0,2:0|2:0,2:0:0:0:
423,239,72280,1,0,1:2:0:0:
319,151,72405,5,2,3:2:0:0:
319,151,72467,1,0,2:0:0:0:
319,151,72530,2,0,L|272:126,1,38.9999982147218,0|0,2:0|2:0,2:0:0:0:
262,51,72655,1,0,1:2:0:0:
163,21,72780,85,2,3:2:0:0:
189,150,72905,1,2,3:2:0:0:
114,214,73030,5,0,2:0:0:0:
114,214,73092,1,0,2:0:0:0:
114,214,73155,2,0,L|66:224,1,38.9999982147218,0|0,2:0|2:0,2:0:0:0:
2,68,73280,2,0,L|85:92,1,77.9999964294435,0|0,1:2|1:2,2:0:0:0:
235,159,73530,86,0,B|218:160|218:160|205:149|205:149|186:149,1,48,2|0,3:2|2:0,2:0:0:0:
181,192,73655,2,0,B|180:175|180:175|191:162|191:162|191:143,1,48,2|0,3:2|2:0,2:0:0:0:
147,139,73780,2,0,B|164:138|164:138|177:149|177:149|196:149,1,48,2|0,3:2|2:0,2:0:0:0:
204,56,73905,2,0,B|210:92|210:92|189:152,1,96,2|0,3:2|1:2,2:0:0:0:
266,12,74155,5,2,3:2:0:0:
306,211,74280,2,0,B|306:199|306:199|320:181|320:181|328:180|328:180|344:161|344:161|353:163|353:163|366:144|366:144|365:128,1,107.999996704102,2|2,2:0|1:2,2:0:0:0:
436,68,74467,1,0,2:0:0:0:
436,68,74530,2,0,B|446:74|446:74|455:99,3,38.9999982147218,2|0|0|0,3:0|2:0|2:3|2:3,2:3:0:0:
439,190,74780,2,0,B|430:199|430:199|428:225,3,38.9999982147218,2|0|0|0,3:0|2:0|2:0|2:0,2:0:0:0:
445,309,75030,85,2,2:1:0:0:
433,334,75092,1,2,2:1:0:0:
423,354,75155,1,2,2:1:0:0:
412,353,75217,1,2,2:1:0:0:
391,354,75280,2,0,B|389:353|386:351|386:351|385:347|385:347|382:347|382:347|381:346|380:345|380:345|378:346|378:346|378:341|378:341|377:339|376:338|376:338|378:335|378:335|372:333|372:333|375:332|375:330|375:330|375:328|375:328|373:326|373:326|373:324|373:323|373:323|375:321|375:321|372:317|372:317|372:316|372:315|372:315|375:313|375:313|369:312|369:312|373:308|373:307|373:307|375:304|375:304|374:303|374:303|374:301|374:300|374:300|376:297|376:297|375:295|375:295|374:291|374:291|375:293|376:293|376:293|379:296|379:296|381:293|381:293|383:293|384:293|384:293|386:297|386:297|387:292|387:292|391:296|391:297|391:297|397:299|397:299|396:299|396:299|397:301|398:302|398:302|398:304|398:304|401:304|401:304|402:306|406:308|406:308|402:311|402:311|405:313|405:313|406:313|406:314|406:314|405:317|405:317|408:321|408:321|408:321|408:322|408:322|407:325|407:325|411:327|411:327|409:328|409:329|409:329|407:332|407:332|409:335|409:335|408:342|409:337|409:338|409:338|402:342|402:342|408:342,1,188.999994232178,2|2,3:2|2:0,2:0:0:0:
510,348,75530,6,0,B|494:335|494:335|483:319,1,38.9999982147218,8|8,2:1|2:1,2:0:0:0:
391,354,75655,2,0,B|372:362|372:362|365:382,1,38.9999982147218,8|8,2:1|2:1,2:0:0:0:
277,373,75780,85,2,3:2:0:0:
277,373,75905,2,0,L|233:364,3,38.9999982147218,0|0|0|0,3:2|2:0|2:0|2:0,2:0:0:0:
292,267,76155,2,0,P|295:238|286:224,1,38.9999982147218,2|2,2:1|2:1,2:0:0:0:
281,100,76280,6,0,B|257:113|253:132|284:134|284:134,1,45.0000017166138,2|0,2:3|2:0,2:0:0:0:
175,224,76405,2,0,B|208:199|255:217|292:269|292:269,1,135.000005149841,2|0,2:3|2:0,2:3:0:0:
238,365,76655,86,0,B|237:364|235:363|235:363|231:366|231:366|233:361|233:361|232:360|231:360|231:360|234:355|234:355|229:357|229:357|228:357|228:356|228:356|223:358|223:358|226:354|226:354|225:353|224:352|224:352|227:348|227:348|223:350|223:350|222:349|221:348|221:348|216:350|216:350|220:346|220:346|219:345|219:344|219:344|222:340|222:340|217:342|217:342|217:341|216:340|216:340|211:341|211:341|215:337|215:337|214:336|214:335|214:335|218:332|218:332|213:332|213:332|212:332|212:331|212:331|207:331|207:331|211:328|211:328|211:327|211:326|211:326|215:323|215:323|210:323|210:323|210:322|209:321|209:321|204:321|204:321|209:318|209:318|209:317|209:316|209:316|213:314|213:314|208:313|208:313|208:312|208:311|208:311|203:310|203:310|208:308|208:308|208:307|208:306|208:306|213:305|213:305|208:303|208:303|208:302|208:301|208:301|203:299|203:299|208:298|208:298|208:297|208:296|208:296|214:295|214:295|209:293|209:293|209:292|209:291|209:291|205:289|205:289|210:288|210:288|210:287|210:286|210:286|215:286|215:286|211:284|211:284|211:282|212:282|212:282|207:278|207:278|213:279|213:279|213:277|213:277|219:277|219:277|215:274|215:274|215:273|215:272|215:272|212:269|212:269|217:270|217:270|217:268|218:268|218:268|223:269|223:269|219:265|219:265|220:264|220:264|217:259|217:259|222:261|222:261|223:260|223:259|223:259|228:261|228:261|225:257|225:257|226:256|226:256|223:251|223:251|228:253|228:253|229:252|230:252|230:252|234:254|234:254|232:250|232:250|233:249|233:248|233:248|231:244|231:244|235:246|235:246|236:246|237:245|237:245|241:248|241:248|239:243|239:243|240:243|241:242|241:242|239:237|239:237|243:241|243:241|245:240|245:239|245:239|249:243|249:243|248:238|248:238|249:237|249:237|249:232|249:232|252:236|252:236|253:235|254:235|254:235|257:239|257:239|257:234|257:234|258:233|259:233|259:233|258:226|258:226|263:232|263:232|263:231|263:231|267:235|267:235|266:230|266:230|267:230|268:229|268:229|267:224|267:224|271:228|271:228|271:227|272:227|272:227|276:230|276:230|275:225|275:225|276:224|277:224|277:224|275:219|275:219|279:222|279:222|280:222|281:221|281:221|285:224|285:224|283:219|283:219|284:218|284:218|282:213|282:213|287:216|287:216|287:215|288:214|288:214|293:217|293:217|290:212|290:212|291:211|291:211|288:206|288:206|293:208|293:208|294:207|295:207|295:207|299:209|299:209|296:204|296:204|297:203|297:203|294:199|294:199|299:200|299:200|300:199|300:199|305:200|305:200|302:196|302:196|302:195|302:194|302:194|299:191|299:191|304:192|304:192|304:190|305:190|305:190|310:190|310:190|306:187|306:187|306:186|306:185|306:185|302:182|302:182|307:182|307:182|308:181|308:180|308:180|313:180|313:180|309:177|309:177|309:176|309:175|309:175|305:173|305:173|310:172|310:172|310:171|310:170|310:170|315:170|315:170|311:167|311:167|311:166|311:166|306:164|306:164|311:162|311:162|311:161|311:161|316:159|316:159|311:157|311:157|311:156|311:156|306:154|306:154|311:153|311:153|311:152|311:151|311:151|316:149|316:149|311:148|311:148|311:147|310:146|310:146|305:145|305:145|310:143|310:143|310:142|310:141|310:141|314:138|314:138|309:138|309:138|309:137|308:136|308:136|303:136|303:136|307:133|307:133|307:132|307:131|307:131|311:128|311:128|306:128|306:128|305:127|305:127|300:127|300:127|303:124|303:124|303:123|302:122|302:122|306:118|306:118|301:120|301:120|300:119|300:118|300:118|295:120|295:120|298:116|298:116|297:115|297:114|297:114|299:109|299:109|295:112|295:112|294:111|293:110|293:110|289:113|289:113|291:108|291:108|290:108|289:107|289:107|291:102|291:102|287:105|287:105|286:105|285:104|285:104|281:108|281:108|283:103|283:103|281:102|280:101,1,816.776321004483,0|0,2:0|2:0,2:0:0:0:
279,101,77030,2,0,L|126:138,1,132.00000402832,2|2,2:3|2:3,2:0:0:0:
1,237,77280,5,2,2:3:0:0:
38,253,77342,1,2,2:3:0:0:
46,256,77405,85,2,2:3:0:0:
56,230,77467,1,2,2:3:0:0:
65,229,77530,6,0,L|93:216,3,30,2|2|2|2,2:0|2:0|2:0|2:0,2:0:0:0:
73,135,77780,2,0,B|58:15,1,116.999994644165,2|0,2:0|2:0,2:0:0:0:
222,55,78030,86,0,B|249:47|247:9|247:9|222:-23|175:-7|143:55,1,192,2|0,3:2|1:2,2:0:0:0:
67,226,78405,2,0,B|20:224|16:174|16:174|37:123|105:126|170:196,1,264.000008056641,0|0,3:2|1:2,2:0:0:0:
287,351,78780,5,4,3:0:0:0:
135,272,78905,1,4,3:0:0:0:
90,340,79030,86,0,L|55:331,6,24,8|0|0|0|0|0|0,2:0|2:0|2:0|2:0|2:0|2:0|2:0,2:0:0:0:
99,346,79280,6,2,B|102:355|102:355|97:363|97:363|92:368|92:368|100:379|100:379|105:377|105:377|116:372|116:372|120:370|120:370|129:367|129:367|131:364|131:364|139:360|139:360|141:359|141:359|148:354|148:354|151:352|151:352|155:347|155:347|155:344|155:344|153:335|153:335|151:332|151:332|150:324|150:324|149:321|149:321|147:313|147:313|147:309|147:309|145:301|145:301|144:298|144:298|143:289|143:289|142:286|142:286|140:278|140:278|140:275|140:275|138:266|138:266|136:263|136:263|155:257|155:257|160:253|160:253|175:248|175:248|180:247|180:247|186:242|186:242|190:242|190:242|191:252|191:252|185:259|185:259|191:275|191:275,1,268.163983468895,2|0,2:0|2:0,2:1:0:0:
195,265,79530,86,0,L|221:274,6,15,2|0|0|0|0|0|0,3:2|2:0|2:0|2:0|2:0|2:0|2:0,2:0:0:0:
282,244,79780,5,2,2:0:0:0:
283,213,79842,1,2,2:0:0:0:
292,192,79905,1,2,2:0:0:0:
320,185,79967,1,2,2:0:0:0:
331,167,80030,2,0,B|340:141|308:134|312:110,1,60,2|2,2:0|2:0,2:0:0:0:
406,154,80280,85,2,2:0:0:0:
199,37,80405,2,0,B|180:103|180:103|204:96|204:96|284:29|284:29|377:46|377:46|393:42|393:42|344:-4,1,372.000002838135,2|0,2:0|2:0,2:0:0:0:
306,113,81030,6,0,P|309:134|319:155,2,38.9999982147218,2|0|0,3:2|2:0|2:0,2:0:0:0:
434,265,81280,86,0,B|414:244|407:216|424:220,1,53.9999983520508,0|0,3:2|2:0,2:0:0:0:
379,172,81405,2,0,B|410:176|432:193|416:202,1,53.9999983520508,0|0,3:2|2:0,2:0:0:0:
479,211,81530,2,0,B|454:225|426:223|434:207,1,53.9999983520508,0|0,3:2|2:0,2:0:0:0:
375,238,81655,2,0,B|389:211|413:195|416:214,1,53.9999983520508,0|0,3:2|2:0,2:0:0:0:
444,156,81780,2,0,B|451:185|440:212|383:281|381:364,1,215.999993408203,2|0,3:2|1:3,2:0:0:0:
306,113,82155,2,0,B|313:142|302:169|245:238|243:321,1,215.999993408203,2|0,3:2|1:2,2:0:0:0:
490,370,82530,5,8,2:3:0:0:
486,377,82592,1,4,2:3:0:0:
477,382,82655,2,0,L|441:368,3,20.9999993591309,4|4|4|4,2:3|2:3|2:3|2:3,2:0:0:0:
479,293,82905,85,2,2:3:0:0:
478,284,82967,1,2,2:3:0:0:
477,277,83030,2,0,B|469:260|469:260|473:247|473:247|466:235,3,41.9999987182618,4|4|4|4,2:3|2:3|2:3|2:3,2:0:0:0:
480,164,83280,6,0,L|475:136,1,26.9999991760254,8|0,2:0|2:0,2:0:0:0:
435,87,83405,2,0,L|441:125,1,35.9999989013672,8|0,2:0|2:0,2:0:0:0:
371,153,83530,86,0,L|364:201,1,45.0000017166138,8|0,2:0|2:0,2:0:0:0:
310,196,83655,2,0,L|321:255,1,53.9999983520508,8|0,2:0|2:0,2:0:0:0:
217,231,83780,5,8,2:1:0:0:
229,199,83842,1,8,2:1:0:0:
230,160,83905,2,0,P|216:146|173:147,1,62.9999980773926,8|0,2:1|2:1,2:0:0:0:
4,132,84030,86,2,B|-25:130|-5:155|-5:155|-33:177|-4:188|-4:188|-18:221|16:215|16:215|16:253|38:229|38:229|48:264|67:237|67:237|89:253|92:230,1,251.999992309571,4|0,3:0|2:0,2:1:0:0:
161,179,84280,2,2,B|190:181|170:156|170:156|198:134|169:123|169:123|183:90|149:96|149:96|149:58|127:82|127:82|117:47|98:74|98:74|76:58|73:81,1,251.999992309571,4|0,3:0|2:0,2:1:0:0:
77,163,84530,5,0,1:2:0:0:
90,185,84592,1,0,1:2:0:0:
79,209,84655,1,0,1:2:0:0:
67,232,84717,1,0,1:2:0:0:
80,249,84780,1,0,1:2:0:0:
25,351,84905,86,0,L|27:319,1,33.0000010070801,2|2,2:1|2:1,2:0:0:0:
101,318,85030,2,0,L|104:335,1,17.9999994506836,8|8,2:3|2:3,2:0:0:0:
180,373,85155,2,0,L|179:341,1,33.0000010070801,4|4,2:3|2:3,2:0:0:0:
255,317,85280,6,0,B|257:332|257:332|254:346|254:346,3,26.9999991760254,2|2|2|2,2:3|2:3|2:3|2:3,2:0:0:0:
259,365,85530,86,0,B|258:359|267:355|267:355|307:354|307:351,1,53.9999983520508,2|0,2:1|2:0,2:0:0:0:
397,362,85655,2,0,B|397:367|388:371|388:371|348:372|348:375,1,53.9999983520508,2|0,2:1|2:0,2:0:0:0:
311,266,85780,6,0,L|293:214,5,53.9999983520508,2|0|0|0|0|0,2:1|2:0|2:0|2:0|2:0|2:0,2:0:0:0:
287,201,86155,1,0,1:2:0:0:
419,103,86280,86,0,B|380:34|380:34|287:37,1,167.999994873047,0|0,3:2|3:2,2:0:0:0:
215,176,86655,1,0,1:2:0:0:
85,110,86780,6,0,B|99:135|99:135|135:134,1,60,0|0,3:2|3:2,2:0:0:0:
207,0,87030,86,0,B|214:15|214:15|207:29|207:29|218:53,3,51.0000009727478,2|0|0|0,2:0|2:0|2:0|2:0,2:0:0:0:
289,200,87280,1,0,1:2:0:0:
278,85,87405,2,0,B|278:103|278:103|285:115|285:115|286:125,3,41.9999987182618,0|0|0|0,2:0|2:0|2:0|2:0,2:0:0:0:
260,293,87655,1,0,1:2:0:0:
289,200,87780,2,0,L|282:220,3,20.9999993591309,0|0|0|0,2:0|2:0|2:0|2:0,2:0:0:0:
263,365,88280,6,0,L|259:374,8,10.4999996795654,0|0|0|0|0|0|0|0|2,2:0|2:0|2:0|2:0|2:0|2:0|2:0|2:0|2:0,2:0:0:0:
109,381,88655,2,0,L|98:343,1,20.9999993591309,2|2,2:0|2:0,2:0:0:0:
171,328,88780,2,0,L|181:368,1,41.9999987182618,2|2,2:0|2:0,2:0:0:0:
376,300,89030,2,0,L|369:274,2,20.9999993591309,2|2|2,2:0|2:0|2:0,2:0:0:0:
166,126,89405,86,0,L|172:106,2,20.9999993591309,2|2|2,2:0|2:0|2:0,2:0:0:0:
21,88,89655,2,0,L|26:67,1,20.9999993591309,2|0,2:0|2:0,2:0:0:0:
109,3,89780,6,0,B|182:26|182:26|157:129,1,180,2|0,2:0|2:0,2:0:0:0:
128,233,90280,86,0,L|122:255,6,20.9999993591309,4|0|0|0|0|0|0,3:0|2:0|2:0|2:0|2:0|2:0|2:0,2:0:0:0:
57,210,90530,2,0,L|21:199,1,38.9999982147218,2|2,2:3|2:3,2:0:0:0:
204,248,90655,2,0,L|242:259,1,38.9999982147218,2|2,2:3|2:3,2:0:0:0:
244,350,90780,6,0,B|250:372|250:372|256:358,6,30,0|0|0|0|0|0|0,3:2|3:2|3:2|3:2|3:2|2:0|3:2,2:0:0:0:
232,335,91030,1,0,1:2:0:0:
276,146,91155,2,0,B|266:127|266:127|287:114,1,41.9999987182618,2|2,2:1|2:1,2:0:0:0:
483,228,91280,86,0,B|489:212|489:212|478:198|478:198|479:182|479:182|463:167,1,71.9999978027344,2|0,2:0|2:0,2:0:0:0:
507,123,91405,2,0,B|506:137|506:137|492:145|492:145|487:162|487:162|463:168,1,71.9999978027344,2|0,2:0|2:0,2:0:0:0:
386,193,91530,6,0,L|350:149,1,51.0000009727478,2|0,2:0|2:0,2:0:0:0:
396,125,91655,2,0,L|350:156,1,51.0000009727478,2|0,2:0|2:0,2:0:0:0:
247,124,91780,85,2,2:1:0:0:
393,281,91905,1,2,2:1:0:0:
229,235,92030,6,0,B|268:240|268:240|275:239|275:239|275:246|275:246|304:280|304:280|308:274|308:274|332:306|325:338|325:369|325:369|317:372|317:372|257:404|206:338|223:311,1,345.000006580353,2|0,2:3|2:0,2:0:0:0:
221,314,92405,2,0,P|220:329|214:343,5,30,0|0|0|0|0|0,2:0|2:0|2:0|2:0|2:0|2:0,2:0:0:0:
136,288,92780,2,0,P|142:297|142:306,6,19.9950004362923,0|0|0|0|0|0|0,2:0|2:0|2:0|2:0|2:0|2:0|2:0,2:0:0:0:
74,337,93030,86,0,B|41:338|41:338|34:346|34:346|66:350|66:350|77:361|77:361|124:346|124:346|159:262|159:262|181:257,1,240,4|0,2:3|1:2,2:0:0:0:
426,340,93439,6,0,B|449:342|449:342|455:349|455:349|427:353|427:353|416:362|416:362|375:349|375:349|343:274|343:274|326:270,1,215.999993408203,4|0,2:3|1:2,2:0:0:0:
241,153,93889,1,4,2:3:0:0:
235,138,93981,1,4,2:3:0:0:
265,113,94076,1,4,2:3:0:0:
219,68,94169,1,4,2:3:0:0:
289,37,94264,85,0,1:2:0:0:
71,166,94489,5,0,1:2:0:0:
406,156,94739,86,0,L|410:104,1,41.9999987182618,4|0,2:3|2:0,2:0:0:0:
404,84,95104,22,0,B|392:94|392:94|386:184|386:184|397:196,1,112.799998278809,4|0,2:3|2:0,2:0:0:0:
486,257,96030,6,0,B|439:275|408:266|407:197|360:183|309:206|292:239,1,204.000003890991,2|0,3:2|1:2,2:0:0:0:
472,170,96405,2,0,P|458:84|376:126,1,204.000003890991,0|0,3:2|1:2,2:0:0:0:
237,181,96780,1,0,3:2:0:0:
293,95,96905,1,0,3:2:0:0:
334,277,97030,5,0,2:0:0:0:
334,277,97092,1,0,2:0:0:0:
334,277,97155,2,0,L|319:217,1,51.0000009727478,0|0,2:0|2:0,2:0:0:0:
378,155,97280,1,0,1:2:0:0:
378,155,97405,1,0,1:2:0:0:
316,352,97530,86,0,B|252:407|198:295|169:328,1,153.000002918243,2|0,3:2|2:0,2:0:0:0:
162,331,97780,1,0,1:2:0:0:
257,203,97905,2,0,P|218:153|180:219,1,153.000002918243,2|0,3:2|2:0,2:0:0:0:
181,226,98155,1,0,1:2:0:0:
35,330,98280,1,2,3:2:0:0:
99,271,98405,1,2,3:2:0:0:
29,160,98530,2,0,P|27:129|36:156,1,90.0000034332277,8|0,2:1|2:0,2:0:0:0:
29,160,98780,5,2,2:1:0:0:
37,156,98842,1,2,2:1:0:0:
75,168,98905,1,2,2:1:0:0:
84,166,98967,1,2,2:1:0:0:
109,127,99030,86,0,B|125:66|101:4|46:-13|-8:8|-7:62|9:58,1,204.000003890991,2|0,3:2|1:2,2:0:0:0:
197,50,99405,2,0,B|243:3|314:-1|339:44|310:105|263:98,1,204.000003890991,0|0,3:2|1:2,2:0:0:0:
186,182,99780,1,0,3:2:0:0:
283,206,99905,1,0,3:2:0:0:
124,255,100030,5,0,2:0:0:0:
121,270,100092,1,0,2:0:0:0:
118,285,100155,1,0,2:0:0:0:
114,299,100217,1,0,2:0:0:0:
110,313,100280,2,0,L|109:368,3,51.0000009727478,0|0|0|0,2:0|2:0|2:0|2:0,2:0:0:0:
28,374,100530,86,0,B|-36:313|-14:247|49:250,1,153.000002918243,2|0,3:2|2:0,2:0:0:0:
42,257,100780,1,0,1:2:0:0:
206,223,100905,2,0,B|204:173|149:148|99:195|116:232,1,153.000002918243,2|0,3:2|2:0,2:0:0:0:
115,238,101155,1,0,1:2:0:0:
287,163,101280,6,0,B|271:142|271:142|252:137|252:137|263:127|263:127|282:90|281:13,1,153.000002918243,2|0,2:3|2:0,2:0:0:0:
295,5,101530,86,0,B|311:15|311:15|311:33|301:42,1,48,2|0,2:3|2:0,2:0:0:0:
136,78,101655,2,0,B|131:66|141:51|141:51|160:50,1,48,2|0,2:3|2:0,2:0:0:0:
336,165,101780,6,0,B|334:166|334:166|325:173|325:173|320:186|320:186|300:186|300:186|274:173|274:173|244:177,1,96,2|0,2:3|2:0,2:0:0:0:
167,79,102030,86,0,P|261:117|361:136,1,204.000003890991,2|0,3:2|1:2,2:0:0:0:
412,301,102405,2,0,B|433:356|491:340|517:325|508:206,1,204.000003890991,0|0,3:2|1:2,2:0:0:0:
443,49,102780,1,0,3:2:0:0:
512,11,102905,1,0,3:2:0:0:
448,146,103030,5,0,2:0:0:0:
448,146,103092,1,0,2:0:0:0:
448,146,103155,2,0,L|500:143,1,51.0000009727478,0|0,2:0|2:0,2:0:0:0:
365,29,103280,1,0,1:2:0:0:
365,29,103405,1,0,1:2:0:0:
306,219,103530,86,0,B|255:194|149:177|149:177,1,153.000002918243,2|0,3:2|2:0,2:0:0:0:
148,184,103780,1,0,1:2:0:0:
98,334,103905,2,0,B|57:350|31:317|14:306|34:268,1,102.000001945496,2|0,3:2|2:0,2:0:0:0:
31,273,104155,1,0,1:2:0:0:
81,132,104280,1,2,3:2:0:0:
98,219,104405,1,2,3:2:0:0:
219,112,104530,6,0,L|193:167,1,53.9999983520508,8|0,2:1|2:0,2:0:0:0:
221,246,104655,2,0,L|273:272,1,53.9999983520508,8|0,2:1|2:0,2:0:0:0:
389,265,104780,2,0,B|397:271|397:271|377:332|377:332|376:337|376:337|362:390,1,125.999996154785,8|0,2:0|2:0,2:0:0:0:
286,384,105030,86,0,B|310:320|374:323|374:323|414:323|438:295|444:275,1,204.000003890991,2|0,3:2|1:2,2:0:0:0:
350,160,105405,2,0,B|381:89|491:95|486:210,1,204.000003890991,2|0,3:2|1:2,2:0:0:0:
496,351,105780,1,2,3:2:0:0:
412,317,105905,1,2,3:2:0:0:
266,368,106030,5,0,2:0:0:0:
252,372,106092,1,0,2:0:0:0:
237,375,106155,1,0,2:0:0:0:
223,379,106217,1,0,2:0:0:0:
209,383,106280,2,0,L|157:356,3,51.0000009727478,0|0|0|0,2:0|2:0|2:0|2:0,2:0:0:0:
158,345,106530,86,0,B|147:297|147:297|132:287|132:287|95:295,1,102.000001945496,8|4,2:3|2:3,2:0:0:0:
82,216,106717,1,4,2:3:0:0:
82,216,106780,2,0,B|71:264|71:264|56:274|56:274|19:266,1,102.000001945496,2|2,2:3|2:0,2:0:0:0:
225,311,107030,6,0,L|233:293,6,10.4999996795654,2|0|0|0|0|0|0,2:3|2:0|2:0|2:0|2:0|2:0|2:0,2:0:0:0:
235,290,107280,86,0,L|245:271,1,20.9999993591309,4|0,2:3|2:0,2:0:0:0:
300,122,107530,6,0,L|310:97,1,20.9999993591309,4|0,2:3|2:0,2:0:0:0:
302,92,107655,2,0,L|311:67,1,20.9999993591309,4|0,2:3|2:0,2:0:0:0:
379,46,107780,86,0,B|390:49|390:49|411:60|411:60|417:61,1,41.9999987182618,8|0,2:3|2:0,2:0:0:0:
279,204,107905,2,2,B|267:200|267:200|246:189|246:189|212:183,1,60,4|0,2:3|2:0,2:1:0:0:
107,67,108030,6,0,B|76:88|33:95|33:95|88:121|149:186,1,204.000003890991,2|0,3:2|1:2,2:0:0:0:
253,0,108405,2,0,B|306:58|265:101|246:114|246:114|218:145|227:178,1,204.000003890991,0|0,3:2|1:2,2:0:0:0:
282,351,108780,1,0,3:2:0:0:
288,273,108905,1,0,3:2:0:0:
137,185,109030,85,0,2:0:0:0:
137,185,109092,1,0,2:0:0:0:
137,185,109155,2,0,P|155:204|161:231,1,51.0000009727478,0|0,2:0|2:0,2:0:0:0:
306,196,109280,1,0,1:0:0:0:
306,196,109405,1,0,1:2:0:0:
357,347,109530,6,0,B|393:358|416:368|416:368|423:319|461:270,1,153.000002918243,2|0,3:2|2:0,2:0:0:0:
464,268,109780,1,0,1:2:0:0:
370,143,109905,2,0,B|397:113|427:163|453:203|504:193,1,153.000002918243,2|0,3:2|2:0,2:0:0:0:
512,182,110155,1,0,1:2:0:0:
491,10,110280,1,2,3:2:0:0:
484,98,110405,1,2,3:2:0:0:
311,54,110530,2,0,P|327:80|318:50,1,90.0000034332277,8|0,2:1|2:0,2:0:0:0:
315,43,110780,85,2,2:1:0:0:
310,35,110842,1,2,2:1:0:0:
271,13,110905,1,2,2:1:0:0:
264,8,110967,1,2,2:1:0:0:
215,15,111030,6,0,B|167:32|150:78|187:137|241:112|261:131|280:153,1,204.000003890991,2|0,3:2|1:2,2:0:0:0:
461,271,111405,2,0,B|503:297|489:378|408:308|335:302,1,204.000003890991,0|0,3:2|1:2,2:0:0:0:
180,364,111780,1,0,3:2:0:0:
243,291,111905,1,0,3:2:0:0:
158,192,112030,85,0,2:0:0:0:
157,174,112092,1,0,2:0:0:0:
154,156,112155,1,0,2:0:0:0:
152,138,112217,1,0,2:0:0:0:
149,120,112280,2,0,P|161:88|178:68,3,51.0000009727478,0|0|0|0,2:0|2:0|2:0|2:0,2:0:0:0:
130,8,112530,6,0,B|96:-17|42:-15|12:13|30:64,1,153.000002918243,2|0,3:2|2:0,2:0:0:0:
31,70,112780,1,0,1:2:0:0:
104,213,112905,2,0,B|111:186|150:137|185:137|222:121|226:137,1,153.000002918243,2|0,3:2|2:0,2:0:0:0:
231,138,113155,1,0,1:2:0:0:
323,211,113280,85,2,2:3:0:0:
328,221,113342,1,2,2:3:0:0:
317,235,113405,2,0,L|284:249,1,30,2|0,2:3|2:3,2:0:0:0:
315,346,113530,6,0,L|283:336,1,30,2|0,2:0|2:0,2:3:0:0:
313,357,113655,2,0,L|280:348,1,30,2|0,2:0|2:0,2:0:0:0:
189,377,113780,85,2,2:0:0:0:
196,341,113842,1,2,2:0:0:0:
177,305,113905,2,0,P|152:291|133:292,1,35.9999989013672,2|0,2:0|2:0,2:0:0:0:
38,298,114030,6,0,B|-11:298|-24:373|34:407|76:404|113:353,1,204.000003890991,2|0,3:2|1:2,2:0:0:0:
118,168,114405,2,0,B|113:119|49:89|-12:134|7:210,1,204.000003890991,0|0,3:2|1:2,2:0:0:0:
177,304,114780,1,0,3:2:0:0:
206,227,114905,1,0,3:2:0:0:
175,86,115030,85,0,2:0:0:0:
175,86,115092,1,0,2:0:0:0:
175,86,115155,2,0,L|218:112,1,51.0000009727478,0|0,2:0|2:0,2:0:0:0:
297,227,115280,5,0,1:2:0:0:
297,227,115405,1,0,1:2:0:0:
397,77,115530,86,0,B|474:60|503:130|476:162,1,153.000002918243,2|0,3:2|2:0,2:0:0:0:
468,172,115780,1,0,1:2:0:0:
304,105,115905,2,0,B|261:73|271:21|324:-3|356:0,1,153.000002918243,2|0,3:2|2:0,2:0:0:0:
356,2,116155,1,0,1:2:0:0:
381,176,116280,5,2,3:2:0:0:
291,213,116405,1,2,3:2:0:0:
469,331,116530,2,0,B|460:338|460:338|373:317|373:317|337:311|337:311|294:296,1,180,10|0,2:0|2:0,2:0:0:0:
206,293,116780,86,0,B|205:289|205:289|206:292|206:292|201:293|201:293|194:292|194:292|193:289|193:289|193:292|193:292|190:287|190:287|184:285|184:285|183:280|183:280|181:278|181:278|180:272|180:272|178:271|178:271|178:262|178:262|176:263|176:263|177:252|177:252|174:251|174:251|178:242|178:242|175:242|175:242|176:233|176:233|179:232|179:232|185:235|185:235|190:241|190:241|192:252,1,122.100742883853,2|0,2:0|2:0,2:0:0:0:
287,384,117030,6,0,B|324:349|309:297|239:272|188:310|212:367,1,204.000003890991,2|0,3:2|1:2,2:0:0:0:
73,321,117405,2,0,P|85:220|142:137,1,204.000003890991,2|0,3:2|1:2,2:0:0:0:
48,7,117780,1,2,3:2:0:0:
23,107,117905,1,2,3:2:0:0:
128,35,118030,85,0,2:0:0:0:
146,33,118092,1,0,2:0:0:0:
164,30,118155,1,0,2:0:0:0:
182,28,118217,1,0,2:0:0:0:
200,28,118280,2,0,L|217:79,3,51.0000009727478,0|0|0|0,2:0|2:0|2:0|2:0,2:0:0:0:
417,128,118530,6,0,B|422:113|422:113|411:99|411:99|412:83|412:83|396:68,1,71.9999978027344,2|0,2:0|2:0,2:0:0:0:
440,22,118655,2,0,B|438:36|438:36|424:44|424:44|419:60|419:60|395:67,1,71.9999978027344,2|0,2:0|2:0,2:0:0:0:
327,83,118780,86,0,L|294:40,1,51.0000009727478,2|0,2:0|2:0,2:0:0:0:
340,17,118905,2,0,L|296:41,1,51.0000009727478,2|0,2:0|2:0,2:0:0:0:
484,88,119030,6,2,B|397:80|397:80|359:79|359:79|328:48|328:48|286:41,1,202.500007724762,8|0,2:1|2:0,2:1:0:0:
219,88,119280,85,8,3:2:0:0:
193,113,119342,1,8,3:2:0:0:
194,150,119405,1,8,3:2:0:0:
215,179,119467,1,8,3:2:0:0:
250,189,119529,1,8,3:2:0:0:
256,192,119655,12,0,121530,2:0:0:0:
256,192,141030,12,0,143030,2:0:0:0:
161,115,143280,6,0,B|174:92|174:92|199:81|199:81|214:101|214:101|226:145|267:152,2,157.500001502037,2|2|2,2:0|2:0|2:0,2:0:0:0:
186,196,143717,1,2,2:0:0:0:
189,210,143780,2,0,B|176:233|176:233|151:244|151:244|135:224|135:224|124:180|83:173,1,157.500001502037,2|0,2:0|2:0,2:0:0:0:
22,259,144030,38,2,B|31:278|31:278|31:252|31:252|36:240|36:240|28:192|28:192|35:182|35:182|32:112|32:112|14:60|14:60|1:116|1:116|23:173,1,360,4|0,3:0|2:0,2:1:0:0:
20,361,144530,5,2,2:1:0:0:
37,349,144592,1,2,2:1:0:0:
64,352,144655,2,0,P|75:374|73:389,1,35.9999989013672,2|2,2:1|2:1,2:0:0:0:
220,379,144780,2,0,L|148:383,1,71.9999978027344,8|8,2:0|2:0,2:0:0:0:
22,259,145030,85,0,3:2:0:0:
57,253,145092,1,0,3:2:0:0:
92,261,145155,1,0,3:2:0:0:
121,281,145217,1,0,3:2:0:0:
141,310,145280,2,0,B|146:300|159:296|159:296|184:309|198:309|198:309|230:296|242:301|242:301,1,96,2|2,2:3|2:3,2:0:0:0:
453,226,145530,6,2,B|447:205|447:205|423:208|423:208|404:196|404:196|400:197|400:197|343:230|343:230,2,132.00000402832,4|0|0,3:0|2:0|1:2,2:1:0:0:
402,103,145905,2,2,B|384:102|384:102|381:90|381:90|368:74|368:74|371:47,1,66.0000020141602,4|0,3:0|2:0,2:1:0:0:
494,0,146030,86,0,B|513:35,6,33.0000010070801,8|0|0|0|0|0|0,2:0|2:0|2:0|2:0|2:0|2:0|2:0,2:0:0:0:
512,38,146280,6,2,B|497:30|497:30|495:35|495:35|431:35,1,75,4|0,3:0|2:0,2:1:0:0:
284,60,146405,2,2,B|257:13|257:13|259:8|259:8|207:3|207:3|175:25,1,150,4|0,3:0|1:2,2:1:0:0:
402,103,146655,86,2,B|386:104|386:104|386:109|386:109|332:144,1,75,4|0,3:0|2:0,2:1:0:0:
271,204,146780,2,0,B|236:188|236:188|235:151,3,75,0|0|0|0,2:0|2:0|2:0|2:0,2:0:0:0:
340,138,147030,2,2,B|330:149|330:149|278:163|278:163|265:164|265:164|260:197|260:197|252:208|252:208|233:216,1,150,4|0,3:0|2:0,2:1:0:0:
342,299,147280,2,2,B|322:306|322:306|313:319|313:319|309:350|309:350|296:351|296:351|244:365|244:365|230:382,1,150,4|0,3:0|2:0,2:1:0:0:
113,212,147530,6,2,B|194:253|194:253|187:290,1,120,2|2,2:3|2:3,2:1:0:0:
78,281,147717,1,2,2:3:0:0:
53,275,147780,2,2,B|49:220|49:220|110:189,1,120,4|4,2:3|2:3,2:1:0:0:
290,42,148030,86,0,P|239:44|189:57,1,102.000001945496,2|0,3:2|2:0,2:0:0:0:
179,70,148217,1,0,2:0:0:0:
169,85,148280,1,0,1:2:0:0:
103,48,148405,2,0,P|93:26|100:-13,1,51.0000009727478,0|0,2:0|2:0,2:0:0:0:
19,148,148530,5,4,3:0:0:0:
181,175,148655,1,4,3:0:0:0:
125,246,148780,1,8,3:1:0:0:
122,263,148842,1,8,3:1:0:0:
134,275,148905,1,8,3:1:0:0:
173,343,149030,2,0,L|198:371,6,25.5000004863739,2|0|0|0|0|0|0,2:3|2:0|2:0|2:0|2:0|2:0|2:0,2:0:0:0:
206,362,149280,86,0,P|206:334|198:325,1,41.9999987182618,2|0,2:0|2:0,2:0:0:0:
141,265,149405,2,0,P|117:249|98:244,1,41.9999987182618,2|0,2:0|2:0,2:0:0:0:
72,365,149530,6,0,L|-6:387,2,71.9999978027344,2|2|2,2:3|2:3|2:3,2:0:0:0:
95,372,149780,86,0,P|77:339|89:375,1,107.999996704102,8|0,2:3|2:0,2:0:0:0:
3,153,150030,6,2,B|32:144|32:144|45:149|45:149|84:150|84:150|136:146|136:146|142:155|142:155|131:167|131:167|181:205,1,215.999993408203,4|0,3:0|2:3,2:3:0:0:
315,316,150280,86,0,B|337:288|337:288|339:271|339:271|351:218,1,102.000001945496,2|2,3:0|2:3,2:0:0:0:
347,209,150468,1,2,2:3:0:0:
345,195,150530,1,0,1:2:0:0:
218,282,150655,6,0,B|240:253|240:253|242:237|242:237|254:184,1,102.000001945496,2|2,3:0|2:3,2:0:0:0:
250,175,150842,1,2,2:3:0:0:
248,161,150905,1,0,1:2:0:0:
149,221,151030,86,0,L|165:168,3,51.0000009727478,0|0|0|0,2:0|2:0|2:0|2:0,2:0:0:0:
248,161,151280,2,0,L|264:110,3,51.0000009727478,0|0|0|0,1:2|2:0|2:0|2:0,2:0:0:0:
176,21,151530,6,0,B|194:32|194:32|208:34|208:34|228:38,1,51.0000009727478,2|2,2:3|2:3,2:0:0:0:
433,0,151655,2,0,B|416:3|416:3|403:5|403:5|385:16,1,51.0000009727478,2|2,2:3|2:3,2:0:0:0:
308,24,151780,2,0,L|303:0,6,25.5000004863739,2|0|0|0|0|0|0,2:3|2:0|2:0|2:0|2:0|2:0|2:0,2:0:0:0:
312,36,152030,86,2,B|321:64|321:64|339:86,1,53.9999983520508,8|0,3:2|2:0,2:1:0:0:
476,126,152155,1,8,2:0:0:0:
476,135,152217,1,8,2:0:0:0:
477,143,152280,1,2,3:2:0:0:
342,92,152405,6,0,L|399:79,1,53.9999983520508,0|0,3:2|2:0,2:0:0:0:
484,223,152530,1,0,1:2:0:0:
373,171,152655,2,0,L|480:143,1,107.999996704102,0|2,3:2|2:0,2:0:0:0:
335,297,152905,85,0,1:2:0:0:
335,297,152967,1,0,1:2:0:0:
335,297,153030,2,2,B|345:289|345:289|364:278|341:267|341:267|322:263|334:251|334:251|351:230|326:234|326:234|311:240|312:221|312:221|312:202|296:214|296:214|284:230|278:211|278:211|268:192|262:212|262:212|258:232|243:214|243:214|241:208|223:218|230:233|230:233|240:227|246:217,1,288,4|0,3:0|2:0,2:1:0:0:
112,225,153280,6,2,B|108:237|108:237|99:257|124:252|124:252|142:244|139:261|139:261|138:288|156:270|156:270|164:257|175:272|175:272|186:288|192:269|192:269|192:249|208:261|208:261|227:270|221:250|221:250|212:232|235:238|235:238|240:241|249:223|234:215|234:215|230:225|231:237,1,288,4|0,3:0|2:0,2:1:0:0:
334,156,153530,86,2,B|329:144|329:144|324:122|307:141|307:141|297:157|289:142|289:142|275:120|271:145|271:145|272:161|254:154|254:154|236:148|243:167|243:167|254:183|234:183|234:183|213:187|230:199|230:199|248:209|226:217|226:217|220:217|224:238|240:236|240:236|238:224|230:215,1,288,4|0,3:0|2:0,2:1:0:0:
195,343,153780,6,2,B|205:350|205:350|222:364|225:339|225:339|223:320|238:327|238:327|263:337|252:314|252:314|241:302|260:297|260:297|278:291|261:280|261:280|242:273|259:262|259:262|274:246|253:247|253:247|233:249|245:229|245:229|250:226|235:212|223:223|223:223|232:231|243:233,1,288,4|0,3:0|2:0,2:1:0:0:
128,129,154030,86,2,B|108:126|117:109|117:109|109:94|126:88|126:88|127:75|146:78,1,71.9999978027344,4|0,3:0|2:0,2:1:0:0:
332,3,154155,2,2,B|346:18|329:26|329:26|326:42|309:38|309:38|301:47|287:34,1,71.9999978027344,4|0,3:0|2:0,2:1:0:0:
206,41,154280,5,8,2:1:0:0:
219,61,154342,1,8,2:1:0:0:
224,89,154405,1,8,3:0:0:0:
237,227,154530,86,0,B|236:229|234:232|234:232|231:233|231:233|231:238|231:238|231:237|229:238|229:238|231:240|231:240|225:240|225:240|224:241|223:242|223:242|219:241|219:241|218:247|218:247|217:244|215:244|215:244|213:244|213:244|211:246|211:246|209:247|208:247|208:247|206:244|206:244|203:248|203:248|202:248|200:248|200:248|197:246|197:246|197:251|197:251|193:248|193:248|193:248|190:245|190:245|188:247|188:247|186:247|185:247|185:247|183:245|183:245|180:246|180:246|177:248|177:248|179:246|178:245|178:245|181:242|181:242|178:240|178:240|178:239|178:237|178:237|181:235|181:235|177:235|177:235|180:230|181:230|181:230|183:224|183:224|183:225|183:225|184:224|185:223|185:223|188:223|188:223|188:220|188:220|190:219|191:215|191:215|194:219|194:219|195:215|195:215|196:214|197:214|197:214|200:215|200:215|203:212|203:212|203:212|205:211|205:211|208:213|208:213|209:209|209:209|211:210|212:210|212:210|215:212|215:212|217:210|217:210|225:210|219:210|220:209|220:209|225:217|225:217|225:210,1,188.999994232178,2|0,3:2|2:0,2:0:0:0:
311,227,154780,6,0,L|342:235,5,30,0|0|0|0|0|0,1:2|2:0|2:0|2:0|2:0|2:0,2:0:0:0:
355,315,155155,2,0,L|392:324,5,30,0|0|0|0|0|0,1:0|2:0|2:0|2:0|2:0|2:0,2:0:0:0:
274,367,155530,86,0,L|289:370,6,10.4999996795654,0|0|0|0|0|0|0,3:2|3:2|3:2|3:2|3:2|3:2|3:2,2:0:0:0:
274,367,156030,6,2,B|284:369|284:369|297:363|297:363|300:369|300:369|345:375|345:375|346:377|346:377|394:386|394:386|395:391|395:391,1,120,4|0,3:0|2:0,2:1:0:0:
473,322,156280,2,0,L|481:287,3,30,0|0|0|0,1:2|2:0|2:0|2:0,2:0:0:0:
487,256,156530,85,2,2:1:0:0:
452,245,156592,1,2,2:1:0:0:
420,234,156655,2,0,L|432:194,1,35.9999989013672,2|2,2:1|2:1,2:0:0:0:
333,260,156780,2,0,L|359:161,1,102.000001945496,8|8,2:0|2:0,2:0:0:0:
244,319,157030,5,0,3:2:0:0:
211,333,157092,1,0,3:2:0:0:
216,367,157155,1,0,3:2:0:0:
248,372,157217,1,0,3:2:0:0:
264,341,157280,2,0,P|241:301|187:256,1,96,2|2,2:3|2:3,2:0:0:0:
237,49,157530,86,2,B|237:59|237:59|223:69|223:69|216:93|216:93|220:107,1,53.9999983520508,4|0,3:0|2:0,2:1:0:0:
310,82,157655,2,2,B|312:94|312:94|299:104|299:104|294:129|294:129|299:142,1,53.9999983520508,4|0,3:0|2:0,2:1:0:0:
191,166,157780,2,2,B|191:176|191:176|177:186|177:186|170:210|170:210|174:224,1,53.9999983520508,4|0,3:0|2:0,2:1:0:0:
265,199,157905,2,2,B|266:211|266:211|253:220|253:220|248:245|248:245|253:259,1,53.9999983520508,4|0,3:0|2:0,2:1:0:0:
79,370,158030,6,2,B|64:371|64:371|67:267|145:282|145:282|141:296|141:296|129:307|129:307|117:335|117:335,1,215.999993408203,4|0,3:0|1:2,0:1:0:0:
404,277,158405,86,2,B|400:291|400:291|389:299|389:299|383:323|383:323|383:322,1,53.9999983520508,4|0,3:0|2:0,2:1:0:0:
315,374,158530,1,8,2:1:0:0:
302,352,158591,1,8,2:1:0:0:
306,326,158655,1,8,2:1:0:0:
306,301,158716,1,8,2:1:0:0:
314,277,158780,2,0,B|300:311|300:311|229:326|229:326|207:303,1,135.000005149841,8|0,2:1|2:0,2:0:0:0:
249,240,159030,6,0,B|279:124,1,116.999994644165,2|0,3:2|2:0,2:0:0:0:
122,117,159280,86,0,B|123:115|125:112|125:112|129:111|129:111|129:108|129:108|130:107|131:106|131:106|130:103|130:103|136:103|136:103|138:102|139:101|139:101|142:103|142:103|144:97|144:97|145:100|147:100|147:100|149:100|149:100|152:98|152:98|154:98|155:98|155:98|157:100|157:100|161:97|161:97|162:97|164:97|164:97|166:100|166:100|167:94|167:94|171:98|172:98|172:98|175:100|175:100|177:99|177:99|179:99|180:99|180:99|183:101|183:101|185:100|185:100|189:99|189:99|187:100|187:101|187:101|184:105|184:105|187:107|187:107|187:109|187:110|187:110|183:112|183:112|188:113|188:113|184:117|183:117|183:117|181:124|181:124|181:123|181:123|179:124|178:125|178:125|175:125|175:125|175:128|175:128|173:129|171:134|171:134|168:129|168:129|166:133|166:133|166:134|165:134|165:134|161:133|161:133|157:136|157:136|157:136|156:136|156:136|153:135|153:135|151:139|151:139|149:137|148:137|148:137|145:135|145:135|142:137|142:137|134:136|140:137|139:137|139:137|134:129|134:129|134:136,1,215.999993408203,2|0,3:2|2:0,2:0:0:0:
38,228,159530,2,0,P|19:226|3:237,1,38.9999982147218,2|2,2:0|2:0,2:0:0:0:
15,269,159655,2,0,P|18:250|34:239,1,38.9999982147218,2|2,2:0|2:0,2:0:0:0:
134,135,159780,6,2,B|110:129|98:153|65:154,1,66.0000020141602,4|0,3:0|2:0,2:1:0:0:
8,95,159905,1,4,3:0:0:0:
21,78,159967,1,4,3:0:0:0:
47,82,160030,2,2,B|67:50|67:50|107:22|107:22|120:-1,1,102.000001945496,8|2,2:0|2:3,2:1:0:0:
148,3,160217,1,2,2:3:0:0:
171,10,160280,2,2,B|173:24|173:24|185:34|185:34|186:60,1,51.0000009727478,4|4,2:3|2:3,2:1:0:0:
267,206,160530,85,2,3:2:0:0:
331,246,160655,1,0,3:2:0:0:
268,83,160780,2,0,B|266:84|267:86|267:86|262:87|262:87|266:90|266:90|266:90|266:92|266:92|271:94|271:94|265:94|265:94|265:96|263:97|263:97|259:97|259:97|263:100|263:100|262:102|262:103|262:103|265:106|265:106|260:105|260:105|258:107|257:107|257:107|254:106|254:106|256:110|256:110|255:110|255:112|255:112|257:116|257:116|253:113|253:113|252:114|252:114|251:115|250:116|250:116|246:112|246:112|247:118|247:118|246:118|245:118|245:118|247:123|247:123|243:120|243:120|241:121|240:122|240:122|236:118|236:118|238:124|238:124|237:124|236:125|236:125|237:130|237:130|234:127|234:127|233:127|230:127|230:127|227:123|227:123|228:129|228:129|227:129|225:130|225:130|226:135|226:135|223:132|223:132|221:132|220:132|220:132|218:134|218:134|216:134|216:134|216:140|216:140|212:136|212:136|210:136|209:136|209:136|207:132|207:132|207:138|207:138|205:138|204:138|204:138|204:143|204:143|201:139|201:139|198:138|199:139|199:139|200:135|200:135|196:137|196:137|195:135|195:135|198:138|198:138|195:139|195:139|195:141|195:141|194:141|194:141|194:141|191:137|191:137|190:142|190:142|189:143|188:143|188:143|188:148|188:148|185:143|185:143|183:144|183:144|183:144|179:140|179:140|179:146|179:146|179:146|178:146|178:146|178:151|178:151|175:147|175:147|173:148|172:147|172:147|169:144|169:144|169:149|169:149|167:150|166:149|166:149|167:155|167:155|164:151|164:151|162:152|161:151|161:151|158:148|158:148|159:153|159:153|157:154|156:154|156:154|157:160|157:160|153:155|153:155|151:156|151:156|151:156|147:153|147:153|148:158|148:158|146:158|145:158|145:158|146:164|146:164|142:160|142:160|141:161|141:161|141:161|137:158|137:158|138:163|138:163|137:163|135:164|135:164|136:169|136:169|132:165|132:165|131:165|130:167|130:167|125:163|125:163|127:168|127:168|126:169|125:170|125:170|125:175|125:175|122:172|122:172|121:172|120:172|120:172|117:168|117:168|118:174|118:174|116:175|115:175|115:175|117:180|117:180|113:177|113:177|108:180|108:180|111:178|110:178|110:178|107:176|107:176|108:180|108:180|111:183|111:183|109:187|109:187|110:184|110:184|106:182|106:182|103:182|103:182|105:184|105:184|106:187|106:187|105:185|105:185|108:185|108:185|106:187|106:187|111:191|111:191|107:189|108:189|108:189|109:193|109:193|111:191|111:191|113:191|115:190|115:190|116:186|116:186|117:190,1,506.113085457703,2|0,2:0|2:0,2:0:0:0:
178,235,161030,6,0,B|187:296,5,53.2163019314891,8|0|0|0|0|0,2:0|2:0|2:0|2:0|2:0|2:0,2:0:0:0:
337,352,161405,85,8,2:0:0:0:
442,169,161530,2,0,B|449:174|479:148|428:122|372:137|338:187|387:185,1,143.999995605469,2|0,2:0|2:0,2:0:0:0:
295,346,161780,2,0,B|288:341|258:367|309:393|365:378|399:328|350:330,1,143.999995605469,2|0,2:0|2:0,2:0:0:0:
226,277,162030,6,2,B|198:270|198:270|176:248|176:248|143:230|143:230|135:205|135:205,1,120,4|0,3:0|2:0,2:1:0:0:
268,72,162280,2,2,B|239:66|239:66|211:78|211:78|174:80|174:80|155:100|155:100,1,120,4|0,3:0|2:0,2:1:0:0:
62,133,162530,86,0,P|77:135|90:140,1,30,0|0,2:0|2:0,2:0:0:0:
252,170,162655,1,0,1:2:0:0:
340,111,162780,5,2,2:1:0:0:
342,120,162842,1,2,2:1:0:0:
373,126,162905,1,2,2:1:0:0:
375,138,162967,1,2,2:1:0:0:
401,161,163030,86,2,B|398:160|398:160|366:171|366:171|358:169|358:169|346:181,1,60,8|0,3:0|2:0,2:1:0:0:
256,188,163155,2,2,B|253:187|253:187|228:165|228:165|220:163|220:163|215:148,1,60,4|0,3:0|2:0,2:1:0:0:
101,128,163280,6,0,P|78:106|98:134,1,102.000001945496,8|0,2:1|2:0,2:0:0:0:
11,344,163530,85,2,2:0:0:0:
11,344,163655,2,0,L|19:307,1,30,2|2,2:0|2:0,2:0:0:0:
90,374,163780,1,2,2:3:0:0:
98,299,163905,1,2,2:3:0:0:
173,346,164030,6,0,L|174:313,2,30,4|4|4,2:3|2:3|2:3,2:0:0:0:
247,259,164280,2,0,B|267:271|277:303|237:326|244:364|269:379,1,135.000005149841,4|0,2:3|2:0,2:0:0:0:
348,333,164530,2,0,B|359:327|361:318|361:318,3,17.9999994506836,0|0|0|0,2:0|2:0|2:0|2:0,2:0:0:0:
458,324,164780,2,0,P|458:308|444:292,3,33.0000010070801,0|0|0|0,2:0|2:0|2:0|2:0,2:0:0:0:
371,157,165030,85,8,3:1:0:0:
266,190,165155,1,4,3:0:0:0:
292,180,165217,1,4,3:0:0:0:
282,153,165280,1,8,3:1:0:0:
192,218,165405,1,8,3:1:0:0:
244,33,165530,6,0,B|240:30|240:30|237:35|237:35|238:29|238:29|237:28|237:28|234:33|234:33|235:27|235:27|233:26|233:26|229:30|229:30|232:24|232:24|229:23|229:23|226:28|226:28|227:23|227:23|225:21|225:21|222:26|222:26|224:20|224:20|222:19|222:19|219:24|219:24|220:18|220:18|218:17|218:17|214:22|214:22|217:16|217:16|214:15|214:15|211:21|211:21|212:15|212:15|210:15|210:15|207:20|207:20|209:13|209:13|207:12|207:12|204:17|204:17|205:11|205:11|204:11|204:11|209:15|209:15|203:12|203:12|202:14|202:14|207:19|207:19|202:16|202:16|201:18|201:18|205:22|205:22|200:20|200:20|199:21|199:21|203:25|203:25|198:24|198:24|197:25|197:25|202:29|202:29|196:27|196:27|195:29|195:29|201:34|201:34|194:30|194:30|195:34|195:34|199:38|199:38|194:35|194:35|193:37|193:37|197:41|197:41|192:39|192:39|190:40|190:40|194:46|194:46|190:42|190:42|188:44|188:44|194:47|194:47|187:46|187:46|186:47|186:47|192:51|192:51|186:50|186:50|185:51|185:51|191:55|191:55|183:54|183:54|182:56|182:56|187:58|187:58|181:57|181:57|181:61|181:61|187:63|187:63|180:62|180:62|180:64|180:64|184:68|184:68|179:66|179:66|179:68|179:68|183:72|183:72|177:70|177:70|176:71|176:71|181:75|181:75|175:73|175:73|174:75|174:75|179:79|179:79|174:77|174:77|173:78|173:78|177:83|177:83|172:80|172:80|171:82|171:82|175:86|175:86|170:84|170:84|169:86|169:86|174:90|174:90|168:88|168:88|167:90|167:90|172:93|172:93|166:92|166:92|167:94|167:94|172:97|172:97|166:96|166:96|165:97|165:97|167:92|167:92|166:98|166:98|165:97|165:97|168:100|168:100|171:95|171:95|170:100|170:100|172:101|172:101|175:96|175:96|174:102|174:102|175:103|175:103|179:98|179:98|177:104|177:104|179:105|179:105|182:100|182:100|181:105|181:105|182:107|182:107|186:101|186:101|184:108|184:108|186:108|186:108|190:103|190:103|188:109|188:109|190:110|190:110|193:105|193:105|192:110|192:110|194:111|194:111|197:106|197:106|196:112|196:112|197:113|197:113|201:108|201:108|199:116|199:116|201:116|201:116|205:110|205:110|203:117|203:117,1,632.553248691132,2|0,3:2|2:0,2:0:0:0:
324,72,165780,2,0,B|325:69|325:69|320:66|320:66|326:67|326:67|327:66|327:66|323:63|323:63|328:64|328:64|329:62|329:62|325:58|325:58|331:61|331:61|332:58|332:58|327:55|327:55|332:56|332:56|334:54|334:54|329:51|329:51|335:53|335:53|336:51|336:51|331:48|331:48|337:49|337:49|338:47|338:47|333:44|333:44|339:46|339:46|340:44|340:44|334:41|334:41|340:42|340:42|340:40|340:40|335:37|335:37|342:39|342:39|343:37|343:37|338:34|338:34|344:35|344:35|344:34|344:34|340:39|340:39|343:33|343:33|341:32|341:32|336:37|336:37|339:32|339:32|337:31|337:31|333:35|333:35|335:30|335:30|334:29|334:29|330:33|330:33|331:28|331:28|330:27|330:27|326:32|326:32|328:26|328:26|326:25|326:25|322:31|322:31|325:24|325:24|322:25|322:25|317:29|317:29|320:24|320:24|318:23|318:23|314:27|314:27|316:22|316:22|315:20|315:20|311:26|311:26|313:20|313:20|311:19|311:19|308:24|308:24|309:18|309:18|308:17|308:17|304:22|304:22|305:17|305:17|304:16|304:16|300:21|300:21|301:14|301:14|299:13|299:13|297:18|297:18|298:12|298:12|295:12|295:12|293:18|293:18|294:11|294:11|292:11|292:11|288:15|288:15|290:9|290:9|288:9|288:9|284:14|284:14|286:7|286:7|285:6|285:6|281:12|281:12|283:5|283:5|281:4|281:4|277:9|277:9|279:4|279:4|278:3|278:3|273:7|273:7|276:2|276:2|274:1|274:1|270:5|270:5|272:0|272:0|270:-1|270:-1|267:4|267:4|269:-2|269:-2|267:-3|267:-3|264:3|264:3|265:-3|265:-3|263:-3|263:-3|260:2|260:2|261:-4|261:-4|260:-5|260:-5|265:-2|265:-2|259:-4|259:-4|260:-5|260:-5|256:-2|256:-2|262:1|262:1|256:0|256:0|255:2|255:2|261:5|261:5|254:4|254:4|253:5|253:5|259:9|259:9|252:7|252:7|251:9|251:9|256:13|256:13|251:12|251:12|249:13|249:13|255:17|255:17|248:15|248:15|248:17|248:17|253:20|253:20|247:19|247:19|246:20|246:20|251:23|251:23|246:22|246:22|245:24|245:24|250:27|250:27|244:26|244:26|243:27|243:27|248:31|248:31|241:29|241:29|241:31|241:31|246:35|246:35|240:33|240:33,1,632.553248691132,2|0,3:2|2:0,2:0:0:0:
282,153,166030,86,0,L|311:235,1,83.9999974365235,0|0,1:2|2:0,2:0:0:0:
395,360,166280,6,0,B|380:333|341:321|341:321|384:317|405:286,1,135.000005149841,8|0,2:0|2:0,2:0:0:0:
479,313,166530,2,0,B|469:295|469:295|394:292,1,90.0000034332277,4|0,2:3|2:0,2:0:0:0:
281,374,166780,1,4,2:3:0:0:
281,374,166842,1,4,2:3:0:0:
281,374,166905,2,0,L|235:362,1,45.0000017166138,4|0,2:3|2:0,2:0:0:0:
150,362,167030,86,0,P|146:319|140:266,1,90.0000034332277,2|0,2:0|2:0,2:0:0:0:
220,248,167217,2,0,P|89:291|24:297,1,180,2|0,2:0|2:0,2:0:0:0:
39,288,167467,1,2,2:0:0:0:
40,280,167530,2,0,P|61:279|112:267,1,62.9999980773926,2|2,2:0|2:0,2:0:0:0:
146,184,167717,2,0,P|102:188|44:162,1,94.499997116089,2|0,2:0|2:0,2:0:0:0:
401,208,168030,70,2,B|385:190|381:204|381:204|368:210|345:207|350:235|350:235|329:250|345:268|345:268|347:283|370:283|370:283|386:302|404:285|404:285|419:277|415:260,1,188.999994232178,6|0,3:2|2:0,2:1:0:0:
440,133,168280,6,2,B|438:118|438:118|413:112|413:112|440:96|440:96|405:91|405:91|434:71|434:71|402:62|402:62|425:45|425:45|392:38|392:38|422:18|422:18|402:12|402:12|417:7|417:7|399:-2|399:-2,1,323.999990112305,4|0,3:0|2:0,2:1:0:0:
281,168,168530,2,2,B|276:153|276:153|296:137|296:137|264:134|264:134|294:114|294:114|259:109|259:109|284:87|284:87|255:82|255:82|282:61|282:61|246:56|246:56|262:42|262:42|246:44|246:44|258:28|258:28,1,323.999990112305,4|0,3:0|2:0,2:1:0:0:
440,133,168780,86,2,B|434:118|434:118|454:102|454:102|423:100|423:100|452:79|452:79|417:75|417:75|441:52|441:52|413:47|413:47|439:26|439:26|403:22|403:22|418:7|418:7|400:12|400:12|410:0|410:0,1,323.999990112305,4|0,3:0|2:0,2:1:0:0:
281,168,169030,2,2,B|279:153|279:153|254:147|254:147|281:131|281:131|246:126|246:126|275:106|275:106|243:97|243:97|266:80|266:80|233:73|233:73|263:53|263:53|243:47|243:47|261:43|261:43|246:33|246:33,1,323.999990112305,4|0,3:0|2:0,2:1:0:0:
448,210,169280,6,0,B|434:209|434:209|423:216|423:216|409:214|409:214|402:208|402:208|394:216|394:216|382:211|382:211|352:229,1,96,8|0,3:0|2:0,2:1:0:0:
351,282,169405,2,0,B|349:261|349:261|361:255|361:255|359:243|359:243|367:240|367:240|362:224|362:224|377:216|377:216|386:206,1,96,4|0,3:0|2:0,2:1:0:0:
472,313,169530,86,2,B|453:304|475:280|452:274|452:274|421:270|430:240|400:244|400:244|399:244|399:244|365:240|397:204|377:210|377:210|376:209|376:209|353:199|342:206|351:199|356:179,1,198.000006042481,6|0,3:2|2:0,2:1:0:0:
158,319,169780,6,2,B|169:296|169:296|153:280|153:280|172:264|172:264|144:248|144:248|166:226|166:226|140:214|140:214|158:196|158:196|141:184|141:184,1,207.000003948212,4|0,3:0|2:0,2:1:0:0:
48,332,170029,2,2,B|32:311|32:311|46:290|46:290|23:280|23:280|48:259|48:259|22:242|22:242|45:225|45:225|24:211|24:211|38:196|38:196,1,207.000003948212,4|0,3:0|2:0,2:1:0:0:
158,319,170280,86,2,B|142:298|142:298|156:277|156:277|133:267|133:267|158:246|158:246|132:229|132:229|155:212|155:212|134:198|134:198|148:183|148:183,1,207.000003948212,4|0,3:0|2:0,2:1:0:0:
23,43,170530,5,8,3:1:0:0:
46,28,170592,1,8,3:0:0:0:
61,8,170655,1,4,3:0:0:0:
171,64,170780,85,4,3:0:0:0:
77,116,170905,1,4,3:0:0:0:
233,240,171030,6,2,B|223:211|212:225|212:225|195:226|170:213|164:249|164:249|133:256|143:282|143:282|138:301|152:300|152:300|155:318|166:332,1,188.999994232178,6|0,3:2|2:0,2:1:0:0:
84,377,171280,86,2,B|85:368|85:368|80:367|80:367|80:343|80:343|75:340|75:340|73:317|73:317|67:315|67:315|65:290|65:290|60:286|60:286|65:263|65:263,1,107.999996704102,4|0,3:0|2:0,2:1:0:0:
373,307,171530,2,2,B|374:298|374:298|369:297|369:297|369:273|369:273|364:270|364:270|362:247|362:247|356:245|356:245|354:220|354:220|349:216|349:216|354:193|354:193,1,107.999996704102,4|0,3:0|2:0,2:1:0:0:
158,319,171780,6,0,B|159:315|159:315|157:312|157:312|158:306|158:306|164:304|164:304|165:299|165:299|163:294|163:294|162:287|162:287|171:279|171:279|169:281,1,53.9999983520508,4|0,3:0|2:0,2:0:0:0:
294,341,171905,2,0,B|295:337|295:337|292:335|292:335|292:328|292:328|297:326|297:326|296:321|296:321|293:314|293:314|292:309|292:309|299:300|299:300|296:304,1,53.9999983520508,4|0,3:0|2:0,2:0:0:0:
269,147,172030,85,2,2:1:0:0:
254,153,172092,1,2,2:1:0:0:
235,185,172155,1,2,2:1:0:0:
221,195,172217,1,2,2:1:0:0:
198,189,172280,6,0,B|205:179|205:179|201:177|201:177|203:170|203:170|209:169|209:169|209:164|209:164|208:158|208:158|207:151|207:151|216:144|216:144|216:131,1,53.9999983520508,8|0,2:3|2:0,2:0:0:0:
340,228,172405,2,0,B|346:219|346:219|342:217|342:217|343:210|343:210|350:208|350:208|350:204|350:204|349:197|349:197|349:191|349:191|357:184|357:184|357:171,1,53.9999983520508,4|0,2:3|2:0,2:0:0:0:
465,60,172530,86,2,B|490:51|487:69|487:69|500:83|528:90|509:120|509:120|527:148|501:162|501:162|491:179|480:169|480:169|451:165,1,188.999994232178,6|0,3:2|2:0,2:1:0:0:
442,270,172780,6,2,B|436:241|436:241|443:235|443:235|426:216|426:216|429:211|429:211|426:190|426:190|430:184|430:184|424:154|424:154|419:152|419:152|409:140|409:140|414:117,1,170.999995433807,4|0,3:0|2:0,2:1:0:0:
281,291,173029,2,2,B|276:261|276:261|267:258|267:258|276:234|276:234|271:231|271:231|267:210|267:210|261:206|261:206|256:176|256:176|260:172|260:172|265:157|265:157|252:138,1,170.999995433807,4|0,3:0|2:0,2:1:0:0:
353,54,173280,86,0,L|322:56,3,30,2|2|2|2,2:3|2:3|2:3|2:3,2:0:0:0:
361,58,173530,2,0,L|296:30,1,60,2|0,2:3|2:0,2:0:0:0:
97,54,173780,6,0,L|89:26,1,30,2|0,2:3|2:0,2:0:0:0:
122,166,173905,2,0,L|130:194,1,30,2|0,2:3|2:0,2:0:0:0:
27,233,174030,86,2,B|4:214|21:209|21:209|29:193|25:164|61:170|61:170|80:144|103:163|103:163|129:159|120:184|120:184|139:190|124:207,1,198.000006042481,6|0,3:2|2:0,2:1:0:0:
186,339,174280,6,2,B|213:331|213:331|186:309|186:309|224:305|224:305|200:285|200:285|226:280|226:280|201:258|201:258|234:251|234:251|214:234|214:234|234:219|234:219|219:208|219:208|227:203|227:203|234:189|234:189,1,315.000003004074,4|0,3:0|2:0,2:1:0:0:
311,371,174530,2,2,B|290:351|290:351|324:344|324:344|292:323|292:323|323:316|323:316|302:300|302:300|334:292|334:292|308:270|308:270|333:264|333:264|322:242|322:242|341:239|341:239|336:231|336:231|336:215|336:215,1,315.000003004074,4|0,3:0|2:0,2:1:0:0:
186,339,174780,86,2,B|168:316|168:316|203:314|203:314|174:289|174:289|205:286|205:286|187:267|187:267|220:264|220:264|197:239|197:239|223:236|223:236|215:213|215:213|235:214|235:214|232:208|232:208|231:194|231:194,1,315.000003004074,4|0,3:0|2:0,2:1:0:0:
311,371,175030,2,2,B|336:359|336:359|306:341|306:341|343:332|343:332|317:315|317:315|342:307|342:307|314:288|314:288|346:277|346:277|324:263|324:263|341:245|341:245|324:237|324:237|329:233|329:233|336:221|336:221,1,315.000003004074,4|0,3:0|2:0,2:1:0:0:
161,135,175280,6,0,B|160:149|160:149|167:160|167:160|165:174|165:174|159:181|159:181|167:189|167:189|162:201|162:201|180:231,1,105.000001001358,8|0,3:0|2:0,2:0:0:0:
197,218,175405,2,0,B|199:193|199:193|185:186|185:186|187:172|187:172|178:169|178:169|166:158|166:158|166:141|166:141|156:129,1,105.000001001358,4|0,3:0|2:0,2:0:0:0:
48,47,175530,86,2,B|36:19|53:22|53:22|68:12|78:-14|107:7|107:7|136:-6|147:20|147:20|168:29|153:47|153:47|167:61|145:69,1,198.000006042481,6|0,3:2|2:0,2:1:0:0:
0,186,175780,6,2,B|-23:178|0:178|0:178|-13:164|-13:164|7:173|7:173|0:155|0:155|28:172|28:172|12:141|12:141|36:151|36:151|33:131|33:131|56:151|56:151|68:118,1,240,4|0,3:0|2:0,2:1:0:0:
391,164,176030,86,0,B|376:165|376:165|367:119,1,60,8|8,3:2|3:2,2:0:0:0:
360,97,176155,1,8,3:2:0:0:
210,188,176280,6,0,B|225:185|225:185|219:135,1,60,8|8,3:2|3:2,2:0:0:0:
216,117,176405,1,8,3:2:0:0:
309,230,176530,85,8,3:2:0:0:
305,207,176592,1,8,3:2:0:0:
301,185,176655,1,8,3:2:0:0:
297,162,176717,1,8,3:2:0:0:
293,143,176780,2,0,L|277:49,1,90.0000034332277,8|8,3:2|3:2,2:0:0:0:
483,115,177030,6,2,B|497:85|483:76|483:76|481:58|493:34|460:29|460:29|452:-1|427:8|427:8|408:4|408:18|408:18|393:41,1,188.999994232178,6|0,3:2|2:0,2:1:0:0:
464,188,177280,2,2,B|458:195|458:195|462:198|462:198|451:219|451:219|454:224|454:224|445:246|445:246|449:250|449:250|439:273|439:273|442:279|442:279|433:290|433:290,1,107.999996704102,4|0,3:0|2:0,2:1:0:0:
299,370,177530,21,2,3:2:0:0:
299,370,177655,2,0,L|255:361,3,38.9999982147218,0|0|0|0,3:2|2:0|2:0|2:0,2:0:0:0:
220,267,177905,2,0,P|216:238|225:224,1,38.9999982147218,2|2,2:1|2:1,2:0:0:0:
231,100,178030,86,0,B|254:113|258:132|227:134|227:134,1,45.0000017166138,2|0,2:3|2:0,2:0:0:0:
337,224,178155,2,0,B|303:199|256:217|219:269|219:269,1,135.000005149841,2|0,2:3|2:0,2:3:0:0:
274,365,178405,6,0,B|275:364|277:363|277:363|281:366|281:366|279:361|279:361|280:360|281:360|281:360|278:355|278:355|283:357|283:357|284:357|284:356|284:356|289:358|289:358|286:354|286:354|287:353|288:352|288:352|285:348|285:348|289:350|289:350|290:349|291:348|291:348|296:350|296:350|292:346|292:346|293:345|293:344|293:344|290:340|290:340|295:342|295:342|295:341|296:340|296:340|301:341|301:341|297:337|297:337|298:336|298:335|298:335|294:332|294:332|299:332|299:332|300:332|300:331|300:331|305:331|305:331|301:328|301:328|301:327|301:326|301:326|297:323|297:323|302:323|302:323|302:322|303:321|303:321|308:321|308:321|303:318|303:318|303:317|303:316|303:316|299:314|299:314|304:313|304:313|304:312|304:311|304:311|309:310|309:310|304:308|304:308|304:307|304:306|304:306|299:305|299:305|304:303|304:303|304:302|304:301|304:301|309:299|309:299|304:298|304:298|304:297|304:296|304:296|298:295|298:295|303:293|303:293|303:292|303:291|303:291|307:289|307:289|302:288|302:288|302:287|302:286|302:286|297:286|297:286|301:284|301:284|301:282|300:282|300:282|305:278|305:278|299:279|299:279|299:277|299:277|293:277|293:277|297:274|297:274|297:273|297:272|297:272|300:269|300:269|295:270|295:270|295:268|294:268|294:268|289:269|289:269|293:265|293:265|292:264|292:264|295:259|295:259|290:261|290:261|289:260|289:259|289:259|284:261|284:261|287:257|287:257|286:256|286:256|289:251|289:251|284:253|284:253|283:252|282:252|282:252|278:254|278:254|280:250|280:250|279:249|279:248|279:248|281:244|281:244|277:246|277:246|276:246|275:245|275:245|271:248|271:248|273:243|273:243|272:243|271:242|271:242|273:237|273:237|269:241|269:241|267:240|267:239|267:239|263:243|263:243|264:238|264:238|263:237|263:237|263:232|263:232|260:236|260:236|259:235|258:235|258:235|255:239|255:239|255:234|255:234|254:233|253:233|253:233|254:226|254:226|249:232|249:232|249:231|249:231|245:235|245:235|246:230|246:230|245:230|244:229|244:229|245:224|245:224|241:228|241:228|241:227|240:227|240:227|236:230|236:230|237:225|237:225|236:224|235:224|235:224|237:219|237:219|233:222|233:222|232:222|231:221|231:221|227:224|227:224|229:219|229:219|228:218|228:218|230:213|230:213|225:216|225:216|225:215|224:214|224:214|219:217|219:217|222:212|222:212|221:211|221:211|224:206|224:206|219:208|219:208|218:207|217:207|217:207|213:209|213:209|216:204|216:204|215:203|215:203|218:199|218:199|213:200|213:200|212:199|212:199|207:200|207:200|210:196|210:196|210:195|210:194|210:194|213:191|213:191|208:192|208:192|208:190|207:190|207:190|202:190|202:190|206:187|206:187|206:186|206:185|206:185|210:182|210:182|205:182|205:182|204:181|204:180|204:180|199:180|199:180|203:177|203:177|203:176|203:175|203:175|207:173|207:173|202:172|202:172|202:171|202:170|202:170|197:170|197:170|201:167|201:167|201:166|201:166|206:164|206:164|201:162|201:162|201:161|201:161|196:159|196:159|201:157|201:157|201:156|201:156|206:154|206:154|201:153|201:153|201:152|201:151|201:151|196:149|196:149|201:148|201:148|201:147|202:146|202:146|207:145|207:145|202:143|202:143|202:142|202:141|202:141|198:138|198:138|203:138|203:138|203:137|204:136|204:136|209:136|209:136|205:133|205:133|205:132|205:131|205:131|201:128|201:128|206:128|206:128|207:127|207:127|212:127|212:127|209:124|209:124|209:123|210:122|210:122|206:118|206:118|211:120|211:120|212:119|212:118|212:118|217:120|217:120|214:116|214:116|215:115|215:114|215:114|213:109|213:109|217:112|217:112|218:111|219:110|219:110|223:113|223:113|221:108|221:108|222:108|223:107|223:107|221:102|221:102|225:105|225:105|226:105|227:104|227:104|231:108|231:108|229:103|229:103|231:102|232:101,1,816.776321004483,0|0,2:0|2:0,2:0:0:0:
230,101,178780,2,0,L|382:138,1,132.00000402832,2|2,2:3|2:3,2:0:0:0:
511,237,179030,85,2,2:3:0:0:
474,253,179092,1,2,2:3:0:0:
466,256,179155,5,2,2:3:0:0:
456,230,179217,1,2,2:3:0:0:
447,229,179280,86,0,L|419:216,3,30,2|2|2|2,2:0|2:0|2:0|2:0,2:0:0:0:
437,144,179530,2,0,B|450:14,1,125.999996154785,2|2,2:0|2:0,2:0:0:0:
457,23,179780,6,0,P|439:-10|451:26,1,107.999996704102,8|0,2:1|2:0,2:0:0:0:
233,129,180030,54,2,B|241:157|253:139|253:139|267:113|282:123|282:123|301:105|313:121|313:121|340:121|342:144|342:144|364:157|354:168|354:168|348:189,1,180,6|0,3:2|2:0,2:1:0:0:
419,344,180280,6,2,B|405:315|405:315|386:333|386:333|376:309|376:309|365:329|365:329|347:305|347:305|335:324|335:324|317:299|317:299|312:320|312:320|294:302|294:302|282:315|282:315,1,240,4|2,3:0|2:3,2:1:0:0:
240,236,180467,85,2,2:3:0:0:
240,236,180530,2,2,B|260:224|260:224|262:243|262:243|283:240|283:240|285:260|285:260|302:265|302:265|293:282|293:282|309:292|309:292|292:303|292:303|304:323|304:323|288:321|288:321|288:344|288:344|272:333|272:333|263:364|263:364|255:347|255:347|234:374|234:374|214:350|214:350|203:366|203:366,1,360,4|0,3:0|2:3,2:1:0:0:
33,243,180780,6,2,B|47:272|47:272|66:254|66:254|76:278|76:278|87:258|87:258|105:282|105:282|117:263|117:263|135:288|135:288|140:267|140:267|158:285|158:285|170:272|170:272,1,240,4|2,3:0|2:3,2:1:0:0:
213,351,180967,85,2,2:3:0:0:
212,351,181030,2,2,B|192:363|192:363|190:344|190:344|169:347|169:347|167:327|167:327|150:322|150:322|159:305|159:305|143:295|143:295|160:284|160:284|148:264|148:264|164:266|164:266|164:243|164:243|180:254|180:254|189:223|189:223|197:240|197:240|218:213|218:213|238:237|238:237|249:221|249:221,1,360,4|0,3:0|2:0,2:1:0:0:
371,152,181280,6,0,B|384:175|384:175|376:184|376:184|385:197|385:197|379:214|379:214|388:234|388:234|384:250,1,96,8|0,3:0|2:0,2:0:0:0:
384,236,181405,2,0,B|369:216|369:216|375:204|375:204|365:196|365:196|365:176|365:176|354:160|354:160|353:144,1,96,4|0,3:0|2:0,2:0:0:0:
421,43,181530,86,2,B|399:28|399:28|403:59|403:59|371:40|371:40|376:71|376:71|348:50|348:50|348:82|348:82|324:60|324:60|321:90,1,240,4|4,3:0|2:3,2:1:0:0:
214,155,181717,5,4,2:3:0:0:
214,155,181779,2,0,B|195:137|195:137|222:129|222:129|195:112|195:112|227:102|227:102|199:90|199:90|231:75|231:75|205:62|205:62|234:51|234:51|205:39|205:39|234:19|234:19|209:16|209:16|227:-3,1,360,4|0,3:0|2:0,2:0:0:0:
30,25,182030,86,2,B|56:16|56:16|46:44|46:44|80:32|80:32|69:61|69:61|101:46|101:46|95:77|95:77|123:61|123:61|120:90,1,240,4|4,3:0|2:3,2:1:0:0:
214,155,182217,5,4,2:3:0:0:
214,155,182280,2,0,B|237:140|237:140|211:128|211:128|240:115|240:115|211:101|211:101|239:93|239:93|211:73|211:73|240:64|240:64|212:49|212:49|243:42|243:42|217:17|217:17|243:18|243:18|228:-3,1,360,4|0,3:0|2:0,2:0:0:0:
46,140,182530,85,8,3:1:0:0:
59,164,182592,1,8,3:0:0:0:
62,191,182655,1,4,3:0:0:0:
0,242,182780,5,8,3:0:0:0:
144,180,182905,1,8,3:0:0:0:
49,322,183030,86,2,B|39:331|45:346|45:346|36:354|50:364|50:364|60:386|84:372|84:372|108:391|116:368|129:358|129:358|144:361|160:340|147:320,1,180,6|0,3:2|2:0,2:1:0:0:
112,252,183280,6,2,B|112:261|112:261|117:261|117:261|122:284|122:284|127:286|127:286|134:308|134:308|140:309|140:309|147:333|147:333|152:336|152:336|151:350|151:350,1,102.000001945496,4|0,3:0|2:0,2:1:0:0:
380,156,183530,2,2,B|380:165|380:165|385:165|385:165|390:188|390:188|395:190|395:190|402:212|402:212|408:213|408:213|415:237|415:237|420:240|420:240|419:260|419:260,1,102.000001945496,4|0,3:0|2:0,2:1:0:0:
142,33,183780,86,2,B|140:45|140:45|153:55|153:55|156:85|156:85|157:79,1,60,8|0,3:0|2:0,2:1:0:0:
217,6,183905,2,2,B|217:16|217:16|231:26|231:26|239:56|239:56|237:51,1,60,8|0,3:0|2:0,2:1:0:0:
182,152,184030,6,2,B|181:164|181:164|194:173|194:173|198:204|198:204|198:198,1,60,4|0,3:0|2:0,2:1:0:0:
263,122,184155,2,2,B|263:132|263:132|277:142|277:142|286:170|286:170|283:167,1,60,4|0,3:0|2:0,2:1:0:0:
227,274,184280,86,2,B|226:286|226:286|239:295|239:295|248:327|248:327|243:320,1,60,4|0,3:0|2:0,2:1:0:0:
305,242,184405,2,2,B|305:252|305:252|319:262|319:262|328:291|328:291|326:300,1,60,4|0,3:0|2:0,2:1:0:0:
112,252,184530,6,2,B|112:259|112:259|116:259|116:259|120:280|120:280|125:281|125:281|131:301|131:301|136:302|136:302|142:323|142:323|149:329|149:329|147:347|147:347,1,102.000001945496,4|0,3:0|2:0,2:1:0:0:
380,156,184780,2,2,B|380:163|380:163|384:163|384:163|388:184|388:184|393:185|393:185|399:205|399:205|404:206|404:206|410:227|410:227|415:233|415:233|415:251|415:251,1,102.000001945496,4|0,3:0|2:0,2:1:0:0:
112,252,185030,86,2,B|112:259|112:259|116:259|116:259|120:280|120:280|125:281|125:281|131:301|131:301|136:302|136:302|142:323|142:323|147:326|147:326|147:347|147:347,1,102.000001945496,4|0,3:0|2:0,2:1:0:0:
268,216,185280,5,2,2:3:0:0:
263,226,185342,1,2,2:3:0:0:
274,240,185405,2,0,L|307:254,1,30,2|2,2:3|2:3,2:0:0:0:
240,331,185530,86,0,L|272:321,1,30,2|0,2:3|2:0,2:0:0:0:
242,342,185655,2,0,L|275:333,1,30,2|0,2:3|2:0,2:0:0:0:
378,384,185780,6,0,P|369:371|366:357,1,30,2|0,2:3|2:0,2:0:0:0:
414,272,185905,2,0,P|432:262|445:263,1,30,2|0,2:3|2:0,2:0:0:0:
503,368,186030,86,2,B|507:343|492:330|492:330|489:295|458:287|458:287|426:291|422:263|422:263|389:240|399:216,1,198.000006042481,6|0,3:2|2:0,2:1:0:0:
501,22,186280,6,2,B|473:15|473:15|485:40|485:40|452:27|452:27|457:58|457:58|433:32|433:32|430:65|430:65|411:37|411:37|403:67|403:67,1,240,4|2,3:0|2:3,2:1:0:0:
256,17,186467,85,2,2:3:0:0:
256,17,186530,2,2,B|288:13|288:13|265:45|265:45|305:39|305:39|281:72|281:72|324:64|324:64|300:95|300:95|339:90|339:90|322:115|322:115|359:110|359:110|334:142|334:142|367:133|367:133,1,360,4|0,3:0|2:3,2:1:0:0:
249,268,186780,6,2,B|242:241|242:241|268:251|268:251|253:219|253:219|284:223|284:223|257:200|257:200|290:196|290:196|260:178|260:178|290:169|290:169,1,240,4|2,3:0|2:3,2:1:0:0:
228,33,186967,85,2,2:3:0:0:
228,33,187030,2,2,B|229:65|229:65|257:38|257:38|256:78|256:78|286:50|286:50|284:94|284:94|311:66|311:66|312:105|312:105|334:85|334:85|334:122|334:122|363:93|363:93|358:126|358:126,1,360,4|0,3:0|2:0,2:1:0:0:
404,222,187280,6,0,B|415:203|415:203|425:204|425:204|430:193|430:193|445:188|445:188|454:176|454:176|467:172,1,75,8|0,3:0|2:0,2:0:0:0:
455,176,187405,2,0,B|435:178|435:178|431:188|431:188|420:188|420:188|410:200|410:200|395:205|395:205|385:213,1,75,4|0,3:0|2:0,2:0:0:0:
272,365,187530,86,2,B|300:362|297:347|297:347|306:334|327:325|309:303|309:303|321:277|298:269|298:269|288:255|281:265|281:265|265:259|252:269|252:269|240:266,1,188.999994232178,6|0,3:2|2:0,2:1:0:0:
107,373,187780,6,2,B|91:349|91:349|81:375|81:375|68:342|68:342|50:368|50:368|51:332|51:332|26:354|26:354|32:320|32:320|5:336|5:336,1,240,4|0,3:0|2:0,2:1:0:0:
121,164,188030,86,0,B|136:165|136:165|141:121,1,60,8|8,3:2|3:2,2:0:0:0:
144,97,188155,1,8,3:2:0:0:
302,188,188280,6,0,B|287:185|287:185|295:142,1,60,8|8,3:2|3:2,2:0:0:0:
296,117,188405,1,8,3:2:0:0:
203,230,188530,85,8,3:2:0:0:
207,207,188592,1,8,3:2:0:0:
211,185,188655,1,8,3:2:0:0:
215,162,188717,1,8,3:2:0:0:
219,142,188780,2,0,L|240:21,1,120,8|8,3:2|3:2,2:0:0:0:
413,7,189030,5,8,2:3:0:0:
507,59,189155,1,4,2:3:0:0:
473,165,189280,2,0,L|415:191,1,60,4|0,2:3|2:3,2:0:0:0:
159,90,189530,85,4,2:3:0:0:
95,144,189655,1,4,2:3:0:0:
138,220,189780,2,0,L|179:229,1,41.9999987182618,4|0,2:3|2:3,2:0:0:0:
337,243,190030,5,4,2:3:0:0:
389,274,190155,1,4,2:3:0:0:
365,334,190280,2,0,L|334:344,1,30,4|0,2:3|2:3,2:0:0:0:
216,305,190530,54,0,L|196:327,7,30,2|2|2|2|2|2|2|2,2:0|2:0|2:0|2:0|2:0|2:0|2:0|2:0,2:0:0:0:
183,328,191030,2,0,L|180:353,7,22.5000008583069,2|2|2|2|2|2|2|2,2:0|2:0|2:0|2:0|2:0|2:0|2:0|2:0,2:0:0:0:
166,354,191530,5,2,2:0:0:0:
334,356,191780,1,2,2:0:0:0:
251,384,192030,1,2,2:0:0:0:
