osu file format v14

[General]
AudioFilename: audio.ogg
AudioLeadIn: 0
PreviewTime: 56076
Countdown: 0
SampleSet: Soft
StackLeniency: 0.7
Mode: 3
LetterboxInBreaks: 0
SpecialStyle: 0
WidescreenStoryboard: 1

[Editor]
DistanceSpacing: 1.5
BeatDivisor: 4
GridSize: 16
TimelineZoom: 2

[Metadata]
Title:Sansan Days (TV Size)
TitleUnicode:燦々デイズ (TV Size)
Artist:Spira Spica
ArtistUnicode:スピラ・スピカ
Creator:Syadow-
Version:5K Standard
Source:その着せ替え人形は恋をする
Tags:japanese pop anime sono bisque doll wa koi wo suru my dress up darling dress-up cosplay j-pop jpop op opening kyousuke- hotaru- -[hotaru]- angki
BeatmapID:3488273
BeatmapSetID:1671022

[Difficulty]
HPDrainRate:7.4
CircleSize:5
OverallDifficulty:7.4
ApproachRate:5
SliderMultiplier:1.4
SliderTickRate:1

[Events]
//Background and Video events
0,0,"marink.jpg",0,0
//Break Periods
//Storyboard Layer 0 (Background)
//Storyboard Layer 1 (Fail)
//Storyboard Layer 2 (Pass)
//Storyboard Layer 3 (Foreground)
//Storyboard Layer 4 (Overlay)
//Storyboard Sound Samples

[TimingPoints]
1410,333.333333333333,4,2,1,50,1,0
56076,-100,4,2,1,50,0,1
64076,-100,4,2,1,50,0,0
66743,-100,4,2,1,50,0,1
74743,-100,4,2,1,50,0,0
82743,-100,4,2,1,50,0,1
86576,-100,4,2,1,50,0,0

[HitObjects]
460,192,1243,5,0,0:0:0:70:tom01.wav
51,192,1410,128,0,2409:0:0:0:0:
256,192,1410,1,0,0:0:0:0:
256,192,2409,1,8,0:0:0:0:
460,192,2409,1,0,0:0:0:0:
153,192,2743,1,2,0:0:0:0:
358,192,2743,128,4,3743:0:0:0:0:
51,192,3743,1,0,0:0:0:70:tom03.wav
256,192,3743,1,0,0:0:0:0:
153,192,4076,128,4,4743:0:0:0:0:
358,192,4076,1,2,0:0:0:0:
256,192,4743,1,2,0:0:0:0:
460,192,4743,128,4,5409:0:0:0:0:
51,192,5409,1,4,0:0:0:0:
256,192,5409,1,2,0:0:0:0:
153,192,5743,1,2,0:0:0:0:
358,192,5743,1,8,0:0:0:0:
256,192,6076,1,2,0:0:0:0:
460,192,6076,1,8,0:0:0:0:
153,192,6243,1,0,0:0:0:0:
51,192,6409,1,2,0:0:0:0:
460,192,6409,1,8,0:0:0:0:
153,192,6743,1,2,0:0:0:0:
358,192,6743,1,4,0:0:0:0:
460,192,7076,1,2,0:0:0:0:
51,192,7243,1,8,0:0:0:0:
256,192,7243,1,0,0:0:0:0:
153,192,7576,1,2,0:0:0:0:
256,192,7743,1,8,0:0:0:0:
460,192,7743,1,0,0:0:0:0:
358,192,8076,1,2,0:0:0:0:
153,192,8409,1,2,0:0:0:0:
51,192,8576,1,8,0:0:0:0:
460,192,8576,1,0,0:0:0:0:
256,192,8909,1,2,0:0:0:0:
358,192,9076,1,8,0:0:0:0:
460,192,9076,1,0,0:0:0:0:
51,192,9409,1,4,0:0:0:0:
256,192,9409,1,8,0:0:0:0:
358,192,9576,1,2,0:0:0:0:
153,192,9743,1,0,0:0:0:70:tom02.wav
256,192,9909,1,8,0:0:0:0:
460,192,9909,1,0,0:0:0:0:
51,192,10076,1,2,0:0:0:0:
153,192,10243,1,0,0:0:0:70:tom03.wav
358,192,10243,1,0,0:0:0:0:
460,192,10409,1,2,0:0:0:0:
51,192,10576,128,8,11743:0:0:0:0:
256,192,10576,1,4,0:0:0:0:
358,192,11076,1,0,0:0:0:0:
153,192,11409,1,2,0:0:0:0:
256,192,11576,1,8,0:0:0:0:
358,192,11743,1,8,0:0:0:0:
460,192,11743,1,0,0:0:0:0:
51,192,12076,1,4,0:0:0:0:
153,192,12076,1,2,0:0:0:0:
256,192,12243,1,2,0:0:0:0:
358,192,12409,1,8,0:0:0:0:
460,192,12409,1,0,0:0:0:0:
153,192,12576,1,2,0:0:0:0:
358,192,12909,1,2,0:0:0:0:
51,192,13076,1,8,0:0:0:0:
256,192,13076,1,0,0:0:0:0:
153,192,13243,1,2,0:0:0:0:
358,192,13409,1,2,0:0:0:0:
460,192,13409,1,0,0:0:0:0:
256,192,13576,1,2,0:0:0:0:
51,192,13743,1,8,0:0:0:0:
153,192,13743,1,0,0:0:0:0:
358,192,13909,1,2,0:0:0:0:
153,192,14243,1,2,0:0:0:0:
256,192,14409,1,8,0:0:0:0:
460,192,14409,1,0,0:0:0:0:
51,192,14743,128,2,14909:0:0:0:0:
256,192,14909,128,8,15076:0:0:0:0:
460,192,15076,128,2,15243:0:0:0:0:
51,192,15243,128,8,15409:0:0:0:0:
358,192,15409,128,0,15576:0:0:0:70:tom01.wav
153,192,15576,128,0,15743:0:0:0:70:tom03.wav
460,192,15743,128,12,16076:0:0:0:0:
51,192,16076,1,2,0:0:0:0:
256,192,16076,1,0,0:0:0:0:
51,192,16409,1,2,0:0:0:0:
256,192,16409,1,0,0:0:0:0:
153,192,16909,1,8,0:0:0:0:
358,192,16909,1,0,0:0:0:0:
153,192,17076,128,8,17409:0:0:0:0:
358,192,17076,128,4,17409:0:0:0:0:
51,192,17409,1,2,0:0:0:0:
460,192,17409,1,4,0:0:0:0:
256,192,17743,1,8,0:0:0:0:
460,192,17743,1,0,0:0:0:0:
358,192,18076,1,0,0:0:0:0:
51,192,18243,1,2,0:0:0:0:
153,192,18409,1,8,0:0:0:0:
358,192,18409,1,0,0:0:0:0:
460,192,18743,1,2,0:0:0:0:
51,192,19076,1,8,0:0:0:0:
256,192,19076,1,0,0:0:0:0:
153,192,19409,1,0,0:0:0:0:
358,192,19576,1,2,0:0:0:0:
153,192,19743,1,8,0:0:0:0:
460,192,19743,1,0,0:0:0:0:
256,192,20076,1,2,0:0:0:0:
51,192,20409,1,8,0:0:0:0:
358,192,20409,1,0,0:0:0:0:
256,192,20743,1,0,0:0:0:0:
153,192,20909,1,2,0:0:0:0:
256,192,21076,1,8,0:0:0:0:
460,192,21076,1,0,0:0:0:0:
358,192,21409,1,2,0:0:0:0:
51,192,21743,1,8,0:0:0:0:
256,192,21743,1,0,0:0:0:0:
460,192,22076,1,0,0:0:0:0:
358,192,22243,1,2,0:0:0:0:
153,192,22409,1,8,0:0:0:0:
460,192,22409,1,0,0:0:0:0:
256,192,22743,1,2,0:0:0:0:
51,192,23076,1,8,0:0:0:0:
358,192,23076,1,0,0:0:0:0:
256,192,23409,1,0,0:0:0:0:
153,192,23576,1,2,0:0:0:0:
256,192,23743,1,8,0:0:0:0:
460,192,23743,1,0,0:0:0:0:
358,192,24076,1,2,0:0:0:0:
51,192,24409,1,8,0:0:0:0:
256,192,24409,1,0,0:0:0:0:
153,192,24743,1,0,0:0:0:0:
460,192,24909,1,2,0:0:0:0:
153,192,25076,1,8,0:0:0:0:
358,192,25076,1,0,0:0:0:0:
51,192,25409,1,2,0:0:0:0:
256,192,25743,1,8,0:0:0:0:
460,192,25743,1,0,0:0:0:0:
51,192,26076,1,0,0:0:0:0:
153,192,26243,1,2,0:0:0:0:
51,192,26409,1,8,0:0:0:0:
358,192,26409,1,4,0:0:0:0:
460,192,26743,1,2,0:0:0:0:
51,192,26909,1,8,0:0:0:0:
153,192,26909,1,0,0:0:0:0:
460,192,27243,1,2,0:0:0:0:
153,192,27409,1,8,0:0:0:0:
256,192,27409,1,0,0:0:0:0:
358,192,27576,1,2,0:0:0:0:
153,192,27743,1,8,0:0:0:0:
460,192,27743,1,4,0:0:0:0:
51,192,27909,128,8,28076:0:0:0:0:
256,192,28076,1,4,0:0:0:0:
460,192,28076,1,2,0:0:0:0:
153,192,28409,1,8,0:0:0:0:
358,192,28409,1,0,0:0:0:0:
51,192,28743,1,0,0:0:0:0:
256,192,28909,1,2,0:0:0:0:
51,192,29076,1,8,0:0:0:0:
460,192,29076,1,0,0:0:0:0:
358,192,29409,1,2,0:0:0:0:
51,192,29743,1,8,0:0:0:0:
256,192,29743,1,0,0:0:0:0:
460,192,30076,1,0,0:0:0:0:
153,192,30243,1,2,0:0:0:0:
51,192,30409,1,8,0:0:0:0:
460,192,30409,1,0,0:0:0:0:
358,192,30743,1,2,0:0:0:0:
51,192,31076,1,8,0:0:0:0:
256,192,31076,1,0,0:0:0:0:
153,192,31409,1,0,0:0:0:0:
460,192,31576,1,2,0:0:0:0:
153,192,31743,1,8,0:0:0:0:
358,192,31743,1,0,0:0:0:0:
256,192,32076,1,2,0:0:0:0:
51,192,32409,1,8,0:0:0:0:
358,192,32409,1,0,0:0:0:0:
256,192,32743,1,0,0:0:0:0:
153,192,32909,1,2,0:0:0:0:
256,192,33076,1,8,0:0:0:0:
460,192,33076,1,0,0:0:0:0:
358,192,33409,1,2,0:0:0:0:
51,192,33743,1,8,0:0:0:0:
256,192,33743,1,0,0:0:0:0:
460,192,34076,1,0,0:0:0:0:
153,192,34243,1,2,0:0:0:0:
51,192,34409,1,8,0:0:0:0:
460,192,34409,1,0,0:0:0:0:
358,192,34743,1,2,0:0:0:0:
51,192,35076,1,8,0:0:0:0:
256,192,35076,1,0,0:0:0:0:
153,192,35409,1,0,0:0:0:0:
358,192,35576,1,2,0:0:0:0:
153,192,35743,1,8,0:0:0:0:
460,192,35743,1,0,0:0:0:0:
256,192,36076,1,2,0:0:0:0:
51,192,36409,1,8,0:0:0:0:
358,192,36409,1,0,0:0:0:0:
256,192,36743,1,0,0:0:0:0:
153,192,36909,1,2,0:0:0:0:
51,192,37076,1,8,0:0:0:0:
460,192,37076,1,0,0:0:0:0:
358,192,37243,1,2,0:0:0:0:
51,192,37409,1,8,0:0:0:0:
256,192,37409,1,0,0:0:0:0:
358,192,37576,1,2,0:0:0:0:
256,192,37909,1,8,0:0:0:0:
460,192,37909,1,0,0:0:0:0:
153,192,38243,1,2,0:0:0:0:
51,192,38409,1,8,0:0:0:0:
358,192,38409,1,0,0:0:0:0:
153,192,38743,1,2,0:0:0:0:
460,192,38743,1,4,0:0:0:0:
256,192,38909,1,0,0:0:0:0:
358,192,39076,1,2,0:0:0:0:
153,192,39243,1,0,0:0:0:0:
51,192,39409,1,8,0:0:0:0:
460,192,39409,1,0,0:0:0:0:
153,192,39743,1,0,0:0:0:0:
256,192,40076,1,2,0:0:0:0:
460,192,40076,1,0,0:0:0:0:
51,192,40243,1,2,0:0:0:0:
460,192,40409,1,0,0:0:0:0:
358,192,40576,1,2,0:0:0:0:
51,192,40743,1,8,0:0:0:0:
256,192,40743,1,0,0:0:0:0:
358,192,41076,1,0,0:0:0:0:
51,192,41409,1,2,0:0:0:0:
460,192,41409,1,0,0:0:0:0:
153,192,41576,1,0,0:0:0:0:
358,192,41743,1,2,0:0:0:0:
51,192,41909,1,0,0:0:0:0:
256,192,42076,1,8,0:0:0:0:
460,192,42076,1,0,0:0:0:0:
153,192,42409,1,0,0:0:0:0:
51,192,42743,1,2,0:0:0:0:
358,192,42743,1,0,0:0:0:0:
460,192,42909,1,2,0:0:0:0:
153,192,43076,1,0,0:0:0:0:
358,192,43243,1,2,0:0:0:0:
51,192,43409,1,8,0:0:0:0:
256,192,43409,1,0,0:0:0:0:
153,192,43743,1,8,0:0:0:0:
358,192,43743,1,0,0:0:0:0:
256,192,44076,1,2,0:0:0:0:
460,192,44076,1,4,0:0:0:0:
51,192,44409,1,8,0:0:0:0:
153,192,44409,1,0,0:0:0:0:
358,192,44576,1,2,0:0:0:0:
358,192,44909,1,2,0:0:0:0:
51,192,45076,1,8,0:0:0:0:
256,192,45076,1,0,0:0:0:0:
153,192,45409,1,2,0:0:0:0:
358,192,45409,1,0,0:0:0:0:
256,192,45743,1,8,0:0:0:0:
460,192,45743,1,0,0:0:0:0:
51,192,46076,1,0,0:0:0:0:
153,192,46243,1,2,0:0:0:0:
358,192,46409,1,8,0:0:0:0:
460,192,46409,1,0,0:0:0:0:
51,192,46743,1,2,0:0:0:0:
256,192,46743,1,0,0:0:0:0:
358,192,47076,1,8,0:0:0:0:
460,192,47076,1,0,0:0:0:0:
153,192,47243,1,2,0:0:0:0:
153,192,47576,1,2,0:0:0:0:
256,192,47743,1,8,0:0:0:0:
460,192,47743,1,0,0:0:0:0:
51,192,48076,1,4,0:0:0:0:
358,192,48076,1,8,0:0:0:0:
358,192,48243,1,2,0:0:0:70:tom01.wav
256,192,48409,1,2,0:0:0:70:tom02.wav
256,192,48576,1,2,0:0:0:70:tom02.wav
153,192,48743,1,2,0:0:0:70:tom03.wav
153,192,48909,1,2,0:0:0:70:tom03.wav
51,192,49076,1,8,0:0:0:0:
460,192,49076,1,4,0:0:0:0:
51,192,49409,1,2,0:0:0:0:
256,192,49409,1,4,0:0:0:0:
153,192,49743,1,0,0:0:0:0:
358,192,50076,1,4,0:0:0:0:
460,192,50076,1,2,0:0:0:0:
256,192,50409,1,0,0:0:0:0:
153,192,50743,1,2,0:0:0:0:
358,192,50743,1,4,0:0:0:0:
460,192,51076,1,0,0:0:0:0:
51,192,51409,1,4,0:0:0:0:
153,192,51409,1,2,0:0:0:0:
256,192,51743,1,8,0:0:0:0:
460,192,51743,1,0,0:0:0:0:
51,192,52076,1,8,0:0:0:0:
460,192,52076,1,4,0:0:0:0:
153,192,52243,1,2,0:0:0:0:
153,192,52409,1,8,0:0:0:0:
358,192,52409,1,0,0:0:0:0:
256,192,52576,1,2,0:0:0:0:
153,192,52743,1,8,0:0:0:0:
358,192,52743,1,0,0:0:0:0:
358,192,52909,1,2,0:0:0:0:
51,192,53076,1,8,0:0:0:0:
460,192,53076,1,4,0:0:0:0:
153,192,53409,1,2,0:0:0:0:
256,192,53576,1,8,0:0:0:0:
460,192,53576,1,0,0:0:0:0:
153,192,53743,1,8,0:0:0:0:
358,192,53743,1,0,0:0:0:0:
51,192,53909,1,8,0:0:0:0:
256,192,53909,1,0,0:0:0:0:
358,192,54076,1,8,0:0:0:0:
460,192,54076,1,0,0:0:0:0:
256,192,54243,128,2,54409:0:0:0:0:
51,192,54409,1,8,0:0:0:0:
153,192,54409,1,4,0:0:0:0:
256,192,54743,1,8,0:0:0:0:
460,192,54743,1,0,0:0:0:0:
256,192,55076,1,8,0:0:0:0:
460,192,55076,1,0,0:0:0:0:
51,192,55576,1,8,0:0:0:0:
460,192,55576,1,0,0:0:0:0:
51,192,55743,128,8,56076:0:0:0:0:
460,192,55743,128,4,56076:0:0:0:0:
153,192,56076,1,2,0:0:0:0:
358,192,56076,1,4,0:0:0:0:
51,192,56409,1,8,0:0:0:0:
256,192,56409,1,0,0:0:0:0:
358,192,56743,1,8,0:0:0:0:
460,192,56743,1,0,0:0:0:0:
256,192,56909,1,2,0:0:0:0:
153,192,57076,1,8,0:0:0:0:
460,192,57076,1,0,0:0:0:0:
358,192,57243,1,2,0:0:0:0:
51,192,57409,1,8,0:0:0:0:
256,192,57409,1,0,0:0:0:0:
153,192,57743,1,8,0:0:0:0:
460,192,57743,1,0,0:0:0:0:
256,192,58076,1,8,0:0:0:0:
358,192,58076,1,0,0:0:0:0:
153,192,58243,1,2,0:0:0:0:
51,192,58409,1,8,0:0:0:0:
358,192,58409,1,0,0:0:0:0:
460,192,58576,1,2,0:0:0:0:
51,192,58743,1,8,0:0:0:0:
256,192,58743,1,0,0:0:0:0:
358,192,59076,1,8,0:0:0:0:
460,192,59076,1,0,0:0:0:0:
256,192,59409,1,8,0:0:0:0:
358,192,59409,1,0,0:0:0:0:
51,192,59576,1,2,0:0:0:0:
153,192,59743,1,8,0:0:0:0:
256,192,59743,1,0,0:0:0:0:
358,192,59909,1,2,0:0:0:0:
51,192,60076,128,8,60409:0:0:0:0:
460,192,60076,1,0,0:0:0:0:
153,192,60409,1,8,0:0:0:0:
358,192,60409,1,0,0:0:0:0:
256,192,60743,1,8,0:0:0:0:
460,192,60743,1,0,0:0:0:0:
153,192,60909,1,2,0:0:0:0:
51,192,61076,1,8,0:0:0:0:
358,192,61076,1,0,0:0:0:0:
256,192,61243,1,2,0:0:0:0:
153,192,61409,1,4,0:0:0:0:
358,192,61409,1,8,0:0:0:0:
51,192,61743,1,8,0:0:0:0:
460,192,61743,1,0,0:0:0:0:
153,192,62076,1,8,0:0:0:0:
256,192,62076,1,0,0:0:0:0:
358,192,62243,1,2,0:0:0:0:
51,192,62409,1,8,0:0:0:0:
460,192,62409,1,0,0:0:0:0:
153,192,62576,1,2,0:0:0:0:
256,192,62743,1,8,0:0:0:0:
460,192,62743,1,0,0:0:0:0:
51,192,63076,1,8,0:0:0:0:
358,192,63076,1,0,0:0:0:0:
153,192,63409,1,8,0:0:0:0:
460,192,63409,1,0,0:0:0:0:
256,192,63576,1,2,0:0:0:0:
51,192,63743,1,8,0:0:0:0:
358,192,63743,1,0,0:0:0:0:
153,192,64076,1,8,0:0:0:0:
460,192,64076,1,0,0:0:0:0:
256,192,64243,1,2,0:0:0:0:
358,192,64243,1,0,0:0:0:0:
51,192,64576,1,8,0:0:0:0:
460,192,64576,1,0,0:0:0:0:
153,192,64743,1,0,0:0:0:70:tom03.wav
256,192,64743,1,0,0:0:0:0:
358,192,64909,1,0,0:0:0:70:tom02.wav
460,192,64909,1,0,0:0:0:0:
51,192,65076,1,0,0:0:0:70:tom01.wav
153,192,65076,1,0,0:0:0:0:
256,192,65243,1,4,0:0:0:0:
460,192,65243,1,2,0:0:0:0:
153,192,65576,1,2,0:0:0:0:
358,192,65576,1,0,0:0:0:0:
51,192,65743,128,8,66076:0:0:0:0:
460,192,65743,1,0,0:0:0:0:
256,192,66076,1,2,0:0:0:0:
153,192,66243,1,8,0:0:0:0:
358,192,66243,1,0,0:0:0:0:
153,192,66409,128,8,66743:0:0:0:0:
358,192,66409,128,0,66743:0:0:0:0:
51,192,66743,1,2,0:0:0:0:
460,192,66743,1,4,0:0:0:0:
256,192,67076,1,8,0:0:0:0:
460,192,67076,1,0,0:0:0:0:
153,192,67409,1,8,0:0:0:0:
358,192,67409,1,0,0:0:0:0:
460,192,67576,1,2,0:0:0:0:
51,192,67743,1,8,0:0:0:0:
256,192,67743,1,0,0:0:0:0:
358,192,67909,1,2,0:0:0:0:
153,192,68076,1,8,0:0:0:0:
460,192,68076,1,0,0:0:0:0:
51,192,68409,1,8,0:0:0:0:
358,192,68409,1,0,0:0:0:0:
153,192,68743,1,8,0:0:0:0:
256,192,68743,1,0,0:0:0:0:
460,192,68909,1,2,0:0:0:0:
51,192,69076,1,8,0:0:0:0:
153,192,69076,1,0,0:0:0:0:
256,192,69243,1,2,0:0:0:0:
358,192,69409,1,8,0:0:0:0:
460,192,69409,1,0,0:0:0:0:
153,192,69743,1,8,0:0:0:0:
358,192,69743,1,0,0:0:0:0:
51,192,70076,1,8,0:0:0:0:
256,192,70076,1,0,0:0:0:0:
460,192,70243,1,2,0:0:0:0:
153,192,70409,1,8,0:0:0:0:
358,192,70409,1,0,0:0:0:0:
51,192,70576,1,2,0:0:0:0:
256,192,70743,128,8,71076:0:0:0:0:
460,192,70743,1,0,0:0:0:0:
153,192,71076,1,8,0:0:0:0:
358,192,71076,1,0,0:0:0:0:
256,192,71409,1,8,0:0:0:0:
460,192,71409,1,0,0:0:0:0:
153,192,71576,1,2,0:0:0:0:
51,192,71743,1,8,0:0:0:0:
358,192,71743,1,0,0:0:0:0:
460,192,71909,1,2,0:0:0:0:
51,192,72076,1,8,0:0:0:0:
256,192,72076,1,4,0:0:0:0:
153,192,72409,1,8,0:0:0:0:
358,192,72409,1,0,0:0:0:0:
256,192,72743,1,8,0:0:0:0:
460,192,72743,1,0,0:0:0:0:
153,192,72909,1,2,0:0:0:0:
51,192,73076,1,8,0:0:0:0:
358,192,73076,1,0,0:0:0:0:
256,192,73243,1,2,0:0:0:0:
358,192,73409,1,8,0:0:0:0:
460,192,73409,1,0,0:0:0:0:
51,192,73743,1,8,0:0:0:0:
153,192,73743,1,0,0:0:0:0:
256,192,74076,1,8,0:0:0:0:
51,192,74076,1,0,0:0:0:0:
358,192,74243,1,2,0:0:0:0:
153,192,74409,1,8,0:0:0:0:
460,192,74409,1,0,0:0:0:0:
256,192,74743,1,8,0:0:0:0:
358,192,74743,1,0,0:0:0:0:
51,192,74909,1,2,0:0:0:0:
460,192,74909,1,0,0:0:0:0:
51,192,75243,1,8,0:0:0:0:
256,192,75243,1,0,0:0:0:0:
358,192,75409,1,0,0:0:0:70:tom03.wav
460,192,75409,1,0,0:0:0:0:
51,192,75743,1,0,0:0:0:70:tom01.wav
153,192,75743,1,0,0:0:0:0:
256,192,75909,1,2,0:0:0:0:
460,192,75909,1,4,0:0:0:0:
358,192,76243,1,2,0:0:0:0:
51,192,76409,1,8,0:0:0:0:
256,192,76409,1,0,0:0:0:0:
358,192,76576,1,2,0:0:0:0:
153,192,76743,1,2,0:0:0:0:
256,192,76909,1,8,0:0:0:0:
460,192,76909,1,0,0:0:0:0:
256,192,77076,128,8,77409:0:0:0:0:
460,192,77076,128,0,77409:0:0:0:0:
51,192,77409,1,2,0:0:0:0:
153,192,77409,1,4,0:0:0:0:
358,192,77576,1,2,0:0:0:0:
51,192,77909,1,2,0:0:0:0:
153,192,78076,1,8,0:0:0:0:
358,192,78076,1,0,0:0:0:0:
256,192,78409,1,0,0:0:0:0:
460,192,78409,1,0,0:0:0:0:
51,192,78743,1,2,0:0:0:0:
153,192,78743,1,0,0:0:0:0:
358,192,79076,1,0,0:0:0:0:
460,192,79076,1,0,0:0:0:0:
256,192,79243,1,2,0:0:0:0:
51,192,79409,1,8,0:0:0:0:
153,192,79409,1,0,0:0:0:0:
358,192,79576,1,8,0:0:0:0:
256,192,79743,1,8,0:0:0:0:
460,192,79743,1,2,0:0:0:0:
51,192,80076,1,2,0:0:0:0:
358,192,80076,1,4,0:0:0:0:
460,192,80243,1,2,0:0:0:0:
153,192,80576,1,2,0:0:0:0:
256,192,80743,1,8,0:0:0:0:
460,192,80743,1,0,0:0:0:0:
51,192,81076,1,2,0:0:0:0:
153,192,81076,1,0,0:0:0:0:
51,192,81409,128,8,81743:0:0:0:0:
358,192,81409,1,2,0:0:0:0:
256,192,81743,1,8,0:0:0:0:
460,192,81743,1,2,0:0:0:0:
358,192,81909,128,8,82076:0:0:0:0:
153,192,82076,128,10,82243:0:0:0:0:
460,192,82243,128,8,82409:0:0:0:0:
256,192,82409,128,10,82576:0:0:0:0:
51,192,82576,128,8,82743:0:0:0:0:
256,192,82743,1,2,0:0:0:0:
460,192,82743,1,4,0:0:0:0:
358,192,83076,1,8,0:0:0:0:
460,192,83076,1,0,0:0:0:0:
358,192,83409,1,8,0:0:0:0:
460,192,83409,1,0,0:0:0:0:
153,192,83576,1,2,0:0:0:0:
358,192,83743,1,8,0:0:0:0:
460,192,83743,1,0,0:0:0:0:
256,192,83909,1,2,0:0:0:0:
51,192,84076,1,8,0:0:0:0:
153,192,84076,1,0,0:0:0:0:
51,192,84409,1,8,0:0:0:0:
153,192,84409,1,0,0:0:0:0:
51,192,84743,1,8,0:0:0:0:
153,192,84743,1,0,0:0:0:0:
358,192,84909,1,2,0:0:0:0:
51,192,85076,1,8,0:0:0:0:
256,192,85076,1,0,0:0:0:0:
460,192,85243,1,2,0:0:0:0:
153,192,85409,1,8,0:0:0:0:
358,192,85409,1,0,0:0:0:0:
153,192,85743,1,8,0:0:0:0:
358,192,85743,1,0,0:0:0:0:
153,192,86076,1,8,0:0:0:0:
358,192,86076,1,0,0:0:0:0:
51,192,86243,1,2,0:0:0:0:
358,192,86409,1,8,0:0:0:0:
460,192,86409,1,0,0:0:0:0:
51,192,86576,1,2,0:0:0:0:
256,192,86576,1,4,0:0:0:0:
153,192,86909,1,2,0:0:0:0:
460,192,86909,1,0,0:0:0:0:
256,192,87076,1,2,0:0:0:0:
358,192,87243,1,2,0:0:0:0:
460,192,87243,1,0,0:0:0:0:
51,192,87409,1,8,0:0:0:0:
153,192,87409,1,4,0:0:0:0:
