osu file format v14

[General]
AudioFilename: audio.ogg
AudioLeadIn: 0
PreviewTime: 56076
Countdown: 0
SampleSet: Soft
StackLeniency: 0.7
Mode: 3
LetterboxInBreaks: 0
SpecialStyle: 0
WidescreenStoryboard: 1

[Editor]
DistanceSpacing: 1.5
BeatDivisor: 4
GridSize: 16
TimelineZoom: 2

[Metadata]
Title:Sansan Days (TV Size)
TitleUnicode:燦々デイズ (TV Size)
Artist:Spira Spica
ArtistUnicode:スピラ・スピカ
Creator:Syadow-
Version:4K Advanced
Source:その着せ替え人形は恋をする
Tags:japanese pop anime sono bisque doll wa koi wo suru my dress up darling dress-up cosplay j-pop jpop op opening kyousuke- hotaru- -[hotaru]- angki
BeatmapID:3414504
BeatmapSetID:1671022

[Difficulty]
HPDrainRate:7.8
CircleSize:4
OverallDifficulty:7.8
ApproachRate:5
SliderMultiplier:1.4
SliderTickRate:1

[Events]
//Background and Video events
0,0,"marink.jpg",0,0
//Break Periods
//Storyboard Layer 0 (Background)
//Storyboard Layer 1 (Fail)
//Storyboard Layer 2 (Pass)
//Storyboard Layer 3 (Foreground)
//Storyboard Layer 4 (Overlay)
//Storyboard Sound Samples

[TimingPoints]
1410,333.333333333333,4,2,1,50,1,0
56076,-100,4,2,1,50,0,1
64076,-100,4,2,1,50,0,0
66743,-100,4,2,1,50,0,1
74743,-100,4,2,1,50,0,0
82743,-100,4,2,1,50,0,1
86576,-100,4,2,1,50,0,0

[HitObjects]
320,192,1243,5,0,0:0:0:70:tom01.wav
448,192,1243,1,0,0:0:0:0:
192,192,1326,1,0,0:0:0:70:tom01.wav
64,192,1410,1,0,0:0:0:0:
320,192,1410,1,0,0:0:0:0:
448,192,1410,128,0,2076:0:0:0:0:
64,192,2076,128,0,2409:0:0:0:0:
320,192,2409,1,8,0:0:0:0:
448,192,2409,1,0,0:0:0:0:
64,192,2743,1,2,0:0:0:0:
192,192,2743,128,4,3409:0:0:0:0:
448,192,2743,1,0,0:0:0:0:
320,192,3409,128,0,3743:0:0:0:0:
64,192,3743,1,0,0:0:0:70:tom03.wav
192,192,3743,1,0,0:0:0:0:
64,192,4076,128,4,4743:0:0:0:0:
320,192,4076,1,2,0:0:0:0:
448,192,4076,1,0,0:0:0:0:
192,192,4409,1,0,0:0:0:0:
192,192,4743,1,2,0:0:0:0:
320,192,4743,128,4,5409:0:0:0:0:
448,192,4743,1,0,0:0:0:0:
64,192,5076,1,0,0:0:0:0:
64,192,5409,1,4,0:0:0:0:
192,192,5409,1,2,0:0:0:0:
448,192,5409,1,0,0:0:0:0:
320,192,5576,1,0,0:0:0:0:
64,192,5743,1,2,0:0:0:0:
192,192,5743,1,8,0:0:0:0:
320,192,5909,1,0,0:0:0:0:
64,192,6076,1,2,0:0:0:0:
448,192,6076,1,8,0:0:0:0:
192,192,6159,1,0,0:0:0:0:
448,192,6243,1,0,0:0:0:0:
320,192,6326,1,0,0:0:0:0:
64,192,6409,1,2,0:0:0:0:
192,192,6409,1,8,0:0:0:0:
320,192,6576,1,0,0:0:0:0:
64,192,6743,1,2,0:0:0:0:
192,192,6743,1,4,0:0:0:0:
448,192,6743,1,0,0:0:0:0:
320,192,7076,1,2,0:0:0:0:
448,192,7076,1,0,0:0:0:0:
64,192,7243,1,8,0:0:0:0:
320,192,7243,1,0,0:0:0:0:
448,192,7409,1,0,0:0:0:0:
64,192,7576,1,2,0:0:0:0:
192,192,7576,1,0,0:0:0:0:
192,192,7743,1,8,0:0:0:0:
448,192,7743,1,0,0:0:0:0:
64,192,8076,1,2,0:0:0:0:
192,192,8076,1,0,0:0:0:0:
320,192,8409,1,2,0:0:0:0:
448,192,8409,1,0,0:0:0:0:
64,192,8576,1,8,0:0:0:0:
448,192,8576,1,0,0:0:0:0:
192,192,8743,1,0,0:0:0:0:
64,192,8909,1,2,0:0:0:0:
320,192,8909,1,0,0:0:0:0:
64,192,9076,1,8,0:0:0:0:
448,192,9076,1,0,0:0:0:0:
64,192,9409,1,4,0:0:0:0:
448,192,9409,1,8,0:0:0:0:
192,192,9576,1,2,0:0:0:0:
320,192,9576,1,0,0:0:0:0:
64,192,9743,1,0,0:0:0:70:tom02.wav
320,192,9743,1,0,0:0:0:0:
192,192,9909,1,8,0:0:0:0:
448,192,9909,1,0,0:0:0:0:
64,192,10076,1,2,0:0:0:0:
320,192,10076,1,0,0:0:0:0:
64,192,10243,1,0,0:0:0:70:tom03.wav
192,192,10243,1,0,0:0:0:0:
448,192,10409,1,2,0:0:0:0:
320,192,10409,1,0,0:0:0:0:
64,192,10576,128,8,11743:0:0:0:0:
448,192,10576,1,4,0:0:0:0:
448,192,11076,1,0,0:0:0:0:
192,192,11409,1,2,0:0:0:0:
320,192,11576,1,8,0:0:0:0:
448,192,11576,1,0,0:0:0:0:
320,192,11743,1,8,0:0:0:0:
448,192,11743,1,0,0:0:0:0:
64,192,12076,1,4,0:0:0:0:
192,192,12076,1,2,0:0:0:0:
448,192,12076,128,0,12576:0:0:0:0:
320,192,12243,1,2,0:0:0:0:
64,192,12409,1,8,0:0:0:0:
192,192,12409,1,0,0:0:0:0:
64,192,12576,1,2,0:0:0:0:
320,192,12576,1,0,0:0:0:0:
192,192,12743,128,0,13243:0:0:0:0:
320,192,12909,1,2,0:0:0:0:
448,192,12909,1,0,0:0:0:0:
64,192,13076,1,8,0:0:0:0:
448,192,13076,1,0,0:0:0:0:
320,192,13243,1,2,0:0:0:0:
64,192,13409,128,2,13909:0:0:0:0:
192,192,13409,1,0,0:0:0:0:
448,192,13576,1,2,0:0:0:0:
192,192,13743,1,8,0:0:0:0:
320,192,13743,1,0,0:0:0:0:
192,192,13909,1,2,0:0:0:0:
448,192,13909,1,0,0:0:0:0:
320,192,14076,128,0,14576:0:0:0:0:
64,192,14243,1,2,0:0:0:0:
448,192,14243,1,0,0:0:0:0:
64,192,14409,1,8,0:0:0:0:
192,192,14409,1,0,0:0:0:0:
448,192,14576,1,0,0:0:0:0:
64,192,14743,1,2,0:0:0:0:
192,192,14743,1,0,0:0:0:0:
320,192,14909,1,8,0:0:0:0:
192,192,14993,1,8,0:0:0:0:
64,192,15076,1,2,0:0:0:0:
448,192,15076,1,0,0:0:0:0:
320,192,15243,1,8,0:0:0:0:
448,192,15243,1,0,0:0:0:0:
64,192,15409,1,0,0:0:0:70:tom01.wav
192,192,15409,1,0,0:0:0:0:
448,192,15493,1,0,0:0:0:70:tom02.wav
64,192,15576,1,0,0:0:0:70:tom03.wav
192,192,15659,1,0,0:0:0:70:tom04.wav
320,192,15743,128,4,15909:0:0:0:0:
448,192,15743,1,8,0:0:0:0:
64,192,15909,128,0,16076:0:0:0:0:
320,192,16076,128,2,16243:0:0:0:0:
448,192,16076,128,0,16243:0:0:0:0:
64,192,16409,128,2,16576:0:0:0:0:
192,192,16409,128,0,16576:0:0:0:0:
320,192,16909,1,8,0:0:0:0:
448,192,16909,1,0,0:0:0:0:
320,192,17076,128,8,17409:0:0:0:0:
448,192,17076,128,4,17409:0:0:0:0:
64,192,17409,1,2,0:0:0:0:
192,192,17409,1,4,0:0:0:0:
64,192,17743,1,8,0:0:0:0:
448,192,17743,1,0,0:0:0:0:
320,192,17909,1,0,0:0:0:0:
192,192,18076,1,0,0:0:0:0:
320,192,18243,1,2,0:0:0:0:
448,192,18243,1,0,0:0:0:0:
64,192,18409,1,8,0:0:0:0:
192,192,18409,1,0,0:0:0:0:
320,192,18576,1,0,0:0:0:0:
64,192,18743,1,2,0:0:0:0:
448,192,18743,1,0,0:0:0:0:
192,192,18909,1,0,0:0:0:0:
320,192,19076,1,8,0:0:0:0:
448,192,19076,1,0,0:0:0:0:
64,192,19243,1,0,0:0:0:0:
320,192,19409,1,0,0:0:0:0:
64,192,19576,1,2,0:0:0:0:
192,192,19576,1,0,0:0:0:0:
320,192,19743,1,8,0:0:0:0:
448,192,19743,1,0,0:0:0:0:
192,192,19909,1,0,0:0:0:0:
64,192,20076,1,2,0:0:0:0:
448,192,20076,1,0,0:0:0:0:
320,192,20243,1,0,0:0:0:0:
192,192,20409,1,8,0:0:0:0:
448,192,20409,128,0,21076:0:0:0:0:
192,192,20743,1,0,0:0:0:0:
64,192,20909,1,2,0:0:0:0:
320,192,20909,1,0,0:0:0:0:
64,192,21076,1,8,0:0:0:0:
192,192,21076,1,0,0:0:0:0:
320,192,21243,1,0,0:0:0:0:
192,192,21409,1,2,0:0:0:0:
448,192,21409,1,0,0:0:0:0:
64,192,21743,1,8,0:0:0:0:
448,192,21743,1,0,0:0:0:0:
192,192,22076,1,0,0:0:0:0:
64,192,22243,1,2,0:0:0:0:
320,192,22243,1,0,0:0:0:0:
192,192,22409,1,8,0:0:0:0:
448,192,22409,1,0,0:0:0:0:
320,192,22576,1,0,0:0:0:0:
64,192,22743,1,2,0:0:0:0:
192,192,22743,1,0,0:0:0:0:
448,192,22909,1,0,0:0:0:0:
64,192,23076,1,8,0:0:0:0:
320,192,23076,1,0,0:0:0:0:
192,192,23243,1,0,0:0:0:0:
320,192,23409,1,0,0:0:0:0:
64,192,23576,1,2,0:0:0:0:
192,192,23576,1,0,0:0:0:0:
320,192,23743,1,8,0:0:0:0:
448,192,23743,1,0,0:0:0:0:
64,192,23909,128,0,24409:0:0:0:0:
192,192,24076,1,2,0:0:0:0:
448,192,24076,1,0,0:0:0:0:
320,192,24409,1,8,0:0:0:0:
448,192,24409,1,0,0:0:0:0:
192,192,24743,1,0,0:0:0:0:
64,192,24909,1,2,0:0:0:0:
448,192,24909,1,0,0:0:0:0:
192,192,25076,1,8,0:0:0:0:
320,192,25076,1,0,0:0:0:0:
320,192,25409,1,2,0:0:0:0:
448,192,25409,128,0,25576:0:0:0:0:
64,192,25576,128,0,25743:0:0:0:0:
192,192,25743,128,8,25909:0:0:0:0:
448,192,25743,1,0,0:0:0:0:
320,192,25909,128,0,26076:0:0:0:0:
64,192,26076,128,0,26243:0:0:0:0:
320,192,26243,128,2,26409:0:0:0:0:
448,192,26243,1,0,0:0:0:0:
64,192,26409,1,8,0:0:0:0:
192,192,26409,128,4,26576:0:0:0:0:
448,192,26576,128,0,26743:0:0:0:0:
192,192,26743,1,2,0:0:0:0:
320,192,26743,1,0,0:0:0:0:
64,192,26909,1,8,0:0:0:0:
448,192,26909,1,0,0:0:0:0:
192,192,27243,1,2,0:0:0:0:
320,192,27243,1,0,0:0:0:0:
64,192,27409,1,8,0:0:0:0:
448,192,27409,1,0,0:0:0:0:
192,192,27576,1,2,0:0:0:0:
320,192,27576,1,0,0:0:0:0:
64,192,27743,1,8,0:0:0:0:
448,192,27743,1,4,0:0:0:0:
192,192,27909,1,8,0:0:0:0:
320,192,27993,1,8,0:0:0:0:
64,192,28076,1,4,0:0:0:0:
192,192,28076,1,2,0:0:0:0:
448,192,28076,1,0,0:0:0:0:
64,192,28409,1,8,0:0:0:0:
448,192,28409,1,0,0:0:0:0:
192,192,28576,1,0,0:0:0:0:
320,192,28743,1,0,0:0:0:0:
64,192,28909,1,2,0:0:0:0:
192,192,28909,1,0,0:0:0:0:
320,192,29076,1,8,0:0:0:0:
448,192,29076,1,0,0:0:0:0:
192,192,29243,1,0,0:0:0:0:
64,192,29409,1,2,0:0:0:0:
448,192,29409,1,0,0:0:0:0:
320,192,29576,1,0,0:0:0:0:
64,192,29743,1,8,0:0:0:0:
192,192,29743,1,0,0:0:0:0:
320,192,30076,1,0,0:0:0:0:
192,192,30243,1,2,0:0:0:0:
448,192,30243,1,0,0:0:0:0:
64,192,30409,1,8,0:0:0:0:
320,192,30409,1,0,0:0:0:0:
192,192,30576,1,0,0:0:0:0:
64,192,30743,1,2,0:0:0:0:
448,192,30743,128,0,31076:0:0:0:0:
64,192,31076,1,8,0:0:0:0:
320,192,31076,1,0,0:0:0:0:
192,192,31243,128,0,32076:0:0:0:0:
320,192,31409,1,0,0:0:0:0:
64,192,31576,1,2,0:0:0:0:
448,192,31576,1,0,0:0:0:0:
320,192,31743,1,8,0:0:0:0:
448,192,31743,1,0,0:0:0:0:
64,192,31909,1,0,0:0:0:0:
64,192,32076,1,2,0:0:0:0:
448,192,32076,1,0,0:0:0:0:
320,192,32243,1,0,0:0:0:0:
64,192,32409,1,8,0:0:0:0:
192,192,32409,1,0,0:0:0:0:
448,192,32576,1,0,0:0:0:0:
192,192,32743,1,0,0:0:0:0:
320,192,32909,1,2,0:0:0:0:
448,192,32909,1,0,0:0:0:0:
64,192,33076,1,8,0:0:0:0:
192,192,33076,1,0,0:0:0:0:
320,192,33243,1,0,0:0:0:0:
64,192,33409,128,2,33743:0:0:0:0:
448,192,33409,1,0,0:0:0:0:
320,192,33743,1,8,0:0:0:0:
448,192,33743,1,0,0:0:0:0:
192,192,33909,1,0,0:0:0:0:
320,192,34076,1,0,0:0:0:0:
64,192,34243,1,2,0:0:0:0:
448,192,34243,1,0,0:0:0:0:
192,192,34409,1,8,0:0:0:0:
320,192,34409,1,0,0:0:0:0:
64,192,34576,1,0,0:0:0:0:
320,192,34743,1,2,0:0:0:0:
448,192,34743,128,0,35076:0:0:0:0:
64,192,35076,1,8,0:0:0:0:
192,192,35076,1,0,0:0:0:0:
192,192,35409,1,0,0:0:0:0:
64,192,35576,1,2,0:0:0:0:
320,192,35576,1,0,0:0:0:0:
192,192,35743,1,8,0:0:0:0:
448,192,35743,1,0,0:0:0:0:
320,192,35909,1,0,0:0:0:0:
64,192,36076,128,2,36409:0:0:0:0:
448,192,36076,1,0,0:0:0:0:
320,192,36409,128,8,36576:0:0:0:0:
448,192,36409,1,0,0:0:0:0:
64,192,36576,1,2,0:0:0:0:
192,192,36576,128,0,36743:0:0:0:0:
64,192,36743,128,0,37076:0:0:0:0:
320,192,36743,1,0,0:0:0:0:
192,192,36909,1,2,0:0:0:0:
448,192,36909,1,0,0:0:0:0:
320,192,37076,1,8,0:0:0:0:
448,192,37076,1,0,0:0:0:0:
64,192,37243,1,2,0:0:0:0:
192,192,37243,1,0,0:0:0:0:
64,192,37409,1,8,0:0:0:0:
448,192,37409,1,0,0:0:0:0:
320,192,37576,1,2,0:0:0:0:
448,192,37576,1,0,0:0:0:0:
192,192,37743,1,0,0:0:0:0:
320,192,37909,1,8,0:0:0:0:
448,192,37909,1,0,0:0:0:0:
64,192,38076,1,0,0:0:0:0:
192,192,38076,1,0,0:0:0:0:
192,192,38243,1,2,0:0:0:0:
320,192,38409,1,8,0:0:0:0:
448,192,38409,1,0,0:0:0:0:
320,192,38576,1,0,0:0:0:0:
64,192,38743,1,2,0:0:0:0:
192,192,38743,1,4,0:0:0:0:
64,192,38909,1,0,0:0:0:0:
192,192,38909,1,0,0:0:0:0:
320,192,39076,1,2,0:0:0:0:
448,192,39076,1,0,0:0:0:0:
320,192,39243,1,0,0:0:0:0:
448,192,39243,1,0,0:0:0:0:
64,192,39409,1,8,0:0:0:0:
448,192,39409,1,0,0:0:0:0:
192,192,39743,1,0,0:0:0:0:
320,192,39909,1,8,0:0:0:0:
64,192,40076,1,2,0:0:0:0:
448,192,40076,1,0,0:0:0:0:
64,192,40243,1,2,0:0:0:0:
448,192,40243,1,0,0:0:0:0:
192,192,40409,1,0,0:0:0:0:
320,192,40409,1,0,0:0:0:0:
192,192,40576,1,2,0:0:0:0:
320,192,40576,1,0,0:0:0:0:
192,192,40743,1,8,0:0:0:0:
448,192,40743,1,0,0:0:0:0:
64,192,41076,1,0,0:0:0:0:
192,192,41243,1,8,0:0:0:0:
320,192,41409,1,2,0:0:0:0:
448,192,41409,1,0,0:0:0:0:
320,192,41576,1,0,0:0:0:0:
448,192,41576,1,0,0:0:0:0:
64,192,41743,1,2,0:0:0:0:
192,192,41743,1,0,0:0:0:0:
64,192,41909,1,0,0:0:0:0:
192,192,41909,1,0,0:0:0:0:
192,192,42076,1,8,0:0:0:0:
320,192,42076,1,0,0:0:0:0:
448,192,42409,1,0,0:0:0:0:
64,192,42576,1,8,0:0:0:0:
192,192,42743,1,2,0:0:0:0:
320,192,42743,1,0,0:0:0:0:
192,192,42909,1,2,0:0:0:0:
320,192,42909,1,0,0:0:0:0:
64,192,43076,1,0,0:0:0:0:
448,192,43076,1,0,0:0:0:0:
64,192,43243,1,2,0:0:0:0:
448,192,43243,1,0,0:0:0:0:
320,192,43409,1,8,0:0:0:0:
448,192,43409,1,0,0:0:0:0:
64,192,43743,1,8,0:0:0:0:
192,192,43743,1,0,0:0:0:0:
320,192,43909,1,0,0:0:0:0:
192,192,43993,1,0,0:0:0:0:
64,192,44076,1,2,0:0:0:0:
320,192,44076,1,4,0:0:0:0:
448,192,44076,1,0,0:0:0:0:
320,192,44409,1,8,0:0:0:0:
448,192,44409,1,0,0:0:0:0:
64,192,44576,1,2,0:0:0:0:
192,192,44576,1,0,0:0:0:0:
320,192,44743,1,0,0:0:0:0:
192,192,44909,1,2,0:0:0:0:
448,192,44909,1,0,0:0:0:0:
64,192,45076,1,8,0:0:0:0:
320,192,45076,1,0,0:0:0:0:
448,192,45243,1,0,0:0:0:0:
64,192,45409,1,2,0:0:0:0:
192,192,45409,1,0,0:0:0:0:
192,192,45743,1,8,0:0:0:0:
448,192,45743,1,0,0:0:0:0:
320,192,45909,1,0,0:0:0:0:
64,192,46076,1,0,0:0:0:0:
192,192,46243,1,2,0:0:0:0:
320,192,46243,1,0,0:0:0:0:
64,192,46409,1,8,0:0:0:0:
448,192,46409,1,0,0:0:0:0:
320,192,46743,1,2,0:0:0:0:
448,192,46743,1,0,0:0:0:0:
64,192,47076,1,8,0:0:0:0:
320,192,47076,1,0,0:0:0:0:
192,192,47243,1,2,0:0:0:0:
448,192,47243,1,0,0:0:0:0:
64,192,47409,1,0,0:0:0:0:
320,192,47576,1,2,0:0:0:0:
448,192,47576,1,0,0:0:0:0:
64,192,47743,1,8,0:0:0:0:
192,192,47743,1,0,0:0:0:0:
64,192,48076,1,4,0:0:0:0:
448,192,48076,1,8,0:0:0:0:
192,192,48243,1,2,0:0:0:70:tom01.wav
448,192,48243,1,0,0:0:0:0:
64,192,48409,1,2,0:0:0:70:tom02.wav
320,192,48409,1,0,0:0:0:0:
64,192,48576,1,2,0:0:0:70:tom02.wav
192,192,48576,1,0,0:0:0:0:
192,192,48743,1,2,0:0:0:70:tom03.wav
320,192,48743,1,0,0:0:0:0:
320,192,48909,1,2,0:0:0:70:tom03.wav
448,192,48909,1,0,0:0:0:0:
64,192,49076,1,8,0:0:0:0:
448,192,49076,1,4,0:0:0:0:
64,192,49409,128,2,50076:0:0:0:0:
192,192,49409,1,4,0:0:0:0:
448,192,49409,1,0,0:0:0:0:
320,192,49743,1,0,0:0:0:0:
192,192,50076,1,4,0:0:0:0:
320,192,50076,128,2,50743:0:0:0:0:
448,192,50076,1,0,0:0:0:0:
192,192,50409,1,0,0:0:0:0:
64,192,50743,1,2,0:0:0:0:
192,192,50743,128,4,51409:0:0:0:0:
448,192,50743,1,0,0:0:0:0:
448,192,51076,1,0,0:0:0:0:
64,192,51409,1,4,0:0:0:0:
320,192,51409,1,2,0:0:0:0:
448,192,51409,128,0,52076:0:0:0:0:
64,192,51743,1,8,0:0:0:0:
192,192,51743,1,0,0:0:0:0:
64,192,52076,1,8,0:0:0:0:
320,192,52076,1,4,0:0:0:0:
64,192,52243,1,2,0:0:0:0:
320,192,52243,1,0,0:0:0:0:
64,192,52409,1,8,0:0:0:0:
448,192,52409,1,0,0:0:0:0:
192,192,52576,1,2,0:0:0:0:
64,192,52743,1,8,0:0:0:0:
320,192,52743,1,0,0:0:0:0:
64,192,52909,1,2,0:0:0:0:
320,192,52909,1,0,0:0:0:0:
320,192,53076,1,8,0:0:0:0:
448,192,53076,1,4,0:0:0:0:
64,192,53409,1,2,0:0:0:0:
448,192,53409,1,0,0:0:0:0:
64,192,53576,1,8,0:0:0:0:
192,192,53576,1,0,0:0:0:0:
64,192,53743,1,8,0:0:0:0:
192,192,53743,1,0,0:0:0:0:
192,192,53909,1,8,0:0:0:0:
320,192,53909,1,0,0:0:0:0:
320,192,54076,1,8,0:0:0:0:
448,192,54076,1,0,0:0:0:0:
192,192,54243,1,2,0:0:0:0:
320,192,54326,1,2,0:0:0:0:
64,192,54409,1,8,0:0:0:0:
192,192,54409,1,4,0:0:0:0:
448,192,54409,1,0,0:0:0:0:
192,192,54743,1,8,0:0:0:0:
448,192,54743,1,0,0:0:0:0:
192,192,55076,1,8,0:0:0:0:
448,192,55076,1,0,0:0:0:0:
64,192,55576,1,8,0:0:0:0:
448,192,55576,1,0,0:0:0:0:
64,192,55743,128,8,56076:0:0:0:0:
192,192,55743,128,4,56076:0:0:0:0:
320,192,56076,1,2,0:0:0:0:
448,192,56076,128,4,56243:0:0:0:0:
64,192,56409,1,8,0:0:0:0:
448,192,56409,128,0,56576:0:0:0:0:
192,192,56576,1,0,0:0:0:0:
320,192,56743,128,8,56909:0:0:0:0:
64,192,56743,1,0,0:0:0:0:
192,192,56909,128,2,57076:0:0:0:0:
448,192,56909,1,0,0:0:0:0:
64,192,57076,1,8,0:0:0:0:
448,192,57076,128,0,57243:0:0:0:0:
192,192,57243,1,2,0:0:0:0:
320,192,57243,128,0,57409:0:0:0:0:
64,192,57409,128,8,57743:0:0:0:0:
448,192,57409,1,0,0:0:0:0:
192,192,57743,1,8,0:0:0:0:
448,192,57743,1,0,0:0:0:0:
320,192,57909,128,0,58076:0:0:0:0:
64,192,58076,1,8,0:0:0:0:
192,192,58076,128,0,58409:0:0:0:0:
320,192,58243,1,2,0:0:0:0:
448,192,58243,1,0,0:0:0:0:
64,192,58409,1,8,0:0:0:0:
448,192,58409,1,0,0:0:0:0:
64,192,58576,1,2,0:0:0:0:
320,192,58576,128,0,58743:0:0:0:0:
192,192,58743,1,8,0:0:0:0:
448,192,58743,128,0,58909:0:0:0:0:
320,192,58909,1,0,0:0:0:0:
64,192,59076,128,8,59243:0:0:0:0:
192,192,59076,1,0,0:0:0:0:
448,192,59243,128,0,59409:0:0:0:0:
64,192,59409,1,8,0:0:0:0:
320,192,59409,1,0,0:0:0:0:
192,192,59576,128,2,59743:0:0:0:0:
448,192,59576,1,0,0:0:0:0:
64,192,59743,1,8,0:0:0:0:
448,192,59743,1,0,0:0:0:0:
192,192,59909,1,2,0:0:0:0:
320,192,59909,128,0,60076:0:0:0:0:
192,192,60076,1,8,0:0:0:0:
448,192,60076,128,0,60743:0:0:0:0:
320,192,60243,1,0,0:0:0:0:
64,192,60409,1,8,0:0:0:0:
192,192,60409,1,0,0:0:0:0:
320,192,60576,1,2,0:0:0:0:
64,192,60743,1,8,0:0:0:0:
192,192,60743,1,0,0:0:0:0:
64,192,60909,1,2,0:0:0:0:
320,192,60909,1,0,0:0:0:0:
320,192,61076,1,8,0:0:0:0:
448,192,61076,1,0,0:0:0:0:
192,192,61159,1,0,0:0:0:0:
64,192,61243,1,2,0:0:0:0:
320,192,61326,1,0,0:0:0:0:
64,192,61409,128,4,61743:0:0:0:0:
192,192,61409,1,8,0:0:0:0:
448,192,61409,1,0,0:0:0:0:
320,192,61743,128,8,62076:0:0:0:0:
448,192,61743,1,0,0:0:0:0:
64,192,61909,1,0,0:0:0:0:
192,192,62076,128,8,62409:0:0:0:0:
448,192,62076,1,0,0:0:0:0:
64,192,62243,1,2,0:0:0:0:
320,192,62243,1,0,0:0:0:0:
64,192,62409,1,8,0:0:0:0:
448,192,62409,128,0,62743:0:0:0:0:
192,192,62576,1,2,0:0:0:0:
320,192,62576,1,0,0:0:0:0:
64,192,62743,128,8,63076:0:0:0:0:
320,192,62743,1,0,0:0:0:0:
320,192,63076,1,8,0:0:0:0:
448,192,63076,1,0,0:0:0:0:
192,192,63243,128,0,63409:0:0:0:0:
320,192,63409,128,8,63743:0:0:0:0:
448,192,63409,1,0,0:0:0:0:
64,192,63576,1,2,0:0:0:0:
192,192,63576,1,0,0:0:0:0:
64,192,63743,1,8,0:0:0:0:
448,192,63743,1,0,0:0:0:0:
320,192,64076,1,8,0:0:0:0:
448,192,64076,1,0,0:0:0:0:
64,192,64243,1,2,0:0:0:0:
192,192,64243,128,0,64576:0:0:0:0:
64,192,64576,1,8,0:0:0:0:
320,192,64576,1,0,0:0:0:0:
320,192,64743,128,0,65076:0:0:0:70:tom03.wav
448,192,64743,1,0,0:0:0:0:
64,192,64909,1,0,0:0:0:70:tom02.wav
192,192,65076,1,0,0:0:0:70:tom01.wav
448,192,65076,1,0,0:0:0:0:
64,192,65243,1,4,0:0:0:0:
320,192,65243,1,2,0:0:0:0:
448,192,65243,128,0,65576:0:0:0:0:
64,192,65576,1,2,0:0:0:0:
192,192,65576,1,0,0:0:0:0:
320,192,65743,1,0,0:0:0:0:
448,192,65743,1,0,0:0:0:0:
64,192,65743,128,8,66076:0:0:0:0:
192,192,66076,1,2,0:0:0:0:
320,192,66243,1,8,0:0:0:0:
448,192,66243,1,0,0:0:0:0:
320,192,66409,1,8,0:0:0:0:
448,192,66409,128,0,66743:0:0:0:0:
64,192,66743,128,2,66909:0:0:0:0:
192,192,66743,1,4,0:0:0:0:
320,192,66743,1,0,0:0:0:0:
64,192,67076,128,8,67243:0:0:0:0:
448,192,67076,1,0,0:0:0:0:
320,192,67243,1,0,0:0:0:0:
192,192,67409,128,8,67576:0:0:0:0:
448,192,67409,1,0,0:0:0:0:
64,192,67576,1,2,0:0:0:0:
320,192,67576,128,0,67743:0:0:0:0:
64,192,67743,128,8,67909:0:0:0:0:
448,192,67743,1,0,0:0:0:0:
192,192,67909,128,2,68076:0:0:0:0:
320,192,67909,1,0,0:0:0:0:
64,192,68076,1,8,0:0:0:0:
448,192,68076,128,0,68409:0:0:0:0:
64,192,68409,1,8,0:0:0:0:
320,192,68409,1,0,0:0:0:0:
192,192,68576,128,0,68743:0:0:0:0:
320,192,68743,128,8,69076:0:0:0:0:
448,192,68743,1,0,0:0:0:0:
64,192,68909,1,2,0:0:0:0:
192,192,68909,1,0,0:0:0:0:
64,192,69076,1,8,0:0:0:0:
448,192,69076,1,0,0:0:0:0:
192,192,69243,128,2,69409:0:0:0:0:
448,192,69243,1,0,0:0:0:0:
64,192,69409,128,8,69743:0:0:0:0:
320,192,69409,1,0,0:0:0:0:
192,192,69576,1,0,0:0:0:0:
320,192,69743,1,8,0:0:0:0:
448,192,69743,128,0,69909:0:0:0:0:
64,192,69909,128,0,70076:0:0:0:0:
192,192,70076,1,8,0:0:0:0:
448,192,70076,1,0,0:0:0:0:
64,192,70243,1,2,0:0:0:0:
320,192,70243,128,0,70409:0:0:0:0:
64,192,70409,1,8,0:0:0:0:
448,192,70409,1,0,0:0:0:0:
192,192,70576,128,2,70743:0:0:0:0:
320,192,70576,1,0,0:0:0:0:
64,192,70743,128,8,71409:0:0:0:0:
320,192,70743,1,0,0:0:0:0:
192,192,70909,1,0,0:0:0:0:
320,192,71076,1,8,0:0:0:0:
448,192,71076,1,0,0:0:0:0:
192,192,71243,1,2,0:0:0:0:
320,192,71409,1,8,0:0:0:0:
448,192,71409,1,0,0:0:0:0:
192,192,71576,1,2,0:0:0:0:
448,192,71576,1,0,0:0:0:0:
64,192,71743,1,8,0:0:0:0:
192,192,71743,1,0,0:0:0:0:
320,192,71826,1,0,0:0:0:0:
448,192,71909,1,2,0:0:0:0:
192,192,71993,1,0,0:0:0:0:
64,192,72076,1,8,0:0:0:0:
320,192,72076,1,4,0:0:0:0:
448,192,72076,128,0,72409:0:0:0:0:
64,192,72409,1,8,0:0:0:0:
192,192,72409,128,0,72743:0:0:0:0:
448,192,72576,1,0,0:0:0:0:
64,192,72743,1,8,0:0:0:0:
320,192,72743,128,0,73076:0:0:0:0:
192,192,72909,1,2,0:0:0:0:
448,192,72909,1,0,0:0:0:0:
64,192,73076,128,8,73409:0:0:0:0:
448,192,73076,1,0,0:0:0:0:
192,192,73243,1,2,0:0:0:0:
320,192,73243,1,0,0:0:0:0:
192,192,73409,1,8,0:0:0:0:
448,192,73409,128,0,73743:0:0:0:0:
64,192,73743,1,8,0:0:0:0:
192,192,73743,1,0,0:0:0:0:
320,192,73909,128,0,74076:0:0:0:0:
64,192,74076,1,8,0:0:0:0:
192,192,74076,128,0,74409:0:0:0:0:
320,192,74243,1,2,0:0:0:0:
448,192,74243,1,0,0:0:0:0:
64,192,74409,1,8,0:0:0:0:
448,192,74409,1,0,0:0:0:0:
64,192,74743,1,8,0:0:0:0:
192,192,74743,1,0,0:0:0:0:
320,192,74909,1,2,0:0:0:0:
448,192,74909,1,0,0:0:0:0:
320,192,75243,1,8,0:0:0:0:
448,192,75243,1,0,0:0:0:0:
64,192,75409,1,0,0:0:0:70:tom03.wav
192,192,75409,1,0,0:0:0:0:
64,192,75743,1,0,0:0:0:70:tom01.wav
320,192,75743,1,0,0:0:0:0:
64,192,75909,128,2,76243:0:0:0:0:
192,192,75909,1,4,0:0:0:0:
448,192,75909,1,0,0:0:0:0:
320,192,76243,1,2,0:0:0:0:
64,192,76409,1,8,0:0:0:0:
192,192,76409,1,0,0:0:0:0:
192,192,76576,1,2,0:0:0:0:
448,192,76576,1,0,0:0:0:0:
320,192,76743,1,2,0:0:0:0:
448,192,76743,1,0,0:0:0:0:
64,192,76909,1,8,0:0:0:0:
192,192,76909,1,0,0:0:0:0:
64,192,77076,128,8,77409:0:0:0:0:
192,192,77076,1,0,0:0:0:0:
192,192,77409,1,2,0:0:0:0:
320,192,77409,1,4,0:0:0:0:
448,192,77409,1,0,0:0:0:0:
64,192,77576,1,2,0:0:0:0:
192,192,77576,1,0,0:0:0:0:
320,192,77743,1,0,0:0:0:0:
192,192,77909,1,2,0:0:0:0:
448,192,77909,1,0,0:0:0:0:
64,192,78076,1,8,0:0:0:0:
448,192,78076,128,0,78409:0:0:0:0:
64,192,78409,1,0,0:0:0:0:
320,192,78409,1,0,0:0:0:0:
192,192,78576,1,0,0:0:0:0:
320,192,78743,1,2,0:0:0:0:
448,192,78743,1,0,0:0:0:0:
192,192,78909,1,0,0:0:0:0:
64,192,79076,128,0,79409:0:0:0:0:
320,192,79243,1,2,0:0:0:0:
448,192,79243,1,0,0:0:0:0:
192,192,79409,1,8,0:0:0:0:
448,192,79409,1,0,0:0:0:0:
64,192,79576,1,8,0:0:0:0:
320,192,79576,1,0,0:0:0:0:
64,192,79743,1,8,0:0:0:0:
192,192,79743,1,2,0:0:0:0:
320,192,80076,128,2,80409:0:0:0:0:
448,192,80076,1,4,0:0:0:0:
64,192,80243,1,2,0:0:0:0:
192,192,80243,1,0,0:0:0:0:
448,192,80409,1,0,0:0:0:0:
64,192,80576,1,2,0:0:0:0:
192,192,80576,1,0,0:0:0:0:
64,192,80743,1,8,0:0:0:0:
448,192,80743,1,0,0:0:0:0:
320,192,80909,1,0,0:0:0:0:
64,192,81076,1,2,0:0:0:0:
192,192,81076,1,0,0:0:0:0:
448,192,81243,1,0,0:0:0:0:
64,192,81409,128,8,81743:0:0:0:0:
320,192,81409,1,2,0:0:0:0:
192,192,81743,1,8,0:0:0:0:
448,192,81743,1,2,0:0:0:0:
320,192,81909,1,8,0:0:0:0:
192,192,81993,1,8,0:0:0:0:
64,192,82076,1,8,0:0:0:0:
448,192,82076,1,2,0:0:0:0:
320,192,82159,1,8,0:0:0:0:
192,192,82243,1,8,0:0:0:0:
320,192,82326,1,8,0:0:0:0:
64,192,82409,1,8,0:0:0:0:
448,192,82409,1,2,0:0:0:0:
192,192,82493,1,8,0:0:0:0:
320,192,82576,1,8,0:0:0:0:
192,192,82659,1,8,0:0:0:0:
64,192,82743,1,2,0:0:0:0:
320,192,82743,1,4,0:0:0:0:
448,192,82743,1,0,0:0:0:0:
192,192,83076,1,8,0:0:0:0:
320,192,83076,1,0,0:0:0:0:
320,192,83409,1,8,0:0:0:0:
448,192,83409,1,0,0:0:0:0:
192,192,83576,1,2,0:0:0:0:
64,192,83743,1,8,0:0:0:0:
448,192,83743,1,0,0:0:0:0:
192,192,83909,1,2,0:0:0:0:
320,192,83909,1,0,0:0:0:0:
64,192,84076,1,8,0:0:0:0:
448,192,84076,1,0,0:0:0:0:
64,192,84409,1,8,0:0:0:0:
320,192,84409,1,0,0:0:0:0:
192,192,84743,1,8,0:0:0:0:
448,192,84743,1,0,0:0:0:0:
64,192,84909,1,2,0:0:0:0:
320,192,84909,1,0,0:0:0:0:
64,192,85076,1,8,0:0:0:0:
448,192,85076,1,0,0:0:0:0:
192,192,85243,1,2,0:0:0:0:
320,192,85243,1,0,0:0:0:0:
64,192,85409,1,8,0:0:0:0:
320,192,85409,1,0,0:0:0:0:
192,192,85743,1,8,0:0:0:0:
448,192,85743,1,0,0:0:0:0:
64,192,86076,1,8,0:0:0:0:
320,192,86076,1,0,0:0:0:0:
64,192,86243,1,2,0:0:0:0:
448,192,86243,1,0,0:0:0:0:
192,192,86409,1,8,0:0:0:0:
448,192,86409,1,0,0:0:0:0:
64,192,86576,1,2,0:0:0:0:
192,192,86576,128,4,86909:0:0:0:0:
320,192,86576,1,0,0:0:0:0:
320,192,86909,1,2,0:0:0:0:
448,192,86909,1,0,0:0:0:0:
64,192,87076,1,2,0:0:0:0:
192,192,87076,1,0,0:0:0:0:
320,192,87243,1,2,0:0:0:0:
448,192,87243,1,0,0:0:0:0:
64,192,87409,1,8,0:0:0:0:
192,192,87409,1,4,0:0:0:0:
448,192,87409,128,0,87743:0:0:0:0:
192,192,87743,1,0,0:0:0:0:
