osu file format v14

[General]
AudioFilename: audio.mp3
AudioLeadIn: 0
PreviewTime: 55845
Countdown: 0
SampleSet: Soft
StackLeniency: 0.7
Mode: 0
LetterboxInBreaks: 0
WidescreenStoryboard: 0

[Editor]
Bookmarks: 1929,12595,17929,28595,39262,44595,49929,52595,56595,77929
DistanceSpacing: 1.5
BeatDivisor: 8
GridSize: 4
TimelineZoom: 1

[Metadata]
Title:Sansan Days (TV Size)
TitleUnicode:燦々デイズ (TV Size)
Artist:Spira Spica
ArtistUnicode:スピラ・スピカ
Creator:Mimari
Version:Shizuku Cosplay
Source:その着せ替え人形は恋をする
Tags:japanese pop anime sono bisque doll wa koi wo suru my dress up darling dress-up cosplay j-pop jpop present kuki1537 mokobe sytho op opening angelsnow
BeatmapID:3410653
BeatmapSetID:1669877

[Difficulty]
HPDrainRate:5.5
CircleSize:4
OverallDifficulty:9
ApproachRate:9.2
SliderMultiplier:1.7
SliderTickRate:1

[Events]
//Background and Video events
0,0,"bg.png",0,0
Video,-106,"video.mp4"
//Break Periods
//Storyboard Layer 0 (Background)
//Storyboard Layer 1 (Fail)
//Storyboard Layer 2 (Pass)
//Storyboard Layer 3 (Foreground)
//Storyboard Layer 4 (Overlay)
//Storyboard Sound Samples

[TimingPoints]
429,333.333333333333,4,2,22,50,1,0
1595,-100,4,2,22,60,0,0
1678,-100,4,2,22,60,0,0
1762,-200,4,2,22,60,0,0
4428,-153.846153846154,4,2,22,60,0,0
5762,-166.666666666667,4,2,22,60,0,0
8428,-153.846153846154,4,2,22,60,0,0
9095,-133.333333333333,4,2,22,60,0,0
10928,-125,4,2,22,60,0,0
12095,-111.111111111111,4,2,22,60,0,0
12345,-111.111111111111,4,2,22,5,0,0
12428,-111.111111111111,4,2,22,80,0,0
12762,-100,4,2,22,80,0,0
16095,-90.9090909090909,4,2,22,80,0,0
16428,-100,4,2,22,80,0,0
17762,-117.647058823529,4,2,22,50,0,0
27262,-105.263157894737,4,2,22,50,0,0
28428,-117.64705882353,4,2,22,50,0,0
38095,-105.263157894737,4,2,22,50,0,0
39095,-111.111111111111,4,2,22,60,0,0
39762,-125,4,2,22,60,0,0
40428,-117.647058823529,4,2,22,60,0,0
41095,-125,4,2,22,60,0,0
41762,-117.647058823529,4,2,22,60,0,0
42428,-125,4,2,22,60,0,0
43428,-111.111111111111,4,2,22,60,0,0
44095,-125,4,2,22,60,0,0
44345,-125,4,2,22,5,0,0
44428,-117.647058823529,4,2,22,60,0,0
49428,-105.263157894737,4,2,22,60,0,0
49678,-105.263157894737,4,2,22,5,0,0
49762,-117.64705882353,4,2,22,50,0,0
51762,-111.111111111111,4,2,22,40,0,0
52428,-111.111111111111,4,2,22,60,0,0
53428,-100,4,2,22,60,0,0
53762,315.789473684211,4,2,22,60,1,0
54428,333.333333333333,4,2,22,60,1,0
55095,333.333333333333,4,2,22,60,1,0
55095,-100,4,2,22,60,0,0
56428,-95.2380952380952,4,2,22,90,0,1
77428,-105.263157894737,4,2,22,90,0,1
77678,-105.263157894737,4,2,22,5,0,1
77761,-111.111111111111,4,2,22,70,0,0
81762,-100,4,2,22,70,0,0
82428,-95.2380952380952,4,2,22,70,0,0
83094,-90.9090909090908,4,2,22,80,0,1
88094,-111.111111111111,4,2,22,50,0,0

[Colours]
Combo1 : 209,209,209
Combo2 : 216,211,177
Combo3 : 217,130,130

[HitObjects]
256,192,429,12,0,1512,0:0:0:0:
205,50,1595,5,0,1:0:0:0:
205,50,1678,1,0,1:0:0:0:
205,50,1762,2,0,P|106:39|79:182,1,255,6|2,1:2|1:2,0:0:0:0:
0,213,3095,6,0,B|94:179|74:259|175:226,1,170,6|2,1:2|0:0,0:0:0:0:
162,230,4095,1,0,1:0:0:0:
226,348,4428,6,0,B|271:309|271:309|248:196,1,165.749992412568,6|2,1:2|0:0,0:0:0:0:
290,135,5095,2,0,B|220:132|220:132|195:150|195:150|128:148,1,165.749992412568,6|2,1:2|0:0,0:0:0:0:
64,196,5762,6,0,P|51:150|75:87,1,101.999996887207,6|0,1:2|1:0,0:0:0:0:
216,3,6428,2,0,P|229:49|205:112,1,101.999996887207,0|0,1:0|1:0,0:0:0:0:
116,263,7095,6,0,B|68:248|68:248|2:270,1,101.999996887207,4|0,1:2|1:0,0:0:0:0:
189,315,7595,1,8,0:0:0:0:
189,315,7762,2,0,P|202:269|178:206,1,101.999996887207,0|8,0:0|0:0,0:0:0:0:
37,121,8428,6,0,B|125:88|110:161|201:133,1,165.749992412568,0|8,1:0|0:0,0:0:0:0:
172,0,9095,2,0,L|162:87,1,63.7500024318696,0|0,0:0|1:0,0:0:0:0:
279,159,9428,2,0,L|269:72,1,63.7500024318696,8|0,0:0|0:0,0:0:0:0:
113,172,9762,5,10,0:0:0:0:
367,215,9928,1,2,1:2:0:0:
260,13,10095,1,0,1:0:0:0:
207,277,10262,5,10,0:0:0:0:
396,72,10428,1,2,1:2:0:0:
340,351,10595,1,0,1:0:0:0:
202,95,10762,5,2,1:2:0:0:
448,256,10928,2,0,B|407:202|407:202|250:237,1,204,14|0,0:2|0:0,0:0:0:0:
274,231,11762,5,0,1:0:0:0:
314,0,11928,1,12,0:0:0:0:
140,161,12095,2,0,B|85:179|85:179|11:154,1,114.749996498108,12|0,0:0|0:0,0:0:0:0:
30,84,12428,5,2,1:2:0:0:
217,157,12595,1,0,1:0:0:0:
33,244,12762,2,0,L|43:343,1,85,8|0,0:0|1:0,0:0:0:0:
232,254,13095,5,2,0:0:0:0:
13,164,13262,1,0,1:0:0:0:
229,61,13428,2,0,P|267:51|313:62,1,85,8|0,0:0|1:0,0:0:0:0:
273,335,13762,5,2,1:2:0:0:
151,98,13928,1,0,1:0:0:0:
394,219,14095,2,0,L|384:318,1,85,8|0,0:0|1:0,0:0:0:0:
136,206,14428,5,2,0:0:0:0:
402,98,14595,1,0,1:0:0:0:
268,354,14762,2,0,L|258:255,1,85,8|0,0:0|1:0,0:0:0:0:
232,23,15095,5,2,1:2:0:0:
92,289,15262,1,8,0:0:0:0:
92,289,15345,1,8,0:0:0:0:
92,289,15428,2,0,P|130:299|176:288,1,85,0|8,1:0|0:0,0:0:0:0:
316,74,15762,5,2,1:2:0:0:
316,74,15845,1,0,1:0:0:0:
316,74,15928,2,0,L|311:134,1,42.5,0|0,1:0|1:0,0:0:0:0:
263,200,16095,6,0,B|188:176|200:231|127:217,1,140.25000428009,8|0,0:0|0:0,0:0:0:0:
64,169,16428,6,0,L|56:65,1,85,10|0,0:0|0:0,0:0:0:0:
249,18,16762,2,0,B|298:8|298:8|356:65|298:138,1,170,10|0,0:0|0:0,0:0:0:0:
222,327,17262,1,14,0:0:0:0:
145,101,17428,2,0,P|183:91|229:102,1,85,14|0,0:0|0:0,0:0:0:0:
325,266,17762,6,0,P|374:272|409:179,2,144.500002756119,4|10|2,1:2|0:0|0:0,0:0:0:0:
244,115,18595,1,0,1:0:0:0:
186,268,18762,1,10,0:0:0:0:
325,149,18928,2,0,P|334:116|314:61,1,72.2500013780594,2|0,0:0|1:0,0:0:0:0:
191,189,19262,6,0,L|271:203,1,72.2500013780594,2|8,0:0|0:0,0:0:0:0:
176,22,19595,1,2,0:0:0:0:
114,179,19762,1,2,0:0:0:0:
45,25,19928,2,0,B|1:50|1:50|27:155,1,144.500002756119,2|2,1:2|0:0,0:0:0:0:
164,94,20428,6,0,L|90:102,1,72.2500013780594,0|2,1:0|0:0,0:0:0:0:
1,242,20762,2,0,B|77:220|64:273|141:255,1,144.500002756119,10|0,0:0|0:0,0:0:0:0:
290,206,21262,1,0,1:0:0:0:
209,309,21428,2,0,L|219:229,1,72.2500013780594,8|0,0:0|0:0,0:0:0:0:
336,139,21762,6,0,P|371:131|405:139,1,72.2500013780594,0|0,1:0|0:0,0:0:0:0:
299,295,22095,1,8,0:0:0:0:
216,145,22262,1,0,0:0:0:0:
375,227,22428,1,2,0:0:0:0:
209,309,22595,2,0,L|199:229,1,72.2500013780594,2|8,1:2|0:0,0:0:0:0:
277,83,22928,6,0,B|320:116|320:116|287:215,2,144.500002756119,2|2|2,0:0|0:0|0:0,0:0:0:0:
144,153,23762,2,0,P|179:161|213:153,1,72.2500013780594,0|0,0:0|1:0,0:0:0:0:
343,0,24095,1,10,0:0:0:0:
175,62,24262,1,2,0:0:0:0:
343,152,24428,6,0,L|334:223,1,72.2500013780594,0|0,1:0|0:0,0:0:0:0:
379,84,24762,2,0,P|344:75|309:83,1,72.2500013780594,8|0,0:0|0:0,0:0:0:0:
259,260,25095,1,2,0:0:0:0:
428,150,25262,1,2,1:2:0:0:
236,111,25428,2,0,L|245:184,1,72.2500013780594,10|0,0:0|0:0,0:0:0:0:
270,338,25762,5,2,1:2:0:0:
328,176,25928,1,2,0:2:0:0:
265,351,26095,2,0,P|230:359|195:351,1,72.2500013780594,10|2,0:2|0:2,0:0:0:0:
147,165,26428,2,0,P|171:190|182:225,1,72.2500013780594,2|2,0:2|1:2,0:0:0:0:
46,352,26762,1,10,0:2:0:0:
46,352,26928,2,0,P|55:318|80:291,1,72.2500013780594,2|0,0:2|1:0,0:0:0:0:
308,283,27262,6,0,B|221:257|236:318|148:297,1,161.499995687485,12|0,0:2|1:0,0:0:0:0:
0,131,27762,1,8,0:0:0:0:
184,220,27928,1,0,1:0:0:0:
0,316,28095,1,12,0:0:0:0:
141,147,28262,1,8,0:0:0:0:
141,147,28345,1,8,0:0:0:0:
141,147,28428,6,0,P|148:112|140:77,1,72.2500013780594,4|0,1:2|0:0,0:0:0:0:
22,231,28762,2,0,L|117:216,1,72.2500013780594,10|2,0:0|0:0,0:0:0:0:
251,284,29095,1,2,0:0:0:0:
89,366,29262,2,0,P|82:331|90:296,1,72.2500013780594,0|8,1:0|0:0,0:0:0:0:
219,200,29595,6,0,B|295:178|282:231|359:213,1,144.500002756119,2|2,0:0|0:0,0:0:0:0:
257,355,30095,2,0,L|248:261,1,72.2500013780594,8|0,0:0|0:0,0:0:0:0:
393,134,30428,1,2,0:0:0:0:
327,291,30595,1,2,1:2:0:0:
251,125,30762,2,0,P|216:118|181:126,1,72.2500013780594,8|2,0:0|0:0,0:0:0:0:
122,287,31095,6,0,P|73:293|38:200,1,144.500002756119,0|10,1:0|0:0,0:0:0:0:
104,53,31595,2,0,P|139:46|174:54,1,72.2500013780594,2|0,0:0|0:0,0:0:0:0:
209,237,31928,1,0,1:0:0:0:
70,130,32095,2,0,P|35:123|0:131,1,72.2500013780594,8|0,0:0|0:0,0:0:0:0:
45,313,32428,6,0,B|137:289|137:289|185:326,1,144.500002756119,0|8,1:0|0:0,0:0:0:0:
293,237,32928,2,0,L|280:326,1,72.2500013780594
114,210,33262,1,0,1:2:0:0:
284,139,33428,1,8,0:0:0:0:
208,305,33595,1,2,0:0:0:0:
139,132,33762,6,0,B|62:112|77:165|0:149,1,144.500002756119,2|10,1:2|0:0,0:0:0:0:
103,281,34262,2,0,L|116:192,1,72.2500013780594,2|0,0:0|0:0,0:0:0:0:
73,51,34595,1,2,1:2:0:0:
209,180,34762,2,0,P|244:187|279:179,1,72.2500013780594,10|0,0:2|0:0,0:0:0:0:
159,29,35095,6,0,L|168:118,1,72.2500013780594,2|0,1:2|0:0,0:0:0:0:
194,268,35428,2,0,B|270:248|255:301|333:285,1,144.500002756119,8|0,0:0|0:0,0:0:0:0:
437,130,35928,2,0,L|428:219,1,72.2500013780594,2|8,1:2|0:0,0:0:0:0:
410,364,36262,1,2,0:0:0:0:
312,193,36428,6,0,P|277:184|241:191,1,72.2500013780594,2|0,1:2|0:0,0:0:0:0:
321,384,36762,1,10,0:2:0:0:
403,209,36928,1,2,0:2:0:0:
219,292,37095,2,0,L|228:386,1,72.2500013780594,2|0,0:2|1:2,0:0:0:0:
418,284,37428,1,10,0:2:0:0:
218,209,37595,1,2,0:2:0:0:
422,127,37762,5,8,0:0:0:0:
322,359,37928,1,0,1:0:0:0:
212,124,38095,2,0,P|250:115|296:128,1,80.7499978437424,0|8,0:0|0:0,0:0:0:0:
232,363,38428,5,2,0:2:0:0:
123,137,38595,1,2,1:2:0:0:
336,201,38762,2,0,L|325:300,1,80.7499978437424,10|2,0:2|0:2,0:0:0:0:
100,370,39095,6,0,L|88:269,1,76.4999976654053,6|0,1:2|0:0,0:0:0:0:
232,143,39428,1,0,1:0:0:0:
16,223,39595,1,0,0:0:0:0:
243,139,39762,2,0,L|223:290,1,136,10|2,0:0|0:0,0:0:0:0:
225,273,40262,1,0,1:0:0:0:
72,108,40428,6,0,P|37:100|-6:112,1,72.2500013780594,2|0,1:2|0:0,0:0:0:0:
85,305,40762,1,0,1:0:0:0:
160,115,40928,1,0,0:0:0:0:
0,212,41095,2,0,B|70:192|61:245|135:226,1,136,10|2,0:0|0:0,0:0:0:0:
130,226,41595,1,0,1:0:0:0:
274,98,41762,6,0,L|263:193,1,72.2500013780594,2|0,1:2|0:0,0:0:0:0:
286,297,42095,2,0,P|260:272|217:260,1,72.2500013780594,0|0,1:0|0:0,0:0:0:0:
79,341,42428,2,0,B|162:312|162:312|207:350,1,136,10|2,0:0|0:0,0:0:0:0:
198,343,42928,1,2,1:2:0:0:
292,180,43095,5,0,1:2:0:0:
59,252,43262,1,2,0:0:0:0:
290,336,43428,2,0,L|298:260,1,76.4999976654053,0|2,1:0|0:0,0:0:0:0:
160,107,43762,5,8,0:0:0:0:
225,273,43928,1,2,0:0:0:0:
155,99,44095,2,0,B|101:84|101:84|56:98,1,102,0|0,1:0|0:0,0:0:0:0:
23,177,44428,6,0,B|102:151|90:214|177:184,1,144.500002756119,6|8,1:2|0:0,0:0:0:0:
319,143,44928,1,2,0:0:0:0:
233,262,45095,2,0,L|241:179,1,72.2500013780594,2|0,0:0|1:0,0:0:0:0:
158,60,45428,2,0,P|168:94|200:125,1,72.2500013780594,8|2,0:0|0:0,0:0:0:0:
391,71,45762,6,0,B|302:50|302:50|247:84,2,144.500002756119,2|10|2,1:2|0:0|0:0,0:0:0:0:
465,221,46595,1,0,1:0:0:0:
318,137,46762,2,0,L|326:220,1,72.2500013780594,10|0,0:0|0:0,0:0:0:0:
212,294,47095,6,0,P|247:286|290:298,1,72.2500013780594,2|0,1:2|0:0,0:0:0:0:
461,365,47428,1,8,0:0:0:0:
399,174,47595,1,2,1:2:0:0:
371,377,47762,2,0,L|379:294,1,72.2500013780594,2|0,0:2|1:0,0:0:0:0:
232,125,48095,2,0,L|240:208,1,72.2500013780594,8|2,0:0|0:0,0:0:0:0:
259,375,48428,5,14,0:2:0:0:
319,132,48595,1,0,1:0:0:0:
104,240,48762,1,0,1:0:0:0:
320,320,48928,1,2,1:2:0:0:
158,80,49095,5,2,1:2:0:0:
110,362,49262,1,0,1:0:0:0:
314,137,49428,2,0,B|369:116|369:116|432:141,1,121.124996765614,12|0,0:0|0:0,0:0:0:0:
467,202,49762,6,0,L|459:364,1,144.500002756119,4|2,1:2|0:2,0:0:0:0:
251,198,50428,6,0,B|175:176|188:229|111:211,1,144.500002756119,6|0,1:2|0:0,0:0:0:0:
292,380,51095,6,0,P|344:380|361:298,1,144.500002756119,4|0,1:2|0:0,0:0:0:0:
171,86,51762,6,0,L|178:169,1,76.4999976654053,4|2,1:2|0:2,0:0:0:0:
61,248,52095,2,0,P|96:240|141:249,1,76.4999976654053,10|2,0:2|0:2,0:0:0:0:
253,380,52428,5,14,0:2:0:0:
303,124,52595,1,0,1:0:0:0:
110,347,52762,5,8,0:0:0:0:
67,102,52928,1,2,1:2:0:0:
296,242,53095,5,10,0:2:0:0:
19,335,53262,1,0,1:0:0:0:
225,80,53428,6,0,L|215:193,1,85,8|2,0:0|0:0,0:0:0:0:
189,384,53762,5,10,0:2:0:0:
136,85,53919,1,10,0:2:0:0:
374,284,54077,1,10,0:2:0:0:
72,156,54235,1,10,0:2:0:0:
386,54,54428,5,0,1:0:0:0:
287,350,54595,1,0,1:0:0:0:
287,350,54678,1,0,1:0:0:0:
287,350,54762,2,0,L|279:240,1,85,12|0,0:0|0:0,0:0:0:0:
129,68,55095,6,0,P|85:58|38:75,1,85,10|0,0:1|0:0,0:0:0:0:
84,338,55428,2,0,P|124:348|165:338,1,85,10|0,0:1|0:0,0:0:0:0:
255,0,55928,5,10,0:1:0:0:
222,259,56095,1,10,0:1:0:0:
222,259,56428,6,0,P|182:270|131:257,1,89.2499972763062,6|0,1:2|0:0,0:0:0:0:
85,21,56762,2,0,P|128:10|170:21,1,89.2499972763062,14|0,0:2|0:0,0:0:0:0:
336,255,57095,5,10,0:2:0:0:
103,149,57262,1,2,1:2:0:0:
334,50,57428,1,10,0:2:0:0:
236,275,57595,1,2,1:2:0:0:
139,50,57762,6,0,P|72:35|12:149,1,178.499994552612,2|10,1:2|0:1,0:0:0:0:
87,310,58262,1,2,1:1:0:0:
184,125,58428,2,0,P|227:114|269:125,1,89.2499972763062,10|2,0:2|1:1,0:0:0:0:
174,363,58762,1,8,0:0:0:0:
90,142,58928,1,0,1:0:0:0:
278,329,59095,6,0,L|286:240,1,89.2499972763062,2|0,1:2|0:0,0:0:0:0:
208,36,59428,1,8,0:0:0:0:
127,227,59595,2,0,P|83:236|41:224,1,89.2499972763062,2|10,1:2|0:2,0:0:0:0:
134,0,59928,1,0,1:0:0:0:
209,224,60095,1,8,0:0:0:0:
4,74,60262,1,0,1:0:0:0:
259,147,60428,5,0,1:2:0:0:
1,259,60595,1,2,0:1:0:0:
181,64,60762,2,0,L|173:153,1,89.2499972763062,10|0,0:1|1:2,0:0:0:0:
148,372,61095,1,10,0:1:0:0:
55,144,61262,1,2,1:1:0:0:
258,344,61428,2,0,P|302:353|344:341,1,89.2499972763062,8|0,0:0|1:0,0:0:0:0:
181,196,61762,6,0,L|189:285,1,89.2499972763062,6|0,1:2|0:0,0:0:0:0:
415,213,62095,2,0,L|423:124,1,89.2499972763062,14|0,0:2|1:2,0:0:0:0:
190,108,62428,1,10,0:2:0:0:
350,270,62595,1,0,1:0:0:0:
299,36,62762,2,0,P|256:24|213:33,1,89.2499972763062,10|0,0:2|1:0,0:0:0:0:
107,218,63095,6,0,B|200:187|186:268|288:232,1,178.499994552612,2|8,1:2|0:2,0:0:0:0:
458,65,63595,1,2,1:2:0:0:
242,159,63762,1,10,0:2:0:0:
452,265,63928,1,0,1:0:0:0:
337,48,64095,2,0,L|345:137,1,89.2499972763062,8|0,0:0|1:0,0:0:0:0:
363,373,64428,5,10,0:2:0:0:
507,157,64595,2,0,P|463:145|420:155,1,89.2499972763062,2|0,1:2|0:0,0:0:0:0:
217,248,64928,5,10,0:2:0:0:
453,321,65095,2,0,L|461:232,1,89.2499972763062,2|0,1:2|3:0,0:0:0:0:
298,10,65428,5,10,0:2:0:0:
222,259,65595,2,0,P|178:270|135:260,1,89.2499972763062,2|0,1:2|0:0,0:0:0:0:
74,12,65928,1,0,1:0:0:0:
295,206,66095,2,0,B|342:217|342:217|406:159|343:73,1,178.499994552612,10|0,0:1|1:0,0:0:0:0:
177,0,66595,5,10,0:1:0:0:
132,211,66762,2,0,L|140:300,1,89.2499972763062,10|0,0:1|0:0,0:0:0:0:
276,88,67095,6,0,P|232:76|189:86,1,89.2499972763062,6|0,1:2|0:0,0:0:0:0:
244,320,67428,2,0,P|287:329|329:317,1,89.2499972763062,14|0,0:2|0:0,0:0:0:0:
443,107,67762,5,10,0:2:0:0:
203,212,67929,1,2,1:2:0:0:
450,317,68095,1,10,0:2:0:0:
358,70,68262,1,2,1:2:0:0:
239,325,68428,6,0,B|146:294|160:375|58:339,1,178.499994552612,2|10,1:2|0:1,0:0:0:0:
0,115,68928,1,2,1:1:0:0:
106,263,69095,2,0,L|114:174,1,89.2499972763062,10|2,0:2|1:1,0:0:0:0:
131,5,69428,1,8,0:0:0:0:
1,231,69595,1,0,1:0:0:0:
209,85,69762,6,0,P|253:73|296:84,1,89.2499972763062,2|0,1:2|0:0,0:0:0:0:
198,343,70095,1,8,0:0:0:0:
87,135,70262,2,0,P|42:123|0:134,1,89.2499972763062,2|10,1:2|0:2,0:0:0:0:
85,360,70595,2,0,L|98:251,1,89.2499972763062,0|8,1:0|0:0,0:0:0:0:
120,53,70928,5,0,1:0:0:0:
234,269,71095,1,0,1:2:0:0:
0,163,71262,1,2,0:1:0:0:
244,68,71428,2,0,L|233:156,1,89.2499972763062,10|0,0:1|1:2,0:0:0:0:
202,368,71762,1,10,0:1:0:0:
99,150,71928,1,2,1:1:0:0:
296,327,72095,2,0,P|340:338|383:327,1,89.2499972763062,8|0,0:0|1:0,0:0:0:0:
427,106,72428,6,0,P|383:95|341:107,1,89.2499972763062,6|0,1:2|0:0,0:0:0:0:
217,287,72762,2,0,L|212:194,1,89.2499972763062,14|0,0:2|1:2,0:0:0:0:
201,11,73095,1,10,0:2:0:0:
335,216,73262,1,0,1:0:0:0:
116,110,73428,2,0,P|160:99|202:111,1,89.2499972763062,10|0,0:2|1:0,0:0:0:0:
346,0,73762,6,0,L|341:93,1,89.2499972763062,2|0,1:2|0:0,0:0:0:0:
322,310,74095,1,8,0:2:0:0:
199,93,74262,1,2,1:2:0:0:
440,186,74428,1,10,0:2:0:0:
200,282,74595,1,0,1:0:0:0:
345,95,74762,2,0,P|356:51|344:9,1,89.2499972763062,8|0,0:0|1:0,0:0:0:0:
85,135,75095,5,10,0:2:0:0:
340,222,75262,2,0,L|450:204,1,89.2499972763062,2|0,1:2|0:0,0:0:0:0:
224,36,75595,5,10,0:2:0:0:
103,288,75762,2,0,L|-7:270,1,89.2499972763062,2|0,1:2|3:0,0:0:0:0:
134,0,76095,5,10,0:2:0:0:
260,239,76262,2,0,P|337:217|336:110,1,178.499994552612,6|0,1:2|1:0,0:0:0:0:
98,76,76762,5,10,0:1:0:0:
188,277,76928,1,0,0:0:0:0:
267,78,77095,1,0,1:0:0:0:
50,203,77262,5,10,0:1:0:0:
324,284,77428,2,0,L|480:263,1,121.124996765614,10|0,0:1|0:0,0:0:0:0:
494,210,77762,6,0,P|503:175|487:121,1,76.4999976654053,6|2,1:2|1:2,0:0:0:0:
434,22,78095,1,2,0:1:0:0:
380,147,78262,1,2,1:2:0:0:
316,21,78428,2,0,B|224:-2|252:58|149:36,1,152.999995330811,10|2,0:2|0:1,0:0:0:0:
208,207,78928,1,2,0:0:0:0:
284,100,79095,6,0,L|277:176,1,76.4999976654053,2|2,1:2|0:0,0:0:0:0:
130,247,79428,2,0,P|121:212|137:158,1,76.4999976654053,2|0,0:1|1:2,0:0:0:0:
265,267,79762,1,10,0:0:0:0:
135,333,79928,1,10,0:0:0:0:
265,379,80095,2,0,P|316:376|355:283,1,152.999995330811,2|6,1:2|1:2,0:0:0:0:
252,181,80595,5,0,1:2:0:0:
395,217,80762,2,0,P|357:209|320:218,1,76.4999976654053,2|2,0:1|1:2,0:0:0:0:
202,317,81095,2,0,L|195:240,1,76.4999976654053,8|2,0:2|0:0,0:0:0:0:
173,76,81428,1,2,0:1:0:0:
110,219,81595,1,2,0:0:0:0:
258,95,81762,6,0,P|299:85|350:100,1,85,0|0,1:2|0:0,0:0:0:0:
492,162,82095,1,8,0:0:0:0:
304,225,82262,1,0,1:0:0:0:
304,225,82345,1,0,1:0:0:0:
304,225,82428,2,0,L|299:153,3,44.6249986381531,0|0|0|0,1:0|1:0|1:0|1:0,0:0:0:0:
418,74,82762,1,0,1:0:0:0:
415,105,82845,1,0,1:0:0:0:
410,131,82928,1,0,1:0:0:0:
410,167,83011,1,0,1:0:0:0:
408,198,83095,6,0,L|416:312,1,93.5000028533936,4|0,1:2|0:0,0:0:0:0:
201,365,83428,2,0,L|209:251,1,93.5000028533936,10|0,0:2|1:2,0:0:0:0:
228,42,83762,5,10,0:2:0:0:
335,315,83928,1,2,1:2:0:0:
349,20,84095,5,8,0:2:0:0:
207,271,84262,1,2,1:2:0:0:
121,4,84428,5,8,0:2:0:0:
389,140,84595,1,2,0:0:0:0:
97,203,84762,5,8,0:2:0:0:
344,31,84928,1,2,1:2:0:0:
256,338,85095,5,8,0:2:0:0:
210,51,85262,1,0,1:2:0:0:
131,366,85428,5,10,0:2:0:0:
277,107,85595,1,2,1:2:0:0:
383,373,85762,6,0,P|427:384|474:372,1,93.5000028533936,2|0,1:2|0:0,0:0:0:0:
338,41,86095,5,10,0:2:0:0:
209,283,86262,2,0,P|164:294|118:282,1,93.5000028533936,2|8,1:2|0:2,0:0:0:0:
78,0,86595,5,2,1:2:0:0:
280,228,86762,1,10,0:2:0:0:
11,143,86928,2,0,L|129:126,1,93.5000028533936,2|0,1:2|1:2,0:0:0:0:
410,80,87262,5,2,1:2:0:0:
176,353,87428,1,2,1:2:0:0:
155,19,87595,1,0,1:2:0:0:
351,315,87762,6,0,P|405:327|462:217,1,187.000005706787,14|2,1:2|0:0,0:0:0:0:
