osu file format v14

[General]
AudioFilename: audio.mp3
AudioLeadIn: 0
PreviewTime: 55845
Countdown: 0
SampleSet: Soft
StackLeniency: 0.5
Mode: 0
LetterboxInBreaks: 0
WidescreenStoryboard: 0

[Editor]
DistanceSpacing: 1.6
BeatDivisor: 4
GridSize: 4
TimelineZoom: 1

[Metadata]
Title:Sansan Days (TV Size)
TitleUnicode:燦々デイズ (TV Size)
Artist:Spira Spica
ArtistUnicode:スピラ・スピカ
Creator:Mimari
Version:Present's Hard
Source:その着せ替え人形は恋をする
Tags:japanese pop anime sono bisque doll wa koi wo suru my dress up darling dress-up cosplay j-pop jpop present kuki1537 mokobe sytho op opening angelsnow
BeatmapID:3410655
BeatmapSetID:1669877

[Difficulty]
HPDrainRate:4
CircleSize:3.5
OverallDifficulty:6
ApproachRate:8
SliderMultiplier:1.4
SliderTickRate:1

[Events]
//Background and Video events
0,0,"bg.png",0,0
Video,-106,"video.mp4"
//Break Periods
//Storyboard Layer 0 (Background)
//Storyboard Layer 1 (Fail)
//Storyboard Layer 2 (Pass)
//Storyboard Layer 3 (Foreground)
//Storyboard Layer 4 (Overlay)
//Storyboard Sound Samples

[TimingPoints]
429,333.333333333333,4,2,22,50,1,0
1595,-111.111111111111,4,2,22,60,0,0
9928,-100,4,2,22,60,0,0
12428,-100,4,2,22,80,0,0
17762,-111.111111111111,4,2,22,50,0,0
39095,-105.263157894737,4,2,22,60,0,0
44428,-100,4,2,22,60,0,0
49762,-100,4,2,22,50,0,0
52428,-100,4,2,22,60,0,0
53762,315.789473684211,4,2,22,60,1,0
54428,333.333333333333,4,2,22,60,1,0
55095,333.333333333333,4,2,22,60,1,0
55095,-100,4,2,22,60,0,0
56428,-90.9090909090909,4,2,22,90,0,1
77761,-100,4,2,22,70,0,0
83094,-90.9090909090909,4,2,22,80,0,1
87762,-90.9090909090909,4,2,22,80,0,1
88094,-90.9090909090909,4,2,22,50,0,0

[Colours]
Combo1 : 209,209,209
Combo2 : 216,211,177
Combo3 : 217,130,130

[HitObjects]
23,72,1762,6,0,L|169:53,1,125.999996154785,6|2,1:1|0:0,0:0:0:0:
222,183,2428,2,0,L|212:254,2,62.9999980773926,2|2|2,0:0|0:0|1:2,0:0:0:0:
289,131,2928,1,2,0:0:0:0:
347,191,3095,2,0,L|326:334,1,125.999996154785,6|0,1:2|0:0,0:0:0:0:
259,358,3595,1,2,0:0:0:0:
259,358,3762,1,2,0:0:0:0:
91,341,4095,2,0,L|81:274,1,62.9999980773926,0|0,1:0|0:0,0:0:0:0:
168,297,4428,6,0,L|184:151,1,125.999996154785,6|2,1:2|0:0,0:0:0:0:
332,315,5095,2,0,L|348:169,1,125.999996154785,6|0,1:2|0:0,0:0:0:0:
263,190,5595,1,2,0:0:0:0:
226,112,5762,6,0,L|363:85,1,125.999996154785,6|0,1:2|1:0,0:0:0:0:
512,34,6428,2,0,L|378:6,1,125.999996154785,0|0,1:0|1:0,0:0:0:0:
173,48,7095,6,0,L|190:197,1,125.999996154785,4|0,1:2|1:0,0:0:0:0:
247,227,7595,1,8,0:0:0:0:
300,167,7762,2,0,L|292:94,1,62.9999980773926,0|0,0:0|1:0,0:0:0:0:
377,132,8095,1,8,0:0:0:0:
340,319,8428,2,0,L|194:307,1,125.999996154785,0|0,1:0|1:0,0:0:0:0:
132,338,8928,2,0,L|144:192,1,125.999996154785,8|0,0:0|1:0,0:0:0:0:
146,132,9428,1,8,0:0:0:0:
0,204,9762,5,10,0:0:0:0:
37,278,9928,2,0,L|120:262,1,70,2|0,1:2|1:0,0:0:0:0:
200,277,10262,1,10,0:0:0:0:
182,359,10428,2,0,L|99:343,1,70,2|0,1:2|1:0,0:0:0:0:
22,372,10762,1,2,1:2:0:0:
37,278,10928,6,0,L|11:43,1,210,14|0,0:2|0:0,0:0:0:0:
13,69,11928,1,12,0:0:0:0:
119,88,12095,2,0,L|236:74,1,105,12|0,0:0|0:0,0:0:0:0:
258,40,12428,6,0,L|341:48,1,70,2|0,1:2|1:0,0:0:0:0:
415,20,12762,2,0,L|407:103,1,70,8|0,0:0|1:0,0:0:0:0:
435,177,13095,2,0,L|352:169,1,70,2|0,0:0|1:0,0:0:0:0:
278,197,13428,2,0,L|286:114,1,70,8|0,0:0|1:0,0:0:0:0:
211,81,13762,1,2,1:2:0:0:
211,81,13928,1,0,1:0:0:0:
169,162,14095,2,0,L|179:249,1,70,8|0,0:0|1:0,0:0:0:0:
212,321,14428,1,2,0:0:0:0:
212,321,14594,1,0,1:0:0:0:
293,279,14761,2,0,L|362:286,1,70,8|0,0:0|1:0,0:0:0:0:
448,255,15095,5,2,1:2:0:0:
377,197,15262,1,8,0:0:0:0:
379,188,15345,1,8,0:0:0:0:
381,180,15428,2,0,L|387:100,1,70,0|8,1:0|0:0,0:0:0:0:
304,69,15762,2,0,L|300:32,3,35,2|0|0|0,1:2|1:0|1:0|1:0,0:0:0:0:
290,21,16095,1,8,0:0:0:0:
134,114,16428,6,0,L|114:274,1,140,10|10,0:0|0:0,0:0:0:0:
355,356,17262,1,14,0:0:0:0:
355,356,17428,2,0,L|346:236,1,105,14|0,0:0|0:0,0:0:0:0:
379,226,17762,6,0,L|386:149,1,62.9999980773926,4|0,1:2|0:0,0:0:0:0:
311,126,18095,2,0,L|318:49,1,62.9999980773926,10|0,0:0|0:0,0:0:0:0:
246,20,18428,2,0,L|119:39,1,125.999996154785,2|10,0:0|0:0,0:0:0:0:
66,100,18928,2,0,L|49:242,2,125.999996154785,2|2|2,0:0|0:0|0:0,0:0:0:0:
121,38,19762,1,2,0:0:0:0:
121,38,19928,2,0,L|191:27,1,62.9999980773926,2|8,1:2|0:0,0:0:0:0:
245,82,20262,6,0,L|392:58,1,125.999996154785,2|2,0:0|0:0,0:0:0:0:
382,143,20762,2,0,L|257:162,1,125.999996154785,10|0,0:0|0:0,0:0:0:0:
205,226,21262,1,0,1:0:0:0:
205,226,21428,2,0,L|193:295,1,62.9999980773926,8|0,0:0|0:0,0:0:0:0:
244,353,21762,1,0,1:0:0:0:
332,215,22095,2,0,L|321:152,1,62.9999980773926,8|0,0:0|0:0,0:0:0:0:
263,95,22428,2,0,L|273:32,2,62.9999980773926,2|2|8,0:0|1:2|0:0,0:0:0:0:
246,175,22928,1,2,0:0:0:0:
183,122,23095,6,0,L|39:149,2,125.999996154785,0|8|0,1:0|0:0|0:0,0:0:0:0:
221,49,23928,1,0,1:0:0:0:
138,49,24095,2,0,L|56:64,1,62.9999980773926,10|2,0:0|0:0,0:0:0:0:
59,145,24428,2,0,L|183:122,1,125.999996154785,0|8,1:0|0:0,0:0:0:0:
293,259,25095,2,0,L|280:332,1,62.9999980773926,2|2,0:0|1:2,0:0:0:0:
197,367,25428,2,0,L|177:234,1,125.999996154785,10|2,0:0|1:2,0:0:0:0:
163,153,25928,1,2,0:2:0:0:
239,189,26095,1,10,0:2:0:0:
239,189,26262,1,2,0:2:0:0:
311,148,26428,2,0,L|373:165,2,62.9999980773926,2|2|10,0:2|1:2|0:2,0:0:0:0:
271,74,26928,1,2,0:2:0:0:
439,76,27262,6,0,L|451:207,1,125.999996154785,12|0,0:2|1:0,0:0:0:0:
397,263,27762,2,0,L|390:325,1,62.9999980773926,8|0,0:0|1:0,0:0:0:0:
329,380,28095,1,12,0:0:0:0:
256,341,28262,1,8,0:0:0:0:
249,343,28345,1,8,0:0:0:0:
242,345,28428,6,0,L|235:272,1,62.9999980773926,4|0,1:2|0:0,0:0:0:0:
162,244,28762,2,0,L|169:171,1,62.9999980773926,10|2,0:0|0:0,0:0:0:0:
233,130,29095,1,2,0:0:0:0:
233,130,29262,1,0,1:0:0:0:
290,188,29428,1,8,0:0:0:0:
357,142,29595,2,0,L|495:168,1,125.999996154785,2|2,0:0|0:0,0:0:0:0:
465,84,30095,2,0,L|403:72,1,62.9999980773926,8|0,0:0|0:0,0:0:0:0:
357,142,30428,1,2,0:0:0:0:
372,222,30595,1,2,1:2:0:0:
333,294,30762,1,8,0:0:0:0:
333,294,30928,1,2,0:0:0:0:
260,254,31095,6,0,L|122:280,1,125.999996154785,0|10,1:0|0:0,0:0:0:0:
56,258,31595,1,2,0:0:0:0:
111,197,31762,2,0,L|97:135,1,62.9999980773926,0|0,0:0|1:0,0:0:0:0:
19,110,32095,1,8,0:0:0:0:
158,24,32428,2,0,L|296:50,1,125.999996154785,0|8,1:0|0:0,0:0:0:0:
253,124,32928,2,0,L|391:150,1,125.999996154785,0|0,0:0|1:2,0:0:0:0:
448,107,33428,1,8,0:0:0:0:
467,191,33595,1,2,0:0:0:0:
467,191,33762,6,0,L|493:329,1,125.999996154785,2|10,1:2|0:0,0:0:0:0:
419,355,34262,1,2,0:0:0:0:
377,284,34428,2,0,L|295:277,1,62.9999980773926,0|2,0:0|1:2,0:0:0:0:
254,224,34762,1,10,0:2:0:0:
354,112,35095,2,0,L|228:122,2,125.999996154785,2|8|0,1:2|0:0|0:0,0:0:0:0:
431,69,35928,2,0,L|437:131,1,62.9999980773926,2|8,1:2|0:0,0:0:0:0:
414,217,36261,1,2,0:0:0:0:
328,193,36428,6,0,L|203:203,1,125.999996154785,2|10,1:2|0:2,0:0:0:0:
134,253,36928,1,2,0:2:0:0:
105,172,37095,2,0,L|99:103,1,62.9999980773926,2|0,0:2|1:2,0:0:0:0:
158,45,37428,1,10,0:2:0:0:
72,22,37595,1,2,0:2:0:0:
14,93,37762,2,0,L|19:155,1,62.9999980773926,8|0,0:0|1:0,0:0:0:0:
47,234,38095,2,0,L|52:296,1,62.9999980773926,0|8,0:0|0:0,0:0:0:0:
8,369,38428,2,0,L|90:386,1,62.9999980773926,2|2,0:2|1:2,0:0:0:0:
163,384,38762,1,10,0:2:0:0:
163,384,38928,1,2,0:2:0:0:
194,301,39095,6,0,L|262:292,1,66.4999982242585,6|0,1:2|0:0,0:0:0:0:
348,313,39428,2,0,L|340:246,1,66.4999982242585,0|0,1:0|0:0,0:0:0:0:
262,205,39762,2,0,L|276:60,1,132.999996448517,10|2,0:0|0:0,0:0:0:0:
433,40,40428,2,0,L|423:115,1,66.4999982242585,2|0,1:2|0:0,0:0:0:0:
451,196,40761,2,0,L|382:186,1,66.4999982242585,0|0,1:0|0:0,0:0:0:0:
322,252,41095,2,0,L|172:269,1,132.999996448517,10|2,0:0|0:0,0:0:0:0:
215,92,41762,6,0,L|373:71,2,132.999996448517,2|0|10,1:2|1:0|0:0,0:0:0:0:
35,59,42762,1,2,0:0:0:0:
181,167,43095,2,0,L|192:250,1,66.4999982242585,0|2,1:2|0:0,0:0:0:0:
107,272,43428,2,0,L|94:358,1,66.4999982242585,0|2,1:0|0:0,0:0:0:0:
13,303,43762,2,0,L|1:238,2,66.4999982242585,8|2|0,0:0|0:0|1:0,0:0:0:0:
192,334,44428,6,0,L|344:352,1,140,6|8,1:2|0:0,0:0:0:0:
415,317,44928,1,2,0:0:0:0:
341,262,45095,2,0,L|201:245,1,140,2|8,0:0|0:0,0:0:0:0:
134,184,45595,1,2,0:0:0:0:
204,125,45762,2,0,L|223:36,1,70,2|0,1:2|0:0,0:0:0:0:
307,37,46095,2,0,L|292:105,1,70,10|0,0:0|0:0,0:0:0:0:
363,162,46428,2,0,L|382:73,1,70,2|0,0:0|1:0,0:0:0:0:
466,74,46761,2,0,L|451:142,1,70,10|0,0:0|0:0,0:0:0:0:
363,162,47095,6,0,L|379:301,1,140,2|8,1:2|0:0,0:0:0:0:
319,369,47595,1,2,1:2:0:0:
287,284,47762,2,0,L|270:144,1,140,2|8,0:2|0:0,0:0:0:0:
213,73,48262,1,2,0:0:0:0:
183,158,48428,2,0,L|105:176,1,70,14|0,0:2|1:0,0:0:0:0:
146,259,48762,2,0,L|68:277,1,70,0|2,1:0|1:2,0:0:0:0:
17,343,49095,1,2,1:2:0:0:
17,343,49262,1,0,1:0:0:0:
104,368,49428,1,12,0:0:0:0:
282,331,49762,6,0,L|318:44,2,280,4|6|4,1:2|1:2|1:2,0:0:0:0:
282,331,51762,1,4,1:2:0:0:
462,354,52096,1,10,0:2:0:0:
387,188,52428,6,0,L|396:96,1,70,14|0,0:2|1:0,0:0:0:0:
315,70,52762,2,0,L|308:139,1,70,8|2,0:0|1:2,0:0:0:0:
244,204,53095,2,0,L|152:213,1,70,10|0,0:2|1:0,0:0:0:0:
99,158,53428,1,8,0:0:0:0:
0,290,53762,6,0,L|11:372,1,70,10|10,0:2|0:2,0:0:0:0:
96,328,54077,2,0,L|84:249,1,70,10|10,0:2|0:2,0:0:0:0:
12,194,54428,1,0,1:0:0:0:
99,158,54595,1,0,1:0:0:0:
99,158,54678,1,0,1:0:0:0:
99,158,54762,1,12,0:0:0:0:
259,242,55095,6,0,L|275:71,1,140,10|10,0:1|0:1,0:0:0:0:
17,17,55928,1,10,0:1:0:0:
17,17,56094,2,0,L|28:129,1,105,10|0,0:1|0:0,0:0:0:0:
62,158,56428,6,0,L|173:171,1,77.0000023498536,6|0,1:2|0:0,0:0:0:0:
197,85,56762,2,0,L|308:98,1,77.0000023498536,14|0,0:2|0:0,0:0:0:0:
365,53,57095,1,10,0:2:0:0:
445,112,57262,1,2,1:2:0:0:
356,154,57428,1,10,0:2:0:0:
437,218,57595,1,2,1:2:0:0:
437,218,57762,2,0,L|422:371,1,154.000004699707,2|10,1:2|0:1,0:0:0:0:
336,325,58262,1,2,1:1:0:0:
336,325,58428,2,0,L|343:248,2,77.0000023498536,10|2|8,0:2|1:1|0:0,0:0:0:0:
251,379,58928,1,0,1:0:0:0:
216,284,59095,6,0,L|58:313,1,154.000004699707,2|8,1:2|0:0,0:0:0:0:
37,215,59595,2,0,L|124:223,1,77.0000023498536,2|10,1:2|0:2,0:0:0:0:
164,135,59928,2,0,L|87:127,1,77.0000023498536,0|8,1:0|0:0,0:0:0:0:
3,72,60262,1,0,1:0:0:0:
76,4,60428,1,0,1:2:0:0:
163,53,60595,1,2,0:1:0:0:
163,53,60762,2,0,L|239:60,1,77.0000023498536,10|0,0:1|1:2,0:0:0:0:
328,105,61095,1,10,0:1:0:0:
237,147,61262,2,0,L|160:154,2,77.0000023498536,2|8|0,1:1|0:0|1:0,0:0:0:0:
318,205,61762,6,0,L|310:281,1,77.0000023498536,6|0,1:2|0:0,0:0:0:0:
230,341,62095,2,0,L|222:264,1,77.0000023498536,14|0,0:2|1:2,0:0:0:0:
128,246,62428,1,10,0:2:0:0:
128,246,62595,1,0,1:0:0:0:
191,168,62762,2,0,L|198:91,1,77.0000023498536,10|0,0:2|1:0,0:0:0:0:
283,38,63095,2,0,L|436:23,1,154.000004699707,2|8,1:2|0:2,0:0:0:0:
498,102,63595,1,2,1:2:0:0:
454,192,63762,2,0,L|300:206,1,154.000004699707,10|8,0:2|0:0,0:0:0:0:
112,138,64428,5,10,0:2:0:0:
60,223,64595,2,0,L|69:306,1,77.0000023498536,2|0,1:2|0:0,0:0:0:0:
153,352,64928,1,10,0:2:0:0:
238,300,65095,2,0,L|321:309,2,77.0000023498536,2|0|10,1:2|3:0|0:2,0:0:0:0:
148,254,65595,2,0,L|131:100,1,154.000004699707,2|0,1:2|1:0,0:0:0:0:
214,44,66095,2,0,L|230:197,1,154.000004699707,10|0,0:1|1:0,0:0:0:0:
318,245,66595,1,10,0:1:0:0:
318,245,66762,2,0,L|394:236,1,77.0000023498536,10|0,0:1|0:0,0:0:0:0:
395,136,67095,6,0,L|318:127,1,77.0000023498536,6|0,1:2|0:0,0:0:0:0:
269,39,67428,2,0,L|192:30,1,77.0000023498536,14|0,0:2|0:0,0:0:0:0:
125,106,67762,1,10,0:2:0:0:
208,161,67929,1,2,1:2:0:0:
142,236,68095,1,10,0:2:0:0:
60,187,68262,1,2,1:2:0:0:
60,187,68429,2,0,L|75:340,1,154.000004699707,2|10,1:2|0:1,0:0:0:0:
169,372,68929,1,2,1:1:0:0:
253,319,69095,2,0,L|338:328,2,77.0000023498536,10|2|8,0:2|1:1|0:0,0:0:0:0:
169,372,69595,1,0,1:0:0:0:
75,340,69762,6,0,L|60:187,1,154.000004699707,2|8,1:2|0:0,0:0:0:0:
142,129,70262,2,0,L|229:137,1,77.0000023498536,2|10,1:2|0:2,0:0:0:0:
251,230,70595,2,0,L|174:222,1,77.0000023498536,0|8,1:0|0:0,0:0:0:0:
80,259,70929,1,0,1:0:0:0:
44,165,71095,1,0,1:2:0:0:
142,129,71262,1,2,0:1:0:0:
142,129,71429,2,0,L|218:136,1,77.0000023498536,10|0,0:1|1:2,0:0:0:0:
307,89,71762,1,10,0:1:0:0:
364,170,71929,2,0,L|375:265,2,77.0000023498536,2|8|0,1:1|0:0|1:0,0:0:0:0:
281,226,72428,6,0,L|292:321,1,77.0000023498536,6|0,1:2|0:0,0:0:0:0:
205,358,72762,2,0,L|196:281,1,77.0000023498536,14|0,0:2|1:2,0:0:0:0:
137,206,73095,1,10,0:2:0:0:
137,206,73262,1,0,1:0:0:0:
195,124,73429,2,0,L|300:138,1,77.0000023498536,10|0,0:2|1:0,0:0:0:0:
327,50,73762,2,0,L|174:29,1,154.000004699707,2|8,1:2|0:2,0:0:0:0:
99,96,74262,1,2,1:2:0:0:
195,124,74428,2,0,L|347:144,1,154.000004699707,10|8,0:2|0:0,0:0:0:0:
501,15,75095,5,10,0:2:0:0:
446,99,75262,2,0,L|455:182,1,77.0000023498536,2|0,1:2|0:0,0:0:0:0:
495,267,75595,1,10,0:2:0:0:
396,249,75762,2,0,L|313:258,2,77.0000023498536,2|0|10,1:2|3:0|0:2,0:0:0:0:
445,336,76262,2,0,L|291:352,1,154.000004699707,6|0,1:2|1:0,0:0:0:0:
212,290,76762,2,0,L|195:136,1,154.000004699707,10|0,0:1|1:0,0:0:0:0:
289,96,77262,1,10,0:1:0:0:
289,96,77428,2,0,L|280:19,1,77.0000023498536,10|0,0:1|0:0,0:0:0:0:
191,42,77762,6,0,L|107:34,2,70,6|2|2,1:2|1:2|0:1,0:0:0:0:
195,136,78262,1,2,1:2:0:0:
195,136,78428,2,0,L|48:121,1,140,10|2,0:2|0:1,0:0:0:0:
0,194,78928,1,2,0:0:0:0:
62,260,79095,2,0,L|67:341,1,70,2|2,1:2|0:0,0:0:0:0:
151,362,79428,2,0,L|146:292,1,70,2|0,0:1|1:2,0:0:0:0:
205,221,79762,1,10,0:0:0:0:
261,291,79928,1,10,0:0:0:0:
296,207,80095,1,2,1:2:0:0:
391,361,80428,6,0,L|400:199,1,140,6|2,1:2|0:1,0:0:0:0:
464,160,80928,2,0,L|452:71,2,70,2|8|2,1:2|0:2|0:0,0:0:0:0:
487,248,81428,1,2,0:1:0:0:
399,221,81595,1,2,0:0:0:0:
336,287,81762,2,0,L|226:301,1,105,0|0,1:2|0:0,0:0:0:0:
195,327,82095,1,8,0:0:0:0:
120,274,82262,1,0,1:0:0:0:
114,257,82345,1,0,1:0:0:0:
109,240,82428,2,0,L|118:188,3,35,0|0|0|0,1:0|1:0|1:0|1:0,0:0:0:0:
147,173,82762,2,0,L|138:121,3,35,0|0|0|0,1:0|1:0|1:0|1:0,0:0:0:0:
167,96,83095,6,0,L|295:82,1,115.50000352478,4|0,1:2|0:0,0:0:0:0:
315,120,83428,2,0,L|398:132,1,77.0000023498536,10|0,0:2|1:2,0:0:0:0:
495,131,83762,1,10,0:2:0:0:
495,131,83928,2,0,L|443:196,1,77.0000023498536,2|8,1:2|0:2,0:0:0:0:
398,280,84262,2,0,L|366:202,1,77.0000023498536,2|0,1:2|1:2,0:0:0:0:
315,120,84595,2,0,L|391:131,1,77.0000023498536,2|8,0:0|0:2,0:0:0:0:
412,32,84928,2,0,L|247:49,1,154.000004699707,2|0,1:2|1:2,0:0:0:0:
187,119,85429,1,10,0:2:0:0:
157,23,85595,1,2,1:2:0:0:
87,95,85762,6,0,L|74:170,1,77.0000023498536,2|0,1:2|0:0,0:0:0:0:
161,219,86095,1,10,0:2:0:0:
106,303,86262,2,0,L|31:316,2,77.0000023498536,2|8|2,1:2|0:2|1:2,0:0:0:0:
197,343,86762,1,10,0:2:0:0:
197,343,86928,2,0,L|325:358,1,115.50000352478,2|0,1:2|0:0,0:0:0:0:
359,337,87262,5,2,1:2:0:0:
432,269,87428,1,2,1:2:0:0:
432,269,87595,1,0,1:2:0:0:
380,183,87762,2,0,L|392:23,1,154.000004699707,14|2,1:2|0:0,0:0:0:0:
