osu file format v14

[General]
AudioFilename: audio.mp3
AudioLeadIn: 0
PreviewTime: 55845
Countdown: 0
SampleSet: Soft
StackLeniency: 0.7
Mode: 0
LetterboxInBreaks: 0
WidescreenStoryboard: 1

[Editor]
Bookmarks: 1929,12595,17929,28595,39262,44595,49929,52595,56595,77929
DistanceSpacing: 1.5
BeatDivisor: 8
GridSize: 4
TimelineZoom: 1

[Metadata]
Title:Sansan Days (TV Size)
TitleUnicode:燦々デイズ (TV Size)
Artist:Spira Spica
ArtistUnicode:スピラ・スピカ
Creator:Mimari
Version:Insane
Source:その着せ替え人形は恋をする
Tags:japanese pop anime sono bisque doll wa koi wo suru my dress up darling dress-up cosplay j-pop jpop present kuki1537 mokobe sytho op opening angelsnow
BeatmapID:3410893
BeatmapSetID:1669877

[Difficulty]
HPDrainRate:4.5
CircleSize:3.7
OverallDifficulty:8
ApproachRate:9
SliderMultiplier:1.6
SliderTickRate:1

[Events]
//Background and Video events
0,0,"bg.png",0,0
Video,-106,"video.mp4"
//Break Periods
//Storyboard Layer 0 (Background)
//Storyboard Layer 1 (Fail)
//Storyboard Layer 2 (Pass)
//Storyboard Layer 3 (Foreground)
//Storyboard Layer 4 (Overlay)
//Storyboard Sound Samples

[TimingPoints]
429,333.333333333333,4,2,22,50,1,0
1595,-100,4,2,22,60,0,0
1678,-100,4,2,22,60,0,0
1762,-200,4,2,22,60,0,0
7095,-166.666666666667,4,2,22,60,0,0
8428,-153.846153846154,4,2,22,60,0,0
10428,-117.64705882353,4,2,22,60,0,0
10928,-200,4,2,22,60,0,0
12095,-111.111111111111,4,2,22,60,0,0
12345,-111.111111111111,4,2,22,60,0,0
12428,-111.111111111111,4,2,22,80,0,0
12762,-100,4,2,22,80,0,0
17762,-117.647058823529,4,2,22,50,0,0
27262,-105.263157894737,4,2,22,50,0,0
28428,-117.64705882353,4,2,22,50,0,0
38095,-105.263157894737,4,2,22,50,0,0
39095,-125,4,2,22,60,0,0
44095,-125,4,2,22,60,0,0
44345,-125,4,2,22,5,0,0
44428,-117.647058823529,4,2,22,60,0,0
49428,-105.263157894737,4,2,22,60,0,0
49678,-105.263157894737,4,2,22,5,0,0
49762,-133.333333333334,4,2,22,50,0,0
51762,-125,4,2,22,40,0,0
52428,-111.111111111111,4,2,22,60,0,0
53428,-100,4,2,22,60,0,0
53762,315.789473684211,4,2,22,50,1,0
54428,333.333333333333,4,2,22,60,1,0
55095,333.333333333333,4,2,22,60,1,0
55095,-100,4,2,22,60,0,0
56428,-100,4,2,22,90,0,1
77428,-105.263157894737,4,2,22,90,0,1
77678,-105.263157894737,4,2,22,5,0,1
77761,-125,4,2,22,70,0,0
81762,-111.111111111111,4,2,22,70,0,0
82428,-95.2380952380952,4,2,22,70,0,0
83094,-100,4,2,22,80,0,1
88094,-111.111111111111,4,2,22,50,0,0

[Colours]
Combo1 : 209,209,209
Combo2 : 216,211,177
Combo3 : 217,130,130

[HitObjects]
256,192,429,12,0,1512,0:0:0:0:
327,34,1595,5,0,1:0:0:0:
327,34,1678,1,0,1:0:0:0:
327,34,1762,2,0,B|402:65|402:65|349:213,1,240,6|2,1:2|1:2,0:0:0:0:
434,236,3095,6,0,B|343:209|368:277|272:260,1,160,6|2,1:2|0:0,0:0:0:0:
282,261,4095,1,0,1:0:0:0:
195,336,4428,6,0,P|138:343|91:251,2,160,6|6|6,1:2|1:2|1:2,0:0:0:0:
278,185,6095,1,0,1:0:0:0:
343,334,6428,2,0,L|425:323,1,80,0|0,1:0|1:0,0:0:0:0:
511,198,7095,6,0,L|405:185,1,95.9999970703126,4|0,1:2|1:0,0:0:0:0:
350,233,7595,1,8,0:0:0:0:
350,233,7762,2,0,P|337:189|356:132,1,95.9999970703126,0|8,0:0|0:0,0:0:0:0:
193,0,8428,6,0,B|147:24|147:24|179:134,1,155.999992858887,0|8,1:0|0:0,0:0:0:0:
244,170,9095,2,0,P|262:124|229:63,1,103.999995239258,0|8,0:0|0:0,0:0:0:0:
43,173,9762,5,10,0:0:0:0:
205,252,9928,1,2,1:2:0:0:
46,325,10095,1,0,1:0:0:0:
154,158,10262,5,10,0:0:0:0:
188,356,10428,2,0,P|152:363|119:354,1,68.0000012969971,2|0,1:2|1:0,0:0:0:0:
33,171,10762,5,2,1:2:0:0:
214,263,10928,2,0,B|305:236|280:304|383:285,1,160,14|0,0:2|0:0,0:0:0:0:
510,176,11762,5,0,1:0:0:0:
449,311,11928,1,12,0:0:0:0:
383,127,12095,2,0,P|348:119|314:127,1,71.9999978027344,12|0,0:0|0:0,0:0:0:0:
363,358,12428,5,2,1:2:0:0:
440,209,12595,1,0,1:0:0:0:
357,370,12762,2,0,L|257:359,1,80,8|0,0:0|1:0,0:0:0:0:
126,331,13095,5,2,0:0:0:0:
310,255,13262,1,0,1:0:0:0:
114,201,13428,2,0,L|214:190,1,80,8|0,0:0|1:0,0:0:0:0:
364,182,13762,5,2,1:2:0:0:
226,296,13928,1,0,1:0:0:0:
282,120,14095,2,0,P|291:80|280:36,1,80,8|0,0:0|1:0,0:0:0:0:
114,201,14428,5,2,0:0:0:0:
310,255,14595,1,0,1:0:0:0:
161,98,14762,2,0,P|121:89|77:100,1,80,8|0,0:0|1:0,0:0:0:0:
109,317,15095,5,2,1:2:0:0:
228,186,15262,1,8,0:0:0:0:
228,186,15345,1,8,0:0:0:0:
228,186,15428,2,0,L|220:276,1,80,0|8,1:0|0:0,0:0:0:0:
359,363,15762,6,0,L|354:306,3,40,2|0|0|0,1:2|1:0|1:0|1:0,0:0:0:0:
353,293,16095,2,0,P|393:302|437:291,1,80,8|0,0:0|0:0,0:0:0:0:
468,145,16428,6,0,P|429:137|390:146,1,80,10|0,0:0|0:0,0:0:0:0:
277,261,16762,2,0,P|232:254|207:146,1,160,10|0,0:0|0:0,0:0:0:0:
276,12,17262,1,14,0:0:0:0:
352,168,17428,2,0,P|312:176|271:167,1,80,14|0,0:0|0:0,0:0:0:0:
171,75,17762,6,0,B|248:56|228:111|327:84,2,136.000002593994,4|10|2,1:2|0:0|0:0,0:0:0:0:
96,187,18595,1,0,1:0:0:0:
202,151,18762,1,10,0:0:0:0:
202,151,18928,2,0,L|206:219,1,68.0000012969971,2|0,0:0|1:0,0:0:0:0:
83,292,19262,6,0,P|109:270|141:261,1,68.0000012969971,2|8,0:0|0:0,0:0:0:0:
262,382,19595,1,2,0:0:0:0:
150,342,19762,1,2,0:0:0:0:
255,271,19928,2,0,B|332:252|312:307|411:280,1,136.000002593994,2|2,1:2|0:0,0:0:0:0:
462,367,20428,6,0,L|467:299,1,68.0000012969971,0|2,1:0|0:0,0:0:0:0:
475,195,20762,2,0,B|399:169|399:169|382:202|346:208,1,136.000002593994,10|0,0:0|0:0,0:0:0:0:
266,119,21262,1,0,1:0:0:0:
266,119,21428,2,0,L|271:186,1,68.0000012969971,8|0,0:0|0:0,0:0:0:0:
376,84,21762,6,0,P|350:62|318:53,1,68.0000012969971,0|0,1:0|0:0,0:0:0:0:
418,197,22095,1,8,0:0:0:0:
465,85,22262,1,0,0:0:0:0:
340,165,22428,1,2,0:0:0:0:
340,165,22595,2,0,P|333:198|342:230,1,68.0000012969971,2|8,1:2|0:0,0:0:0:0:
455,321,22928,6,0,B|435:308|420:287|420:287|316:312,2,136.000002593994,2|2|2,0:0|0:0|0:0,0:0:0:0:
497,178,23762,2,0,L|491:245,1,68.0000012969971,0|0,0:0|1:0,0:0:0:0:
369,167,24095,1,10,0:0:0:0:
497,99,24262,1,2,0:0:0:0:
497,99,24428,6,0,P|464:90|430:99,1,68.0000012969971,0|0,1:0|0:0,0:0:0:0:
358,183,24762,2,0,P|314:196|279:108,1,136.000002593994,8|2,0:0|0:0,0:0:0:0:
305,0,25262,1,2,1:2:0:0:
404,94,25428,2,0,L|329:83,1,68.0000012969971,10|0,0:0|0:0,0:0:0:0:
173,61,25762,5,2,1:2:0:0:
289,147,25928,1,2,0:2:0:0:
141,175,26095,2,0,L|216:164,1,68.0000012969971,10|2,0:2|0:2,0:0:0:0:
318,262,26428,2,0,P|292:240|260:231,1,68.0000012969971,2|2,0:2|1:2,0:0:0:0:
142,305,26762,1,10,0:2:0:0:
142,305,26928,2,0,P|167:282|180:251,1,68.0000012969971,2|0,0:2|1:0,0:0:0:0:
78,114,27262,6,0,B|27:140|27:140|68:259,1,151.999995941162,12|0,0:2|1:0,0:0:0:0:
240,295,27762,1,8,0:0:0:0:
153,165,27928,1,0,1:0:0:0:
119,337,28095,1,12,0:0:0:0:
245,198,28262,1,8,0:0:0:0:
245,198,28345,1,8,0:0:0:0:
245,198,28428,6,0,P|278:190|315:198,1,68.0000012969971,4|0,1:2|0:0,0:0:0:0:
317,342,28762,2,0,L|323:256,1,68.0000012969971,10|2,0:0|0:0,0:0:0:0:
421,171,29095,1,2,0:0:0:0:
421,171,29262,2,0,P|410:203|384:231,1,68.0000012969971,0|8,1:0|0:0,0:0:0:0:
253,190,29595,6,0,B|245:91|245:91|302:116,1,136.000002593994,2|2,0:0|0:0,0:0:0:0:
362,13,30095,2,0,L|355:84,1,68.0000012969971,8|0,0:0|0:0,0:0:0:0:
337,211,30428,1,2,0:0:0:0:
258,78,30595,1,2,1:2:0:0:
232,222,30762,2,0,P|198:228|165:220,1,68.0000012969971,8|2,0:0|0:0,0:0:0:0:
59,145,31095,6,0,B|136:164|116:109|215:136,1,136.000002593994,0|10,1:0|0:0,0:0:0:0:
159,288,31595,2,0,L|165:220,1,68.0000012969971,2|0,0:0|0:0,0:0:0:0:
97,73,31928,1,0,1:0:0:0:
21,225,32095,2,0,P|56:232|91:222,1,68.0000012969971,8|0,0:0|0:0,0:0:0:0:
171,116,32428,6,0,P|217:108|257:177,1,136.000002593994,0|8,1:0|0:0,0:0:0:0:
201,302,32928,2,0,P|166:309|131:299,1,68.0000012969971
181,192,33262,1,0,1:2:0:0:
286,252,33428,2,0,L|279:321,1,68.0000012969971,8|2,0:0|0:0,0:0:0:0:
258,173,33762,6,0,B|333:157|320:203|393:189,1,136.000002593994,2|10,1:2|0:0,0:0:0:0:
485,106,34262,2,0,L|480:174,1,68.0000012969971,2|0,0:0|0:0,0:0:0:0:
386,265,34595,1,2,1:2:0:0:
345,109,34762,2,0,P|377:101|410:108,1,68.0000012969971,10|0,0:2|0:0,0:0:0:0:
297,244,35095,6,0,L|302:176,1,68.0000012969971,2|0,1:2|0:0,0:0:0:0:
250,71,35428,2,0,B|175:55|188:101|115:87,1,136.000002593994,8|0,0:0|0:0,0:0:0:0:
223,214,35928,2,0,L|218:146,1,68.0000012969971,2|8,1:2|0:0,0:0:0:0:
93,217,36262,1,2,0:0:0:0:
192,292,36428,6,0,P|224:299|257:292,1,68.0000012969971,2|0,1:2|0:0,0:0:0:0:
348,184,36762,1,10,0:2:0:0:
223,214,36928,1,2,0:2:0:0:
342,277,37095,2,0,L|347:209,1,68.0000012969971,2|0,0:2|1:2,0:0:0:0:
219,112,37428,6,0,P|243:135|275:146,1,68.0000012969971,10|2,0:2|0:2,0:0:0:0:
403,0,37762,1,8,0:0:0:0:
244,41,37928,1,0,1:0:0:0:
397,115,38095,2,0,L|492:127,1,75.9999979705811,0|8,0:0|0:0,0:0:0:0:
329,40,38428,5,2,0:2:0:0:
367,212,38595,1,2,1:2:0:0:
327,31,38762,2,0,L|232:43,1,75.9999979705811,10|2,0:2|0:2,0:0:0:0:
210,186,39095,6,0,P|242:194|292:171,1,64,6|0,1:2|0:0,0:0:0:0:
174,33,39428,1,0,1:0:0:0:
122,183,39595,1,0,0:0:0:0:
122,183,39762,2,0,L|135:315,1,128,10|2,0:0|0:0,0:0:0:0:
134,310,40262,1,0,1:0:0:0:
227,358,40428,6,0,L|234:268,1,64,2|0,1:2|0:0,0:0:0:0:
243,174,40762,1,0,1:0:0:0:
330,258,40928,1,0,0:0:0:0:
330,258,41095,2,0,B|399:243|387:285|455:272,1,128,10|2,0:0|0:0,0:0:0:0:
453,273,41595,1,0,1:0:0:0:
479,153,41762,6,0,P|448:145|417:153,1,64,2|0,1:2|0:0,0:0:0:0:
336,243,42095,2,0,L|332:164,1,64,0|0,1:0|0:0,0:0:0:0:
325,65,42428,2,0,B|255:50|267:92|201:80,1,128,10|2,0:0|0:0,0:0:0:0:
201,80,42928,1,2,1:2:0:0:
107,210,43095,5,0,1:2:0:0:
254,159,43262,2,0,L|240:310,1,128,2|2,0:0|0:0,0:0:0:0:
298,363,43762,5,8,0:0:0:0:
161,331,43928,1,2,0:0:0:0:
310,368,44095,2,0,P|344:371|391:302,1,96,0|0,1:0|0:0,0:0:0:0:
394,318,44428,6,0,B|355:287|355:287|385:172,1,136.000002593994,6|8,1:2|0:0,0:0:0:0:
415,45,44928,1,2,0:0:0:0:
294,149,45095,2,0,P|259:157|210:138,1,68.0000012969971,2|0,0:0|1:0,0:0:0:0:
331,6,45428,2,0,L|326:84,1,68.0000012969971,8|2,0:0|0:0,0:0:0:0:
360,207,45762,2,0,B|435:190|422:236|493:223,2,136.000002593994,2|10|2,1:2|0:0|0:0,0:0:0:0:
279,332,46595,1,0,1:0:0:0:
390,281,46762,2,0,L|384:355,1,68.0000012969971,10|0,0:0|0:0,0:0:0:0:
283,239,47095,6,0,P|248:231|199:250,1,68.0000012969971,2|0,1:2|0:0,0:0:0:0:
96,294,47428,1,8,0:0:0:0:
214,367,47595,1,2,1:2:0:0:
84,287,47762,2,0,L|92:372,1,68.0000012969971,2|0,0:2|1:0,0:0:0:0:
211,234,48095,2,0,L|219:149,1,68.0000012969971,8|2,0:0|0:0,0:0:0:0:
21,229,48428,5,14,0:2:0:0:
169,302,48595,1,0,1:0:0:0:
134,129,48762,1,0,1:0:0:0:
78,306,48928,1,2,1:2:0:0:
210,154,49095,5,2,1:2:0:0:
251,352,49262,1,0,1:0:0:0:
134,215,49428,2,0,L|1:231,1,113.999996955872,12|0,0:0|0:0,0:0:0:0:
2,232,49762,6,0,P|6:166|70:134,1,120.000004577637,4|2,1:2|0:2,0:0:0:0:
217,51,50428,6,0,L|204:170,1,120.000004577637,6|0,1:2|0:0,0:0:0:0:
23,45,51095,6,0,B|92:33|78:70|147:57,1,120.000004577637,4|0,1:2|0:0,0:0:0:0:
275,192,51762,6,0,P|242:184|192:200,1,64,4|2,1:2|0:2,0:0:0:0:
149,310,52095,2,0,L|155:233,1,64,10|2,0:2|0:2,0:0:0:0:
166,83,52428,5,14,0:2:0:0:
237,266,52595,1,0,1:0:0:0:
307,89,52762,2,0,P|343:81|391:102,1,71.9999978027344,8|2,0:0|1:2,0:0:0:0:
330,301,53095,5,10,0:2:0:0:
235,142,53262,1,0,1:0:0:0:
337,309,53428,2,0,L|430:298,1,80,8|2,0:0|0:0,0:0:0:0:
307,89,53762,5,10,0:2:0:0:
249,260,53919,1,10,0:2:0:0:
421,161,54077,1,10,0:2:0:0:
230,62,54235,1,10,0:2:0:0:
334,255,54428,5,0,1:0:0:0:
415,62,54595,1,0,1:0:0:0:
415,62,54678,1,0,1:0:0:0:
415,62,54762,2,0,P|374:51|321:71,1,80,12|0,0:0|0:0,0:0:0:0:
281,201,55095,6,0,L|289:97,1,80,10|0,0:1|0:0,0:0:0:0:
137,17,55428,2,0,L|145:121,1,80,10|0,0:1|0:0,0:0:0:0:
163,383,55928,5,10,0:1:0:0:
70,189,56095,1,10,0:1:0:0:
70,189,56428,6,0,P|110:178|149:189,1,80,6|0,1:2|0:0,0:0:0:0:
244,302,56762,2,0,P|214:272|204:233,1,80,14|0,0:2|0:0,0:0:0:0:
364,64,57095,1,10,0:2:0:0:
290,230,57262,1,2,1:2:0:0:
207,53,57428,2,0,L|218:158,1,80,10|2,0:2|1:2,0:0:0:0:
361,281,57762,6,0,P|425:264|432:167,1,160,2|10,1:2|0:1,0:0:0:0:
359,18,58262,1,2,1:1:0:0:
294,187,58428,2,0,P|255:196|214:188,1,80,10|2,0:2|1:1,0:0:0:0:
166,36,58762,2,0,L|177:141,1,80,8|0,0:0|1:0,0:0:0:0:
95,259,59095,6,0,P|105:220|134:189,1,80,2|0,1:2|0:0,0:0:0:0:
261,79,59428,1,8,0:0:0:0:
263,273,59595,2,0,L|174:258,1,80,2|10,1:2|0:2,0:0:0:0:
174,115,59928,2,0,P|200:143|213:184,1,80,0|8,1:0|0:0,0:0:0:0:
126,338,60262,1,0,1:0:0:0:
40,164,60428,5,0,1:2:0:0:
182,270,60595,1,2,0:1:0:0:
21,339,60762,2,0,L|32:234,1,80,10|0,0:1|1:2,0:0:0:0:
92,92,61095,1,10,0:1:0:0:
178,259,61262,1,2,1:1:0:0:
245,103,61428,2,0,P|285:92|324:103,1,80,8|0,0:0|1:0,0:0:0:0:
295,261,61762,6,0,L|284:156,1,80,6|0,1:2|0:0,0:0:0:0:
404,115,62095,2,0,P|392:154|363:182,1,80,14|0,0:2|1:2,0:0:0:0:
230,104,62428,1,10,0:2:0:0:
371,36,62595,1,0,1:0:0:0:
264,180,62762,2,0,P|225:189|187:178,1,80,10|0,0:2|1:0,0:0:0:0:
121,7,63095,6,0,P|71:11|48:110,1,160,2|8,1:2|0:2,0:0:0:0:
109,261,63595,1,2,1:2:0:0:
172,105,63762,1,10,0:2:0:0:
26,189,63928,1,0,1:0:0:0:
188,257,64095,2,0,L|196:175,1,80,8|0,0:0|1:0,0:0:0:0:
215,26,64428,5,10,0:2:0:0:
291,193,64595,2,0,P|329:204|367:195,1,80,2|0,1:2|0:0,0:0:0:0:
489,103,64928,5,10,0:2:0:0:
321,31,65095,2,0,L|329:113,1,80,2|0,1:2|3:0,0:0:0:0:
409,266,65428,5,10,0:2:0:0:
490,96,65595,2,0,P|451:86|413:97,1,80,2|0,1:2|0:0,0:0:0:0:
324,277,65928,1,0,1:0:0:0:
245,99,66095,2,0,B|204:85|204:85|147:146|220:216,1,160,10|0,0:1|1:0,0:0:0:0:
264,338,66595,5,10,0:1:0:0:
331,194,66762,2,0,P|369:183|407:193,1,80,10|0,0:1|0:0,0:0:0:0:
359,350,67095,6,0,L|369:255,1,80,6|0,1:2|0:0,0:0:0:0:
250,197,67428,2,0,P|260:235|288:262,1,80,14|0,0:2|0:0,0:0:0:0:
423,193,67762,1,10,0:2:0:0:
255,113,67929,1,2,1:2:0:0:
434,83,68095,2,0,L|425:162,1,80,10|2,0:2|1:2,0:0:0:0:
398,306,68428,6,0,B|312:281|326:340|233:320,1,160,2|10,1:2|0:1,0:0:0:0:
99,249,68928,1,2,1:1:0:0:
175,377,69095,2,0,L|166:297,1,80,10|2,0:2|1:1,0:0:0:0:
300,214,69428,2,0,P|268:238|229:243,1,80,8|0,0:0|1:0,0:0:0:0:
99,168,69762,6,0,L|190:183,1,80,2|0,1:2|0:0,0:0:0:0:
359,102,70095,1,8,0:0:0:0:
179,22,70262,2,0,P|168:60|179:98,1,80,2|10,1:2|0:2,0:0:0:0:
313,185,70595,2,0,P|284:157|246:147,1,80,0|8,1:0|0:0,0:0:0:0:
136,260,70928,5,0,1:0:0:0:
301,284,71095,1,0,1:2:0:0:
172,171,71262,1,2,0:1:0:0:
212,343,71428,2,0,L|221:261,1,80,10|0,0:1|1:2,0:0:0:0:
252,59,71762,1,10,0:1:0:0:
381,237,71928,1,2,1:1:0:0:
411,43,72095,2,0,P|372:32|334:43,1,80,8|0,0:0|1:0,0:0:0:0:
316,194,72428,6,0,L|307:114,1,80,6|0,1:2|0:0,0:0:0:0:
172,36,72762,2,0,L|166:120,1,80,14|0,0:2|1:2,0:0:0:0:
239,288,73095,1,10,0:2:0:0:
307,114,73262,1,0,1:0:0:0:
160,256,73428,2,0,P|121:266|83:255,1,80,10|0,0:2|1:0,0:0:0:0:
29,74,73762,6,0,P|66:63|105:73,1,80,2|0,1:2|0:0,0:0:0:0:
233,208,74095,1,8,0:2:0:0:
69,147,74262,1,2,1:2:0:0:
237,55,74428,2,0,L|229:147,1,80,10|0,0:2|1:0,0:0:0:0:
152,268,74762,2,0,L|142:178,1,80,8|0,0:0|1:0,0:0:0:0:
127,31,75095,5,10,0:2:0:0:
224,216,75262,2,0,P|261:226|300:216,1,80,2|0,1:2|0:0,0:0:0:0:
278,3,75595,5,10,0:2:0:0:
154,171,75762,2,0,P|117:181|77:171,1,80,2|0,1:2|3:0,0:0:0:0:
200,0,76095,5,10,0:2:0:0:
326,145,76262,2,0,B|412:120|398:179|491:159,1,160,6|0,1:2|1:0,0:0:0:0:
341,264,76762,5,10,0:1:0:0:
241,112,76928,2,0,L|248:192,1,80,0|0,0:0|1:0,0:0:0:0:
293,359,77262,5,10,0:1:0:0:
397,189,77428,2,0,P|439:191|471:268,1,113.999996955872,10|0,0:1|0:0,0:0:0:0:
474,262,77762,6,0,L|469:348,1,64,6|2,1:2|1:2,0:0:0:0:
378,384,78095,2,0,L|373:298,1,64,2|2,0:1|1:2,0:0:0:0:
292,227,78428,2,0,B|223:209|235:260|152:241,1,128,10|2,0:2|0:1,0:0:0:0:
86,295,78928,1,2,0:0:0:0:
86,295,79095,6,0,L|96:206,1,64,2|2,1:2|0:0,0:0:0:0:
0,126,79428,2,0,P|24:156|61:167,1,64,2|0,0:1|1:2,0:0:0:0:
192,86,79762,1,10,0:0:0:0:
77,45,79928,1,10,0:0:0:0:
129,179,80095,2,0,L|120:97,1,64,2|0,1:2|0:0,0:0:0:0:
25,245,80428,6,0,B|94:227|82:278|165:259,1,128,6|2,1:2|0:1,0:0:0:0:
75,379,80928,1,2,1:2:0:0:
75,379,81095,2,0,P|52:350|50:312,1,64,8|2,0:2|0:0,0:0:0:0:
168,265,81428,2,0,P|154:298|122:319,1,64,2|2,0:1|0:0,0:0:0:0:
219,189,81762,6,0,P|257:178|291:189,1,71.9999978027344,0|0,1:2|0:0,0:0:0:0:
207,357,82095,1,8,0:0:0:0:
135,194,82262,1,0,1:0:0:0:
135,194,82345,1,0,1:0:0:0:
135,194,82428,2,0,L|143:116,3,41.9999987182618,0|0|0|0,1:0|1:0|1:0|1:0,0:0:0:0:
217,215,82762,2,0,L|223:290,3,41.9999987182618,0|0|0|0,1:0|1:0|1:0|1:0,0:0:0:0:
298,202,83095,6,0,L|304:100,1,80,4|0,1:2|0:0,0:0:0:0:
126,60,83428,2,0,L|132:162,1,80,10|0,0:2|1:2,0:0:0:0:
148,300,83762,5,10,0:2:0:0:
224,105,83928,1,2,1:2:0:0:
286,358,84095,5,8,0:2:0:0:
190,181,84262,1,2,1:2:0:0:
101,366,84428,6,0,P|61:374|5:351,1,80,0|2,1:2|0:0,0:0:0:0:
118,146,84762,5,8,0:2:0:0:
192,373,84928,1,2,1:2:0:0:
300,147,85095,5,8,0:2:0:0:
97,233,85262,1,0,1:2:0:0:
326,312,85428,5,10,0:2:0:0:
171,272,85595,1,2,1:2:0:0:
387,153,85762,6,0,L|377:262,1,80,2|0,1:2|0:0,0:0:0:0:
285,384,86095,5,10,0:2:0:0:
214,169,86262,2,0,P|252:159|291:167,1,80,2|8,1:2|0:2,0:0:0:0:
448,363,86595,5,2,1:2:0:0:
481,135,86762,1,10,0:2:0:0:
324,299,86928,2,0,P|285:307|246:297,1,80,2|0,1:2|1:2,0:0:0:0:
242,70,87262,5,2,1:2:0:0:
390,238,87428,1,2,1:2:0:0:
415,23,87595,1,0,1:2:0:0:
260,198,87762,6,0,L|92:172,1,160,14|2,1:2|0:0,0:0:0:0:
