osu file format v14

[General]
AudioFilename: audio.mp3
AudioLeadIn: 0
PreviewTime: 56095
Countdown: 0
SampleSet: Soft
StackLeniency: 0.7
Mode: 0
LetterboxInBreaks: 0
WidescreenStoryboard: 1

[Editor]
DistanceSpacing: 1.1
BeatDivisor: 4
GridSize: 32
TimelineZoom: 2.3

[Metadata]
Title:Sansan Days (TV Size)
TitleUnicode:燦々デイズ (TV Size)
Artist:Spira Spica
ArtistUnicode:スピラ・スピカ
Creator:Hisae
Version:Xahlt's Easy
Source:その着せ替え人形は恋をする
Tags:Raitzuki Xahlt Gweon Sua Kuon- Kyuukai Eimi Fukada yaleufeu Sotarks NEVIR NEVlR sono bisque doll wa koi wo suru my dress up darling dress-up cosplay anime op opening pop jpop j-pop japanese rock jrock j-rock 幹葉 Mikiha 寺西 裕二 Teranishi Yuji ますだ Masuda kisekae ningyou 着せ恋
BeatmapID:3541523
BeatmapSetID:1731386

[Difficulty]
HPDrainRate:2
CircleSize:2.5
OverallDifficulty:3
ApproachRate:4
SliderMultiplier:0.84
SliderTickRate:1

[Events]
//Background and Video events
Video,0,"VD.mp4"
0,0,"TAAANOSHIII DESU NEEE FOUR SHIIIIIINE SAIKOUUU.jpg",0,0
//Break Periods
//Storyboard Layer 0 (Background)
//Storyboard Layer 1 (Fail)
//Storyboard Layer 2 (Pass)
//Storyboard Layer 3 (Foreground)
//Storyboard Layer 4 (Overlay)
//Storyboard Sound Samples

[TimingPoints]
429,333.333333333333,4,2,17,65,1,0
1762,333.333333333333,4,2,17,65,1,0
53762,315.789473684211,4,2,17,65,1,0
54428,333.333333333333,4,2,17,65,1,0
55095,333.333333333333,4,2,17,65,1,0
56428,333.333333333333,4,2,17,65,1,0

[Colours]
Combo1 : 121,149,244
Combo2 : 226,151,95
Combo3 : 245,190,107
Combo4 : 145,126,245

[HitObjects]
10,59,1762,6,0,B|91:83|118:177|118:177|148:137|205:130,1,252,6|10,1:2|0:2,0:2:0:0:
218,46,3095,2,0,P|330:75|476:101,1,252,6|4,1:2|0:3,0:2:0:0:
512,196,4428,5,6,1:2:0:0:
412,352,5095,1,6,1:2:0:0:
233,304,5761,2,0,P|192:314|152:326,2,84,6|4|4,1:2|0:3|0:3,0:0:0:0:
300,241,6761,1,4,0:3:0:0:
219,194,7095,6,0,B|225:139|225:139|261:109|261:109|270:34,1,168,6|2,1:2|0:2,0:2:0:0:
184,7,8095,1,8,0:2:0:0:
99,45,8428,2,0,P|39:99|55:177,1,168,2|2,1:2|0:2,0:2:0:0:
125,238,9428,1,8,0:2:0:0:
203,190,9761,6,0,P|239:194|378:221,1,168,14|2,0:2|1:2,0:0:0:0:
469,313,10928,1,6,1:2:0:0:
45,370,12428,6,0,P|33:330|47:291,1,84,2|10,1:2|0:2,0:0:0:0:
88,208,13095,2,0,P|130:210|182:230,1,84,2|8,0:2|0:2,0:0:0:0:
235,287,13761,2,0,P|266:307|316:302,1,84,2|8,1:2|0:2,0:0:0:0:
398,272,14428,2,0,P|406:233|421:176,1,84,2|10,0:2|0:2,0:0:0:0:
431,98,15095,6,0,P|389:88|342:73,1,84,6|2,1:2|1:2,0:0:0:0:
286,9,15761,2,0,P|244:19|200:46,1,84,8|10,0:3|0:2,0:0:0:0:
160,118,16428,1,6,1:2:0:0:
84,64,16761,1,6,1:2:0:0:
21,187,17261,2,0,P|28:209|35:231,1,42,10|10,0:2|0:2,0:0:0:0:
18,318,17761,6,0,P|86:360|155:321,1,168,2|2,1:2|1:2,0:2:0:0:
224,258,18761,1,8,0:2:0:0:
301,309,19095,2,0,P|339:313|398:323,1,84,0|8,1:2|0:2,0:0:0:0:
459,267,19761,2,0,P|472:227|466:186,1,84,2|0,0:2|0:0,0:0:0:0:
409,112,20428,6,0,P|326:122|245:142,1,168,0|0,1:2|0:2,0:0:0:0:
177,205,21428,1,8,0:2:0:0:
95,158,21761,2,0,P|72:127|75:77,1,84,2|8,1:2|0:2,0:2:0:0:
129,12,22428,2,0,P|168:18|227:31,1,84,2|8,0:2|0:2,0:0:0:0:
278,91,23095,6,0,B|362:93|342:30|438:36,1,168,0|0,1:0|0:0,0:0:0:0:
502,95,24095,1,10,0:2:0:0:
451,172,24428,2,0,P|458:215|465:268,1,84,2|8,1:2|0:2,0:2:0:0:
435,343,25095,2,0,P|395:368|359:363,1,84,2|10,0:2|0:2,0:0:0:0:
276,324,25761,6,0,P|280:283|288:222,2,84,2|10|2,1:2|0:2|0:2,0:0:0:0:
196,370,26761,1,10,0:2:0:0:
61,334,27261,2,0,P|20:289|33:230,1,126,6|6,1:2|0:3,0:2:0:0:
87,154,28095,1,10,0:2:0:0:
178,165,28428,6,0,P|260:178|343:195,1,168,6|2,1:2|0:2,0:2:0:0:
406,263,29428,1,8,0:2:0:0:
479,207,29761,2,0,P|498:172|481:117,1,84,0|10,0:0|0:2,0:0:0:0:
425,63,30428,2,0,P|380:56|337:45,1,84,0|10,0:2|0:2,0:0:0:0:
258,8,31095,6,0,P|174:20|81:48,1,168,2|0,1:2|0:0,0:2:0:0:
39,117,32095,1,8,0:2:0:0:
109,176,32428,2,1,P|95:237|82:299,2,126,2|2|10,1:2|0:2|0:2,0:2:0:0:
182,119,33761,6,0,B|265:107|253:165|351:146,1,168,2|0,1:2|0:0,0:2:0:0:
417,91,34761,1,10,0:2:0:0:
488,147,35095,2,0,P|506:185|497:225,1,84,2|8,1:2|0:2,0:2:0:0:
434,293,35761,2,0,P|392:298|351:309,1,84,0|8,0:2|0:2,0:0:0:0:
275,361,36428,6,0,P|195:366|141:290,1,168,2|2,1:2|1:2,0:2:0:0:
81,233,37428,1,10,0:2:0:0:
133,157,37761,2,0,P|172:157|226:169,1,84,10|2,0:2|0:2,0:0:0:0:
307,154,38428,1,2,0:2:0:0:
376,215,38761,1,10,0:2:0:0:
454,165,39095,6,0,P|490:95|435:38,1,168,6|10,1:2|0:2,0:0:0:0:
350,2,40095,1,2,0:2:0:0:
274,54,40428,2,0,P|192:42|94:23,1,168,2|10,1:2|0:2,0:0:0:0:
25,66,41428,1,2,0:2:0:0:
52,154,41761,6,0,P|38:202|29:247,2,84,2|4|8,1:2|0:3|0:2,0:0:0:0:
139,124,42761,1,2,0:2:0:0:
206,187,43095,2,0,B|295:200|256:239|362:250,1,168,2|8,1:2|0:2,0:0:0:0:
435,198,44095,1,8,0:2:0:0:
501,261,44428,6,0,P|518:301|501:349,1,84,6|8,1:2|0:2,0:2:0:0:
423,376,45095,2,0,P|381:367|335:360,1,84,2|8,0:2|0:2,0:2:0:0:
259,316,45761,1,2,1:2:0:0:
185,371,46095,1,8,0:2:0:0:
108,319,46428,1,2,0:2:0:0:
137,231,46761,1,10,0:2:0:0:
228,220,47095,6,0,P|311:208|403:189,1,168,6|2,1:2|0:2,0:2:0:0:
441,112,48095,1,8,0:2:0:0:
379,42,48428,2,0,P|334:39|284:60,1,84,6|4,1:2|0:3,0:0:0:0:
219,100,49095,2,0,P|178:101|131:69,1,84,6|6,0:3|1:2,0:0:0:0:
62,32,49761,6,0,P|84:110|105:206,2,168,6|6|6,1:2|1:2|1:2,0:0:0:0:
214,136,51761,1,6,1:2:0:0:
288,81,52095,1,8,0:2:0:0:
367,127,52428,6,0,P|385:167|374:217,1,84,10|8,0:2|0:2,0:0:0:0:
336,287,53095,2,0,P|293:295|250:307,1,84,10|8,0:2|0:2,0:0:0:0:
174,362,53762,2,0,P|129:362|85:339,1,84,2|8,1:2|0:2,0:0:0:0:
21,281,54428,2,0,P|26:240|32:182,1,84,8|6,0:2|1:2,0:0:0:0:
92,128,55095,5,12,0:2:0:0:
35,55,55428,1,12,0:2:0:0:
163,6,55928,2,0,P|184:12|216:23,1,42,12|12,0:2|0:2,0:0:0:0:
277,73,56428,5,6,1:2:0:0:
349,15,56761,1,10,0:2:0:0:
421,72,57094,2,0,P|440:109|426:158,1,84,10|10,0:2|0:2,0:0:0:0:
382,227,57761,2,0,P|318:214|201:235,1,168,10|10,0:2|0:2,0:2:0:0:
136,183,58761,1,8,0:2:0:0:
72,249,59094,6,0,P|58:288|81:333,1,84,10|10,0:2|0:2,0:2:0:0:
149,378,59761,2,0,P|189:370|250:363,1,84,8|8,0:2|0:2,0:0:0:0:
299,301,60427,2,0,B|394:305|360:341|471:350,1,168,10|10,0:2|0:2,0:0:0:0:
508,270,61427,1,10,0:2:0:0:
446,200,61761,5,10,0:2:0:0:
506,129,62094,1,10,0:2:0:0:
482,39,62427,1,10,0:2:0:0:
392,14,62761,1,10,0:2:0:0:
321,73,63094,2,1,P|237:63|155:46,1,168,10|8,0:2|0:2,0:2:0:0:
72,4,64094,1,14,0:2:0:0:
13,75,64427,6,0,P|37:134|58:198,1,126,14|10,0:2|0:2,0:0:0:0:
20,374,65594,2,0,P|66:341|148:328,1,126,6|14,1:2|0:2,0:2:0:0:
195,203,66594,2,0,P|217:206|249:210,1,42,14|6,0:2|1:2,0:0:0:0:
302,142,67094,5,6,1:2:0:0:
392,158,67427,1,10,0:2:0:0:
399,250,67761,2,0,P|357:266|318:287,1,84,10|10,0:2|0:2,0:0:0:0:
255,348,68427,2,1,B|159:335|199:304|90:294,1,168,10|10,0:2|0:2,0:2:0:0:
33,228,69427,1,8,0:2:0:0:
82,148,69761,6,0,P|119:130|160:136,1,84,10|10,0:2|0:2,0:2:0:0:
226,200,70427,2,0,P|266:205|315:214,1,84,8|8,0:2|0:2,0:0:0:0:
391,170,71094,2,0,P|429:100|386:33,1,168,10|10,0:2|0:2,0:0:0:0:
299,1,72094,1,10,0:0:0:0:
230,62,72427,5,10,0:2:0:0:
146,21,72761,1,10,0:2:0:0:
88,93,73094,1,10,0:2:0:0:
141,168,73427,1,10,0:2:0:0:
233,158,73761,2,0,P|316:171|417:186,1,168,10|10,0:2|0:2,0:2:0:0:
469,243,74761,1,10,0:2:0:0:
428,326,75094,6,0,P|371:354|320:321,1,126,14|10,0:2|0:2,0:0:0:0:
185,199,76261,2,0,P|121:209|42:227,1,126,6|10,1:2|0:2,0:2:0:0:
26,86,77261,2,0,P|46:84|67:80,1,42,14|14,0:2|0:2,0:0:0:0:
130,12,77761,6,0,B|221:21|195:61|291:64,1,168,4|10,1:2|0:2,0:0:0:0:
360,7,78761,1,2,0:2:0:0:
445,41,79094,2,0,P|490:107|446:185,1,168,2|10,1:2|0:2,0:0:0:0:
419,264,80094,1,10,0:2:0:0:
342,211,80427,6,0,P|261:228|177:240,1,168,6|8,1:2|0:2,0:2:0:0:
102,295,81427,1,2,1:2:0:0:
32,234,81761,2,0,P|6:178|33:123,2,126,6|10|10,0:3|0:2|0:2,0:2:0:0:
102,295,83094,6,0,P|135:298|199:311,1,84,6|10,1:2|0:2,0:2:0:0:
262,358,83761,2,0,P|303:364|348:334,1,84,10|8,0:2|0:2,0:0:0:0:
412,287,84427,1,8,0:2:0:0:
354,214,84761,1,8,0:2:0:0:
430,162,85094,2,0,P|423:125|414:76,1,84,8|10,0:2|0:2,0:0:0:0:
344,18,85761,6,0,P|306:36|265:35,1,84,10|10,0:2|0:2,0:2:0:0:
176,9,86427,2,0,P|113:18|39:37,1,126,8|2,0:2|1:2,0:0:0:0:
5,163,87427,1,10,0:2:0:0:
79,218,87761,1,14,0:2:0:0:
