osu file format v14

[General]
AudioFilename: audio.mp3
AudioLeadIn: 0
PreviewTime: 56095
Countdown: 0
SampleSet: Soft
StackLeniency: 0.7
Mode: 0
LetterboxInBreaks: 0
WidescreenStoryboard: 0

[Editor]
DistanceSpacing: 0.9
BeatDivisor: 4
GridSize: 32
TimelineZoom: 2.3

[Metadata]
Title:Sansan Days (TV Size)
TitleUnicode:燦々デイズ (TV Size)
Artist:Spira Spica
ArtistUnicode:スピラ・スピカ
Creator:Hisae
Version:Sotarks' Darling
Source:その着せ替え人形は恋をする
Tags:Raitzuki Xahlt Gweon Sua Kuon- Kyuukai Eimi Fukada yaleufeu Sotarks NEVIR NEVlR sono bisque doll wa koi wo suru my dress up darling dress-up cosplay anime op opening pop jpop j-pop japanese rock jrock j-rock 幹葉 Mikiha 寺西 裕二 Teranishi Yuji ますだ Masuda kisekae ningyou 着せ恋
BeatmapID:3540176
BeatmapSetID:1731386

[Difficulty]
HPDrainRate:5.8
CircleSize:4.2
OverallDifficulty:9.1
ApproachRate:9.2
SliderMultiplier:1.82
SliderTickRate:1

[Events]
//Background and Video events
Video,0,"VD.mp4"
0,0,"bg_sotarks.jpg",0,0
//Break Periods
//Storyboard Layer 0 (Background)
//Storyboard Layer 1 (Fail)
//Storyboard Layer 2 (Pass)
//Storyboard Layer 3 (Foreground)
//Storyboard Layer 4 (Overlay)
//Storyboard Sound Samples

[TimingPoints]
429,333.333333333333,4,2,17,65,1,0
1762,333.333333333333,4,2,17,65,1,0
1762,-161.290322580645,4,2,17,65,0,0
7095,-121.951219512195,4,2,17,65,0,0
8345,-121.951219512195,4,2,17,5,0,0
8428,-121.951219512195,4,2,17,65,0,0
9678,-121.951219512195,4,2,17,5,0,0
9761,-121.951219512195,4,2,17,65,0,0
12011,-121.951219512195,4,2,17,5,0,0
12095,-121.951219512195,4,2,17,65,0,0
12345,-121.951219512195,4,2,17,5,0,0
12428,-98.0392156862745,4,2,17,65,0,0
16345,-98.0392156862745,4,2,17,5,0,0
16428,-98.0392156862745,4,2,17,65,0,0
16678,-98.0392156862745,4,2,17,5,0,0
16761,-98.0392156862745,4,2,17,65,0,0
17178,-98.0392156862745,4,2,17,5,0,0
17261,-98.0392156862745,4,2,17,65,0,0
17345,-98.0392156862745,4,2,17,5,0,0
17428,-98.0392156862745,4,2,17,65,0,0
17678,-98.0392156862745,4,2,17,5,0,0
17761,-108.695652173913,4,2,17,55,0,0
20178,-108.695652173913,4,2,17,5,0,0
20261,-108.695652173913,4,2,17,55,0,0
25095,-108.695652173913,4,2,17,55,0,0
39095,-108.695652173913,4,2,17,65,0,0
40345,-108.695652173913,4,2,17,5,0,0
40428,-108.695652173913,4,2,17,65,0,0
49761,-121.951219512195,4,2,17,60,0,0
52428,-121.951219512195,4,2,17,65,0,0
53428,-98.0392156862745,4,2,17,65,0,0
53762,315.789473684211,4,2,17,65,1,0
54428,333.333333333333,4,2,17,65,1,0
55011,-100,4,2,17,5,0,0
55095,333.333333333333,4,2,17,65,1,0
55095,-98.0392156862745,4,2,17,65,0,0
56344,-98.0392156862745,4,2,17,5,0,0
56428,333.333333333333,4,2,17,70,1,0
56428,-89.2857142857143,4,2,17,70,0,0
56678,-89.2857142857143,4,2,17,5,0,0
56761,-89.2857142857143,4,2,17,70,0,0
58011,-89.2857142857143,4,2,17,5,0,0
58094,-89.2857142857143,4,2,17,70,0,0
59344,-89.2857142857143,4,2,17,5,0,0
59428,-89.2857142857143,4,2,17,70,0,0
62011,-89.2857142857143,4,2,17,5,0,0
62094,-89.2857142857143,4,2,17,70,0,0
64344,-89.2857142857143,4,2,17,5,0,0
64427,-89.2857142857143,4,2,17,70,0,0
65594,-89.2857142857143,4,2,17,60,0,0
67011,-89.2857142857143,4,2,17,5,0,0
67094,-89.2857142857143,4,2,17,70,0,0
67344,-89.2857142857143,4,2,17,5,0,0
67427,-89.2857142857143,4,2,17,70,0,0
68677,-89.2857142857143,4,2,17,5,0,0
68761,-89.2857142857143,4,2,17,70,0,0
70011,-89.2857142857143,4,2,17,5,0,0
70094,-89.2857142857143,4,2,17,70,0,0
72677,-89.2857142857143,4,2,17,5,0,0
72761,-89.2857142857143,4,2,17,70,0,0
75011,-89.2857142857143,4,2,17,5,0,0
75094,-89.2857142857143,4,2,17,70,0,0
77677,-89.2857142857143,4,2,17,5,0,0
77761,-89.2857142857143,4,2,17,60,0,0
80427,-108.695652173913,4,2,17,60,0,0
83094,-98.0392156862745,4,2,17,60,0,0

[Colours]
Combo1 : 121,149,244
Combo2 : 226,151,95
Combo3 : 245,190,107
Combo4 : 145,126,245

[HitObjects]
51,291,1762,6,0,B|109:269|109:269|153:303|153:303|205:269|272:297,1,225.679991046631,6|0,1:2|0:0,0:2:0:0:
427,384,2761,1,10,0:2:0:0:
110,154,3095,6,0,P|123:229|256:210,1,225.679991046631,6|0,1:2|0:0,0:2:0:0:
379,70,4095,1,4,0:3:0:0:
296,290,4428,6,0,P|283:244|268:154,1,112.839995523316,6|0,1:2|0:0,0:0:0:0:
28,141,5095,2,0,P|41:187|56:277,1,112.839995523316,6|0,1:2|0:0,0:0:0:0:
180,59,5761,5,6,1:2:0:0:
120,365,6095,1,4,0:3:0:0:
335,121,6428,1,4,0:3:0:0:
298,338,6762,1,4,0:3:0:0:
481,48,7095,2,0,B|428:58|428:58|408:91|408:91|342:104,1,149.240002277222,6|0,1:2|1:2,0:2:0:0:
145,46,7595,2,0,P|165:86|175:119,1,74.6200011386109,4|2,0:3|0:2,0:0:0:0:
269,0,7928,1,0,1:2:0:0:
156,225,8095,2,0,P|216:196|282:186,1,111.930001707916,8|0,0:2|0:2,0:2:0:0:
288,181,8428,6,0,B|276:229|276:229|295:257|295:257|276:286|291:349,1,149.240002277222,2|0,1:2|1:2,0:2:0:0:
445,202,8928,1,4,0:3:0:0:
461,331,9095,2,0,P|421:310|383:304,1,74.6200011386109,2|0,0:2|1:2,0:2:0:0:
288,181,9428,2,0,P|328:160|366:154,1,74.6200011386109,8|0,0:2|0:0,0:0:0:0:
154,291,9761,5,14,0:2:0:0:
181,79,9928,1,2,1:2:0:0:
153,284,10095,1,4,0:3:0:0:
349,136,10261,1,10,0:2:0:0:
113,188,10428,1,2,1:2:0:0:
286,361,10595,1,4,0:3:0:0:
252,222,10761,1,2,0:2:0:0:
96,303,10928,6,1,B|196:375|283:282|239:248|333:156|431:234,1,373.100005693054,6|0,1:2|1:2,0:2:0:0:
287,37,11928,1,14,0:2:0:0:
361,318,12095,1,14,0:2:0:0:
361,318,12428,5,2,1:2:0:0:
151,214,12595,1,0,1:2:0:0:
277,72,12761,1,10,0:2:0:0:
373,201,12928,1,0,1:2:0:0:
373,201,13011,1,0,1:0:0:0:
373,201,13095,1,2,0:2:0:0:
155,105,13261,1,0,1:0:0:0:
343,0,13428,1,8,0:2:0:0:
253,238,13595,1,0,1:2:0:0:
429,80,13761,5,2,1:2:0:0:
248,141,13928,1,0,1:0:0:0:
351,319,14095,1,8,0:2:0:0:
470,205,14261,1,0,1:2:0:0:
470,205,14345,1,0,1:0:0:0:
470,205,14428,1,2,0:2:0:0:
218,309,14595,1,0,1:2:0:0:
340,126,14761,2,0,P|354:186|368:232,1,92.8200005665284,10|0,0:2|0:2,0:2:0:0:
104,81,15095,5,6,1:2:0:0:
198,273,15261,1,8,0:3:0:0:
208,237,15344,1,8,0:3:0:0:
217,201,15427,1,2,1:2:0:0:
339,342,15595,1,8,0:3:0:0:
253,123,15761,1,8,0:3:0:0:
251,77,15844,1,8,0:3:0:0:
279,41,15928,1,8,0:3:0:0:
324,32,16011,1,8,0:3:0:0:
364,54,16095,2,0,P|353:99|341:143,1,92.8200005665284,10|0,0:2|0:0,0:2:0:0:
98,324,16428,5,6,1:2:0:0:
511,251,16761,2,0,B|441:234|441:234|420:190|420:190|335:172,1,185.640001133057,6|0,1:2|0:0,0:0:0:0:
136,90,17261,6,0,L|152:150,1,46.4100002832642,10|0,0:2|0:0,0:0:0:0:
189,326,17428,2,0,P|215:275|305:299,1,139.230000849793,10|0,0:2|0:2,0:2:0:0:
306,291,17761,6,0,P|294:344|285:387,1,83.7199971895753,2|0,1:2|0:0,0:2:0:0:
249,173,18095,2,0,P|289:160|328:147,1,83.7199971895753,8|2,0:2|0:2,0:0:0:0:
186,272,18428,1,2,1:2:0:0:
93,208,18595,1,0,0:0:0:0:
207,360,18761,1,8,0:2:0:0:
71,296,18928,1,2,3:2:0:0:
71,296,19011,1,0,3:0:0:0:
71,296,19095,6,0,P|114:283|166:271,1,83.7199971895753,0|2,1:2|0:2,0:0:0:0:
249,173,19428,2,0,P|206:160|154:148,1,83.7199971895753,8|2,0:2|0:2,0:0:0:0:
262,296,19761,1,2,0:2:0:0:
386,185,19928,1,2,1:2:0:0:
325,369,20095,1,8,0:0:0:0:
436,278,20261,1,2,3:2:0:0:
436,278,20345,1,2,3:2:0:0:
436,278,20428,6,0,P|404:223|296:237,1,167.439994379151,0|10,1:2|0:2,0:0:0:0:
109,173,20928,2,0,L|152:159,1,41.8599985947877,0|0,3:0|3:0,3:0:0:0:
214,99,21095,1,0,0:2:0:0:
124,260,21261,1,0,1:2:0:0:
255,314,21428,2,0,P|239:272|222:227,1,83.7199971895753,8|0,0:2|0:2,0:2:0:0:
358,43,21761,6,0,P|342:131|323:225,1,167.439994379151,2|8,1:2|0:2,0:2:0:0:
452,98,22261,1,0,3:0:0:0:
452,98,22345,1,0,3:0:0:0:
452,98,22428,1,2,0:2:0:0:
302,153,22595,1,2,1:2:0:0:
429,295,22761,1,8,0:2:0:0:
404,183,22928,1,2,0:0:0:0:
276,287,23095,6,0,P|293:336|304:375,1,83.7199971895753,0|2,1:0|0:0,0:0:0:0:
134,244,23428,2,0,P|145:203|159:164,1,83.7199971895753,8|2,0:0|3:2,0:0:0:0:
168,144,23678,1,0,3:0:0:0:
168,144,23761,1,0,0:0:0:0:
292,202,23928,1,0,1:2:0:0:
384,79,24095,2,0,P|372:38|358:0,1,83.7199971895753,10|0,0:2|0:2,0:0:0:0:
310,226,24428,6,0,P|357:278|452:258,1,167.439994379151,2|8,1:2|0:2,0:2:0:0:
312,362,24928,1,0,3:0:0:0:
312,362,25011,1,0,3:0:0:0:
312,362,25095,2,0,P|260:374|216:385,1,83.7199971895753,2|2,0:2|1:2,0:0:0:0:
109,310,25428,2,0,P|68:300|27:290,1,83.7199971895753,10|0,0:2|0:0,0:0:0:0:
235,138,25761,5,2,1:2:0:0:
155,221,25928,1,2,0:2:0:0:
48,113,26095,2,0,P|59:72|73:33,1,83.7199971895753,10|0,0:2|3:2,0:0:0:0:
83,11,26345,1,0,3:0:0:0:
83,11,26428,1,2,0:2:0:0:
265,134,26595,1,0,1:2:0:0:
140,113,26761,2,0,P|153:152|165:192,1,83.7199971895753,10|2,0:2|0:2,0:0:0:0:
99,355,27095,5,4,0:3:0:0:
328,291,27261,2,0,B|263:275|263:275|238:237|238:237|165:222,1,167.439994379151,6|4,1:2|0:3,0:2:0:0:
317,376,27761,1,6,0:3:0:0:
413,99,27928,1,2,1:2:0:0:
261,211,28095,1,10,0:2:0:0:
459,324,28261,1,8,0:2:0:0:
447,283,28344,1,8,0:2:0:0:
441,242,28427,5,6,1:2:0:0:
152,346,28761,1,8,0:2:0:0:
279,260,28928,1,2,0:2:0:0:
142,182,29095,1,2,0:2:0:0:
259,354,29261,1,6,0:3:0:0:
120,317,29428,2,0,P|68:328|18:343,1,83.7199971895753,8|2,0:2|0:2,0:0:0:0:
164,149,29761,6,0,P|226:128|293:191,1,125.579995784363
294,177,30095,2,0,P|283:229|276:277,1,83.7199971895753,10|0,0:2|3:0,0:0:0:0:
270,289,30345,1,0,3:0:0:0:
270,289,30428,1,0,0:2:0:0:
128,220,30595,1,2,1:2:0:0:
237,98,30761,1,10,0:2:0:0:
105,40,30928,1,2,3:2:0:0:
105,40,31011,1,0,3:0:0:0:
105,40,31095,6,0,P|169:73|241:11,1,167.439994379151,2|8,1:2|0:2,0:2:0:0:
132,156,31595,2,0,P|141:185|148:211,1,41.8599985947877,2|0,3:2|3:0,3:2:0:0:
206,269,31761,1,0,0:0:0:0:
58,200,31928,1,0,1:2:0:0:
237,98,32095,2,0,P|225:147|216:189,1,83.7199971895753,8|0,0:2|0:2,0:2:0:0:
414,337,32428,6,1,P|415:255|335:221,1,167.439994379151,2|8,1:2|0:2,0:2:0:0:
236,350,32928,1,2,3:2:0:0:
236,350,33011,1,0,3:0:0:0:
236,350,33095,2,0,P|285:332|328:324,1,83.7199971895753,0|2,0:2|1:2,0:0:0:0:
171,209,33428,1,10,0:2:0:0:
297,120,33595,1,0,0:2:0:0:
157,323,33761,6,0,P|104:271|-3:302,1,167.439994379151,2|10,1:2|0:2,0:2:0:0:
148,128,34261,1,2,3:2:0:0:
148,128,34345,1,0,3:0:0:0:
148,128,34428,2,0,P|164:187|174:220,1,83.7199971895753,0|2,0:0|1:2,0:0:0:0:
0,127,34761,2,0,P|11:86|22:46,1,83.7199971895753,10|0,0:2|0:0,0:2:0:0:
296,28,35095,6,0,B|234:42|234:42|218:79|218:79|145:94,1,167.439994379151,2|8,1:2|0:2,0:2:0:0:
324,158,35595,2,0,P|346:164|370:171,1,41.8599985947877,0|0,3:0|3:0,3:0:0:0:
429,108,35761,1,0,0:2:0:0:
259,242,35928,1,2,1:2:0:0:
435,325,36095,2,0,P|423:281|412:223,1,83.7199971895753,8|2,0:2|0:2,0:0:0:0:
227,142,36428,6,0,P|215:244|202:328,1,167.439994379151,2|8,1:2|0:2,0:2:0:0:
68,97,36928,1,2,1:2:0:0:
186,212,37095,1,2,1:2:0:0:
38,292,37261,1,0,1:2:0:0:
207,116,37428,1,10,0:2:0:0:
89,0,37595,1,0,1:2:0:0:
293,233,37761,5,10,0:2:0:0:
68,97,37928,1,0,1:2:0:0:
253,0,38095,1,2,0:2:0:0:
186,212,38261,1,8,0:2:0:0:
395,127,38428,1,2,0:2:0:0:
316,363,38595,1,2,1:2:0:0:
389,119,38761,1,10,0:2:0:0:
328,375,38928,1,0,1:2:0:0:
211,241,39095,6,0,P|271:228|302:217,1,83.7199971895753,6|0,1:2|0:0,0:0:0:0:
389,119,39428,2,0,P|347:111|307:98,1,83.7199971895753,2|2,1:2|0:2,0:0:0:0:
135,7,39761,2,0,P|197:42|185:149,1,167.439994379151,10|2,0:2|0:2,0:0:0:0:
88,222,40261,1,0,0:0:0:0:
233,321,40428,2,0,P|221:285|208:227,1,83.7199971895753,2|0,1:2|1:2,0:0:0:0:
375,152,40761,2,0,P|365:192|352:232,1,83.7199971895753,4|0,0:3|0:0,0:0:0:0:
510,319,41095,2,0,P|398:350|346:380,1,167.439994379151,10|2,0:2|0:2,0:0:0:0:
210,240,41595,1,8,0:2:0:0:
353,136,41761,6,0,P|343:176|330:216,1,83.7199971895753,2|0,1:2|0:0,0:0:0:0:
211,101,42095,2,0,P|197:61|188:20,1,83.7199971895753,4|0,0:3|0:0,0:0:0:0:
129,216,42428,2,0,P|78:279|-21:250,1,167.439994379151,8|2,0:2|0:2,0:0:0:0:
95,111,42928,1,10,0:2:0:0:
188,303,43095,1,2,1:2:0:0:
304,213,43261,2,0,P|254:194|210:187,1,83.7199971895753,0|2,1:2|0:2,0:0:0:0:
322,331,43595,1,2,1:2:0:0:
407,151,43761,1,8,0:2:0:0:
461,268,43928,1,0,0:0:0:0:
304,213,44095,2,0,P|312:168|327:114,1,83.7199971895753,8|8,0:2|0:0,0:0:0:0:
329,100,44345,1,8,0:0:0:0:
329,100,44428,6,0,P|266:64|194:123,1,167.439994379151,6|8,1:2|0:2,0:2:0:0:
210,285,44928,1,6,0:3:0:0:
45,235,45095,2,0,P|100:210|148:198,1,83.7199971895753,2|0,0:2|0:0,0:2:0:0:
202,54,45428,2,0,P|147:29|99:17,1,83.7199971895753,8|2,0:2|0:2,0:0:0:0:
285,196,45761,6,0,B|347:182|347:182|368:146|368:146|443:133,2,167.439994379151,2|8|2,1:2|0:2|0:2,0:2:0:0:
438,283,46595,1,4,0:3:0:0:
288,384,46761,2,0,P|297:345|314:293,1,83.7199971895753,10|0,0:2|0:0,0:2:0:0:
130,124,47095,6,0,P|159:210|183:310,1,167.439994379151,6|8,1:2|0:2,0:2:0:0:
279,142,47595,1,2,1:2:0:0:
377,293,47761,2,0,P|312:273|272:267,1,83.7199971895753,2|0,0:2|1:2,0:0:0:0:
392,78,48095,2,0,P|407:144|421:181,1,83.7199971895753,8|0,0:2|3:0,0:0:0:0:
421,187,48345,1,0,3:0:0:0:
421,187,48428,5,6,1:2:0:0:
279,142,48595,1,0,1:2:0:0:
375,53,48761,1,4,0:3:0:0:
299,229,48928,1,6,0:3:0:0:
136,103,49095,1,6,0:3:0:0:
261,1,49261,1,6,0:3:0:0:
140,235,49428,2,1,L|88:219,1,41.8599985947876,6|0,1:2|3:0,0:2:0:0:
241,122,49595,2,0,L|281:109,1,41.8599985947876,0|0,3:0|3:2,0:0:0:0:
326,271,49761,6,0,P|378:336|506:303,1,223.860003415833,6|0,1:2|0:0,0:0:0:0:
241,122,50428,2,0,B|210:177|210:177|241:227|241:227|207:273|220:331,1,223.860003415833,6|0,1:2|0:0,0:0:0:0:
436,241,51095,6,0,P|413:142|393:-3,1,223.860003415833,6|0,1:2|0:0,0:0:0:0:
171,96,51761,2,0,P|222:117|266:124,1,74.6200011386109,6|0,1:2|0:0,0:0:0:0:
395,228,52095,2,0,P|358:237|325:253,1,74.6200011386109,8|0,0:2|0:0,0:0:0:0:
274,384,52428,5,10,0:2:0:0:
330,93,52595,1,0,1:2:0:0:
267,371,52761,5,8,0:2:0:0:
244,59,52928,1,2,1:2:0:0:
250,366,53095,5,10,0:2:0:0:
165,56,53262,1,0,1:2:0:0:
230,367,53428,2,0,P|245:310|253:265,1,92.8200005665283,8|0,0:2|1:2,0:0:0:0:
429,94,53762,5,2,1:2:0:0:
126,218,53919,1,8,0:2:0:0:
474,30,54077,1,8,0:2:0:0:
96,310,54235,1,8,0:2:0:0:
244,59,54428,5,8,0:2:0:0:
355,346,54594,1,0,1:2:0:0:
355,346,54678,1,0,1:2:0:0:
355,346,54761,1,6,1:2:0:0:
355,346,55095,6,0,P|305:330|263:324,1,92.8200005665283,12|0,0:2|0:0,0:0:0:0:
408,145,55428,1,12,0:2:0:0:
408,145,55928,5,12,0:2:0:0:
219,89,56095,2,0,P|244:139|256:181,1,92.8200005665283,12|0,0:2|0:0,0:2:0:0:
42,363,56428,6,1,B|59:311|59:311|43:276|43:276|68:199,1,152.880001866211,6|0,1:2|0:0,0:2:0:0:
67,188,56761,2,1,P|124:175|174:158,1,101.920001244141,10|0,0:2|0:2,0:2:0:0:
321,370,57094,1,10,0:2:0:0:
142,265,57261,1,2,1:2:0:0:
321,108,57428,1,10,0:2:0:0:
256,258,57594,1,2,1:2:0:0:
256,258,57678,1,0,1:0:0:0:
256,258,57761,6,0,P|239:155|213:24,1,203.840002488281,10|8,0:2|0:2,0:2:0:0:
405,229,58261,1,2,1:2:0:0:
273,142,58428,1,10,0:2:0:0:
420,32,58594,1,0,1:0:0:0:
301,267,58761,1,8,0:2:0:0:
105,113,58928,1,2,1:2:0:0:
105,113,59011,1,0,1:0:0:0:
105,113,59094,6,0,P|132:52|267:62,1,203.840002488281,10|10,0:2|0:2,0:2:0:0:
136,232,59594,2,0,P|83:214|18:202,1,101.920001244141,2|8,0:2|0:2,0:2:0:0:
215,135,59928,1,2,1:2:0:0:
99,340,60094,1,8,0:2:0:0:
266,221,60261,1,0,1:2:0:0:
266,221,60344,1,0,1:0:0:0:
266,221,60427,6,0,B|326:231|326:231|346:257|346:257|429:272,1,152.880001866211,10|0,0:2|0:0,0:0:0:0:
430,272,60761,2,0,P|451:227|412:150,1,101.920001244141,10|0,0:2|1:2,0:2:0:0:
225,54,61094,1,10,0:2:0:0:
346,195,61261,1,2,1:2:0:0:
415,15,61427,1,10,0:2:0:0:
223,174,61594,2,0,L|236:235,1,50.9600006220703,0|0,1:2|1:0,0:0:0:0:
267,365,61761,6,0,P|211:310|121:344,1,152.880001866211,10|0,0:2|0:0,0:2:0:0:
127,350,62094,2,0,P|75:333|13:321,1,101.920001244141,10|0,0:2|1:2,0:2:0:0:
161,81,62427,1,10,0:2:0:0:
79,235,62594,1,0,1:2:0:0:
155,0,62761,1,10,0:2:0:0:
305,207,62927,1,0,1:0:0:0:
305,207,63011,1,0,1:0:0:0:
305,207,63094,6,1,B|337:167|397:153|397:153|429:200|508:200,1,203.840002488281,10|8,0:2|0:2,0:2:0:0:
365,320,63594,1,2,0:2:0:0:
449,80,63761,2,0,P|395:49|329:44,1,101.920001244141,8|0,0:2|1:2,0:0:0:0:
165,222,64094,1,14,0:2:0:0:
165,222,64427,5,14,0:2:0:0:
333,88,64594,1,2,1:2:0:0:
173,30,64761,1,8,0:3:0:0:
307,290,64927,5,10,0:2:0:0:
80,133,65094,1,2,1:2:0:0:
339,0,65261,1,4,0:3:0:0:
194,351,65427,5,10,0:2:0:0:
432,165,65594,2,0,B|388:152|356:148|356:148|332:107|332:107|284:102|231:86,1,203.840002488281,6|0,1:2|1:2,0:2:0:0:
384,316,66094,5,14,0:2:0:0:
436,51,66261,1,0,0:0:0:0:
378,309,66427,1,0,1:0:0:0:
192,151,66594,5,14,0:2:0:0:
454,271,66761,2,0,P|361:290|283:320,1,152.880001866211,6|0,1:2|0:0,0:0:0:0:
275,330,67094,6,0,P|257:266|252:221,1,101.920001244141,6|0,1:2|0:0,0:2:0:0:
78,71,67427,2,0,P|70:121|55:170,1,101.920001244141,10|0,0:2|0:2,0:2:0:0:
270,67,67761,1,10,0:2:0:0:
98,281,67927,1,2,1:2:0:0:
341,167,68094,1,10,0:2:0:0:
180,125,68261,1,2,1:2:0:0:
180,125,68344,1,0,1:0:0:0:
180,125,68427,6,1,B|204:181|204:181|186:224|186:224|225:264|221:320,1,203.840002488281,10|8,0:2|0:2,0:2:0:0:
374,151,68927,1,2,0:2:0:0:
444,319,69094,2,0,P|378:284|334:272,1,101.920001244141,10|0,0:2|0:0,0:0:0:0:
261,56,69427,1,8,0:2:0:0:
150,229,69594,1,2,1:2:0:0:
374,151,69761,6,0,B|298:131|298:131|274:88|274:88|170:64,1,203.840002488281,10|10,0:2|0:2,0:2:0:0:
352,276,70261,2,0,P|427:250|465:243,1,101.920001244141,2|8,0:2|0:2,0:2:0:0:
218,163,70594,1,2,1:2:0:0:
372,53,70761,1,8,0:2:0:0:
257,263,70927,1,0,1:2:0:0:
257,263,71011,1,0,1:0:0:0:
257,263,71094,6,0,P|186:286|122:230,1,152.880001866211,10|0,0:2|0:0,0:0:0:0:
104,222,71427,2,0,P|110:168|125:106,1,101.920001244141,10|0,0:2|0:2,0:2:0:0:
276,350,71761,1,10,0:2:0:0:
202,175,71927,1,2,1:2:0:0:
382,340,72094,1,10,0:0:0:0:
333,90,72261,2,0,P|326:122|314:157,1,50.9600006220703,0|0,1:2|1:0,0:0:0:0:
262,262,72427,6,0,B|311:224|311:224|355:258|438:250,1,152.880001866211,10|0,0:2|0:0,0:2:0:0:
434,251,72761,2,0,P|421:197|409:146,1,101.920001244141,10|0,0:2|0:2,0:2:0:0:
251,22,73094,2,0,P|239:71|227:121,1,101.920001244141,10|0,0:2|1:2,0:0:0:0:
142,321,73427,1,10,0:2:0:0:
330,211,73594,2,0,P|302:202|274:192,1,50.9600006220703,0|0,1:0|1:0,0:0:0:0:
101,55,73761,6,0,B|133:114|133:114|111:155|111:155|149:187|161:257,1,203.840002488281,10|10,0:2|0:2,0:2:0:0:
60,384,74261,1,2,1:2:0:0:
249,220,74427,1,10,0:2:0:0:
71,371,74594,1,0,1:2:0:0:
322,192,74761,1,10,0:2:0:0:
322,192,75094,5,14,0:2:0:0:
196,368,75261,1,2,1:2:0:0:
97,187,75427,1,8,0:3:0:0:
346,309,75594,5,10,0:2:0:0:
175,108,75761,1,2,1:2:0:0:
395,22,75927,1,0,0:2:0:0:
229,270,76094,5,10,0:2:0:0:
81,99,76261,2,0,B|117:87|154:79|154:79|176:32|176:32|216:26|279:10,1,203.840002488281,6|0,1:2|1:2,0:2:0:0:
326,303,76761,5,10,0:2:0:0:
243,117,76927,1,0,1:2:0:0:
327,315,77094,1,0,1:2:0:0:
437,75,77261,5,14,0:2:0:0:
211,258,77427,2,0,P|293:229|374:218,1,152.880001866211,14|0,0:2|0:0,0:0:0:0:
396,233,77761,5,4,1:2:0:0:
260,149,77927,1,0,1:2:0:0:
397,90,78094,1,2,0:2:0:0:
309,273,78261,1,2,1:2:0:0:
467,157,78427,1,10,0:2:0:0:
467,157,78761,5,2,0:2:0:0:
329,71,78927,1,2,0:2:0:0:
399,278,79094,1,2,1:2:0:0:
323,163,79261,1,2,0:2:0:0:
260,353,79427,1,2,0:2:0:0:
260,353,79761,5,10,0:2:0:0:
203,41,79927,1,10,0:2:0:0:
258,365,80094,1,10,0:2:0:0:
87,189,80427,5,6,1:2:0:0:
87,189,80594,2,0,P|133:139|242:157,1,167.439994379151,0|2,1:0|1:2,0:0:0:0:
286,273,81094,2,0,P|233:256|194:250,1,83.7199971895753,8|0,0:2|0:0,0:0:0:0:
323,174,81427,1,2,1:2:0:0:
210,353,81594,1,2,0:2:0:0:
389,244,81761,6,0,P|456:238|495:347,1,167.439994379151,6|6,0:3|0:3,0:2:0:0:
305,298,82261,1,10,0:2:0:0:
279,270,82344,1,8,0:2:0:0:
272,234,82427,1,8,0:2:0:0:
285,199,82511,1,8,0:0:0:0:
310,171,82594,1,8,0:2:0:0:
334,138,82677,1,8,0:2:0:0:
332,97,82760,1,10,0:2:0:0:
305,66,82843,1,8,0:0:0:0:
264,60,82927,1,8,0:2:0:0:
229,81,83010,1,8,0:2:0:0:
215,120,83094,6,0,P|163:136|102:141,1,92.8200005665283,6|0,1:2|0:0,0:2:0:0:
0,255,83427,2,0,P|52:270|116:271,1,92.8200005665283,10|0,0:2|0:0,0:0:0:0:
238,376,83761,1,10,0:2:0:0:
151,169,83927,1,2,1:2:0:0:
332,359,84094,1,8,0:2:0:0:
268,80,84261,1,2,1:2:0:0:
429,276,84427,6,0,P|387:270|330:252,1,92.8200005665283,8|0,0:2|0:0,0:0:0:0:
151,168,84761,2,0,P|190:154|249:147,1,92.8200005665283,8|0,0:2|0:0,0:0:0:0:
359,27,85094,1,8,0:0:0:0:
255,268,85261,1,2,1:2:0:0:
431,136,85427,1,10,0:2:0:0:
228,44,85594,1,2,1:2:0:0:
347,257,85761,6,0,P|421:276|487:187,1,185.640001133057,10|10,0:2|0:0,0:2:0:0:
282,126,86261,1,2,1:2:0:0:
427,29,86427,1,8,0:2:0:0:
252,256,86594,1,2,1:2:0:0:
252,256,86677,1,0,1:0:0:0:
252,256,86761,1,10,0:2:0:0:
424,133,86927,6,0,B|355:117|355:117|330:76|330:76|247:59,1,185.640001133057,6|4,1:2|1:3,0:0:0:0:
80,327,87427,1,10,0:2:0:0:
352,221,87594,1,8,0:2:0:0:
110,20,87761,1,14,0:2:0:0:
