osu file format v14

[General]
AudioFilename: audio.mp3
AudioLeadIn: 0
PreviewTime: 56095
Countdown: 0
SampleSet: Soft
StackLeniency: 0.7
Mode: 0
LetterboxInBreaks: 0
WidescreenStoryboard: 0

[Editor]
DistanceSpacing: 0.9
BeatDivisor: 4
GridSize: 32
TimelineZoom: 2.3

[Metadata]
Title:Sansan Days (TV Size)
TitleUnicode:燦々デイズ (TV Size)
Artist:Spira Spica
ArtistUnicode:スピラ・スピカ
Creator:Hisae
Version:Normal
Source:その着せ替え人形は恋をする
Tags:Raitzuki Xahlt Gweon Sua Kuon- Kyuukai Eimi Fukada yaleufeu Sotarks NEVIR NEVlR sono bisque doll wa koi wo suru my dress up darling dress-up cosplay anime op opening pop jpop j-pop japanese rock jrock j-rock 幹葉 Mikiha 寺西 裕二 Teranishi Yuji ますだ Masuda kisekae ningyou 着せ恋
BeatmapID:3539026
BeatmapSetID:1731386

[Difficulty]
HPDrainRate:4
CircleSize:3.2
OverallDifficulty:4
ApproachRate:5
SliderMultiplier:1.04
SliderTickRate:1

[Events]
//Background and Video events
Video,0,"VD.mp4"
0,0,"TAAANOSHIII DESU NEEE FOUR SHIIIIIINE SAIKOUUU.jpg",0,0
//Break Periods
//Storyboard Layer 0 (Background)
//Storyboard Layer 1 (Fail)
//Storyboard Layer 2 (Pass)
//Storyboard Layer 3 (Foreground)
//Storyboard Layer 4 (Overlay)
//Storyboard Sound Samples

[TimingPoints]
429,333.333333333333,4,2,17,65,1,0
1762,333.333333333333,4,2,17,65,1,0
3095,-100,4,2,17,65,0,0
17761,-111.111111111111,4,2,17,55,0,0
39095,-100,4,2,17,65,0,0
49761,-111.111111111111,4,2,17,60,0,0
52428,-100,4,2,17,65,0,0
53762,315.789473684211,4,2,17,65,1,0
54428,333.333333333333,4,2,17,65,1,0
55095,333.333333333333,4,2,17,65,1,0
56428,333.333333333333,4,2,17,65,1,0
56428,-90.9090909090909,4,2,17,70,0,1
65927,-100,4,2,17,60,0,0
67094,-90.9090909090909,4,2,17,70,0,1
77761,-100,4,2,17,60,0,0

[Colours]
Combo1 : 121,149,244
Combo2 : 226,151,95
Combo3 : 245,190,107
Combo4 : 145,126,245

[HitObjects]
90,162,1762,5,6,1:2:0:0:
323,6,2761,1,10,0:2:0:0:
388,72,3095,2,0,B|348:149|377:238|477:273|422:365,1,312,6|4,1:2|0:3,0:2:0:0:
338,321,4428,6,0,P|248:292|181:379,1,208,6|6,1:2|1:2,0:0:0:0:
10,292,5761,1,6,1:2:0:0:
14,198,6095,1,4,0:3:0:0:
56,114,6428,1,4,0:3:0:0:
128,55,6761,1,4,0:3:0:0:
216,24,7095,6,0,P|275:63|282:106,1,104,6|0,1:2|1:2,0:2:0:0:
258,182,7761,2,0,L|148:204,1,104,2|8,0:2|0:2,0:2:0:0:
90,269,8428,2,0,P|126:350|201:340,1,156,2|4,1:2|0:3,0:2:0:0:
218,319,9095,2,0,L|333:305,1,104,2|8,0:2|0:2,0:2:0:0:
410,335,9761,6,0,L|429:383,2,52,14|2|4,0:2|1:2|0:3,0:0:0:0:
445,304,10261,1,10,0:2:0:0:
445,304,10428,2,0,L|464:198,1,104,2|2,1:2|0:2,0:0:0:0:
490,163,10928,1,6,1:2:0:0:
260,11,11928,1,14,0:2:0:0:
260,11,12095,1,14,0:2:0:0:
207,88,12428,6,0,L|102:77,1,104,2|10,1:2|0:2,0:0:0:0:
26,130,13095,2,0,P|3:177|26:230,1,104,2|8,0:2|0:2,0:0:0:0:
105,259,13761,2,0,L|228:273,1,104,2|8,1:2|0:2,0:0:0:0:
242,358,14428,2,0,L|358:343,1,104,2|10,0:2|0:2,0:0:0:0:
416,283,15095,6,0,L|472:289,2,52,6|8|2,1:2|0:3|1:2,0:0:0:0:
347,219,15761,2,0,L|287:203,2,52,8|8|10,0:3|0:3|0:2,0:0:0:0:
414,153,16428,1,6,1:2:0:0:
401,60,16761,1,6,1:2:0:0:
277,5,17261,1,10,0:2:0:0:
277,5,17428,1,10,0:2:0:0:
214,60,17761,6,0,P|171:69|104:74,1,93.5999971435548,2|8,1:2|0:2,0:2:0:0:
51,121,18428,2,0,P|38:172|44:222,1,93.5999971435548,2|8,1:2|0:2,0:2:0:0:
52,253,18928,1,2,0:2:0:0:
109,314,19261,1,2,0:2:0:0:
184,277,19595,2,0,L|243:282,1,46.7999985717774,2|2,0:2|0:2,0:0:0:0:
264,306,19928,1,2,1:2:0:0:
318,370,20261,6,0,L|422:373,1,93.5999971435548,2|2,0:2|0:2,0:0:0:0:
444,346,20761,1,10,0:2:0:0:
467,264,21095,2,0,L|526:250,2,46.7999985717774,0|0|8,0:2|1:2|0:2,0:0:0:0:
391,226,21761,2,0,P|362:178|358:132,1,93.5999971435548,2|8,1:2|0:2,0:2:0:0:
385,64,22428,1,2,0:2:0:0:
385,64,22595,2,0,L|322:39,1,46.7999985717774,2|8,1:2|0:2,0:2:0:0:
311,16,22928,6,0,L|217:22,1,93.5999971435548,2|2,0:0|0:0,0:0:0:0:
137,47,23595,1,2,0:2:0:0:
62,149,24095,1,10,0:2:0:0:
62,149,24261,2,0,L|48:259,1,93.5999971435548,0|0,0:2|0:0,0:0:0:0:
64,281,24761,1,8,0:2:0:0:
132,329,25095,2,0,L|178:323,1,46.7999985717774,2|2,0:2|1:2,0:0:0:0:
216,306,25427,1,10,0:2:0:0:
261,234,25761,6,0,L|245:168,2,46.7999985717774,2|2|10,1:2|0:2|0:2,0:0:0:0:
330,281,26428,2,0,L|324:342,2,46.7999985717774,2|0|10,0:2|1:2|0:2,0:2:0:0:
386,218,27095,1,4,0:3:0:0:
386,218,27261,2,0,P|437:253|479:243,1,93.5999971435548,6|4,1:2|0:3,0:2:0:0:
493,218,27761,1,6,0:3:0:0:
505,134,28095,2,0,L|504:80,1,46.7999985717774,10|8,0:2|0:2,0:0:0:0:
471,60,28428,5,6,1:2:0:0:
387,46,28761,2,0,L|370:-6,2,46.7999985717774,8|2|2,0:2|0:2|0:2,0:0:0:0:
353,71,29261,1,6,0:3:0:0:
312,145,29595,2,0,L|204:129,1,93.5999971435548,2|2,0:2|0:2,0:2:0:0:
185,156,30095,1,10,0:2:0:0:
145,81,30428,2,0,L|160:26,2,46.7999985717774,0|2|10,0:2|1:2|0:2,0:0:0:0:
77,131,31095,6,0,L|49:228,1,93.5999971435548,2|8,1:2|0:2,0:2:0:0:
11,234,31595,2,0,L|18:335,1,93.5999971435548,2|0,0:2|1:2,0:2:0:0:
47,356,32095,1,8,0:2:0:0:
108,298,32428,2,1,P|161:283|219:283,1,93.5999971435548,2|8,1:2|0:2,0:2:0:0:
226,249,32928,1,2,0:2:0:0:
312,236,33261,1,2,1:2:0:0:
312,236,33428,1,10,0:2:0:0:
345,313,33761,6,0,P|390:345|444:336,1,93.5999971435548,2|10,1:2|0:2,0:2:0:0:
464,324,34261,2,0,L|478:227,1,93.5999971435548,2|2,0:2|1:2,0:2:0:0:
485,189,34761,1,10,0:2:0:0:
439,117,35095,2,0,P|389:100|340:91,1,93.5999971435548,2|8,1:2|0:2,0:2:0:0:
301,162,35761,1,0,0:2:0:0:
301,162,35928,2,0,P|244:171|207:170,1,93.5999971435548,2|2,1:2|0:2,0:2:0:0:
175,143,36428,6,0,L|163:47,1,93.5999971435548,2|8,1:2|0:2,0:2:0:0:
82,26,37095,2,0,L|94:133,1,93.5999971435548,2|10,1:2|0:2,0:2:0:0:
56,136,37595,1,0,1:2:0:0:
56,136,37761,2,0,L|47:193,1,46.7999985717774,10|0,0:2|1:2,0:0:0:0:
62,222,38095,1,2,0:2:0:0:
23,297,38428,2,0,P|29:326|34:359,1,46.7999985717774,2|2,0:2|1:2,0:0:0:0:
62,372,38761,2,0,L|123:383,1,46.7999985717774,10|0,0:2|0:2,0:0:0:0:
143,348,39095,6,0,L|262:316,1,104,6|2,1:2|1:2,0:0:0:0:
323,273,39761,1,10,0:2:0:0:
383,344,40095,1,2,0:2:0:0:
471,313,40428,2,0,P|503:263|488:204,1,104,2|0,1:2|0:0,0:0:0:0:
460,134,41095,1,10,0:2:0:0:
500,49,41428,1,2,0:2:0:0:
411,18,41761,6,0,L|294:-4,2,104,2|4|8,1:2|0:3|0:2,0:0:0:0:
378,108,42761,1,2,0:2:0:0:
378,108,42928,2,0,L|313:123,1,52,10|2,0:2|1:2,0:0:0:0:
282,106,43261,1,0,1:2:0:0:
195,143,43595,1,2,1:2:0:0:
157,228,43928,2,0,P|163:253|165:285,1,52,4|8,0:3|0:2,0:0:0:0:
218,356,44428,6,0,P|275:362|326:372,1,104,6|8,1:2|0:2,0:2:0:0:
368,357,44928,1,6,0:3:0:0:
368,357,45095,2,0,L|382:240,1,104,2|8,0:2|0:2,0:2:0:0:
443,184,45761,2,0,L|455:123,1,52,2|0,1:2|0:2,0:2:0:0:
450,85,46095,1,8,0:2:0:0:
366,43,46428,1,2,0:2:0:0:
296,105,46761,1,10,0:2:0:0:
219,51,47095,6,0,P|167:41|116:36,1,104,6|8,1:2|0:2,0:2:0:0:
74,49,47595,1,2,1:2:0:0:
74,49,47762,2,0,L|52:166,1,104,2|8,0:2|0:2,0:2:0:0:
64,244,48428,2,0,P|108:276|176:259,1,104,6|4,1:2|0:3,0:0:0:0:
188,239,48928,1,6,0:3:0:0:
188,239,49095,2,0,L|252:235,1,52,6|6,0:3|0:3,0:0:0:0:
281,257,49428,1,6,1:2:0:0:
328,326,49761,6,0,P|392:328|428:299,1,93.5999971435548,6|0,1:2|0:0,0:0:0:0:
468,247,50428,2,0,L|489:134,1,93.5999971435548,6|0,1:2|0:0,0:0:0:0:
469,72,51095,2,0,P|422:42|367:44,1,93.5999971435548,6|0,1:2|0:0,0:0:0:0:
345,114,51761,2,0,P|284:132|247:119,1,93.5999971435548,6|8,1:2|0:2,0:0:0:0:
203,47,52428,6,0,L|94:31,1,104,10|8,0:2|0:2,0:0:0:0:
67,64,52928,1,2,1:2:0:0:
67,64,53095,2,0,P|54:115|48:180,1,104,10|8,0:2|0:2,0:0:0:0:
106,245,53762,2,0,L|167:230,2,52,2|8|8,1:2|0:2|0:2,0:0:0:0:
83,285,54235,1,8,0:2:0:0:
83,285,54428,2,0,L|31:293,2,52,8|0|6,0:2|1:2|1:2,0:0:0:0:
137,361,55095,5,12,0:2:0:0:
230,354,55428,2,0,P|243:281|264:184,1,156,12|12,0:2|0:2,0:0:0:0:
296,171,56095,1,12,0:2:0:0:
385,222,56428,5,6,1:2:0:0:
470,166,56761,1,10,0:2:0:0:
499,67,57094,2,0,L|431:52,1,57.2000017456055,10|2,0:2|1:2,0:0:0:0:
421,7,57428,2,0,L|357:16,1,57.2000017456055,10|2,0:2|1:2,0:0:0:0:
330,53,57761,2,0,P|275:25|212:30,1,114.400003491211,10|8,0:2|0:2,0:2:0:0:
194,70,58261,1,2,0:2:0:0:
194,70,58428,2,1,L|183:197,1,114.400003491211,10|8,0:2|0:2,0:2:0:0:
99,242,59094,6,0,L|112:112,1,114.400003491211,10|10,0:2|0:2,0:2:0:0:
61,111,59594,1,2,0:2:0:0:
89,11,59928,1,2,1:2:0:0:
195,34,60261,1,0,1:2:0:0:
195,34,60427,2,0,L|325:28,1,114.400003491211,10|10,0:2|0:2,0:0:0:0:
411,45,61094,2,0,L|427:112,1,57.2000017456055,10|2,0:2|1:2,0:0:0:0:
461,135,61427,1,10,0:2:0:0:
431,233,61761,6,0,P|384:279|318:285,1,114.400003491211,10|10,0:2|0:2,0:2:0:0:
288,197,62427,1,10,0:2:0:0:
193,156,62761,1,10,0:2:0:0:
102,205,63094,2,1,P|93:261|86:321,1,114.400003491211,10|8,0:2|0:2,0:2:0:0:
104,371,63594,1,2,0:2:0:0:
104,371,63761,2,0,P|165:360|231:358,1,114.400003491211,8|14,0:2|0:2,0:0:0:0:
273,273,64427,5,14,0:2:0:0:
273,273,64594,1,2,1:2:0:0:
361,335,64927,1,10,0:2:0:0:
361,335,65094,2,0,L|427:345,1,57.2000017456055,2|4,1:2|0:3,0:2:0:0:
465,319,65427,1,10,0:2:0:0:
465,319,65594,2,0,L|483:192,1,114.400003491211,6|0,1:2|1:2,0:2:0:0:
498,162,66094,1,14,0:2:0:0:
416,54,66594,1,14,0:2:0:0:
416,54,66761,1,6,1:2:0:0:
325,102,67094,5,6,1:2:0:0:
227,68,67427,1,10,0:2:0:0:
163,149,67760,2,0,L|152:208,1,57.2000017456055,10|2,0:2|1:2,0:0:0:0:
105,226,68094,2,0,L|115:288,1,57.2000017456055,10|2,0:2|1:2,0:0:0:0:
137,328,68427,2,1,P|184:360|255:351,1,114.400003491211,10|8,0:2|0:2,0:2:0:0:
275,321,68927,1,2,0:2:0:0:
275,321,69094,2,0,L|284:207,1,114.400003491211,10|8,0:2|0:2,0:2:0:0:
330,115,69760,6,0,P|289:70|226:60,1,114.400003491211,10|10,0:2|0:2,0:2:0:0:
194,85,70260,1,2,0:2:0:0:
118,14,70594,1,2,1:2:0:0:
35,73,70927,1,0,1:2:0:0:
35,73,71093,2,0,L|15:198,1,114.400003491211,10|10,0:2|0:2,0:0:0:0:
110,228,71760,2,0,L|126:295,1,57.2000017456055,10|2,0:2|1:2,0:0:0:0:
107,332,72093,1,10,0:0:0:0:
196,383,72427,6,0,L|331:371,1,114.400003491211,10|10,0:2|0:2,0:2:0:0:
403,330,73093,1,10,0:2:0:0:
421,228,73427,1,10,0:2:0:0:
360,145,73760,2,0,P|316:116|252:125,1,114.400003491211,10|10,0:2|0:2,0:2:0:0:
218,155,74260,1,2,0:2:0:0:
218,155,74427,2,0,P|227:215|233:282,1,114.400003491211,10|10,0:2|0:2,0:0:0:0:
163,345,75093,5,14,0:2:0:0:
163,345,75260,1,2,1:2:0:0:
80,293,75593,1,10,0:2:0:0:
80,293,75761,1,2,1:2:0:0:
24,213,76093,1,10,0:2:0:0:
24,213,76260,2,0,P|38:143|43:78,1,114.400003491211,6|0,1:2|1:2,0:2:0:0:
57,50,76761,1,10,0:2:0:0:
209,11,77261,1,14,0:2:0:0:
209,11,77427,1,14,0:2:0:0:
253,93,77761,6,0,P|309:98|361:106,1,104,4|2,1:2|0:2,0:0:0:0:
445,131,78427,1,10,0:2:0:0:
454,224,78761,2,0,P|408:232|349:250,1,104,2|2,0:2|1:2,0:0:0:0:
272,201,79427,1,2,0:2:0:0:
202,263,79761,2,0,L|193:317,2,52,10|10|10,0:2|0:2|0:2,0:0:0:0:
122,214,80427,6,0,L|108:89,1,104,6|2,1:2|0:2,0:2:0:0:
24,148,81094,2,0,L|37:267,1,104,8|2,0:2|1:2,0:0:0:0:
54,343,81761,2,0,P|103:373|156:362,1,104,6|6,0:3|0:3,0:2:0:0:
173,327,82261,2,0,P|222:297|275:308,1,104,10|8,0:2|0:2,0:0:0:0:
295,339,82761,2,0,L|351:345,1,52,10|8,0:2|0:2,0:0:0:0:
384,316,83094,5,6,1:2:0:0:
463,265,83427,2,0,L|479:144,1,104,10|10,0:2|0:2,0:2:0:0:
456,119,83927,1,2,1:2:0:0:
378,66,84261,1,2,1:2:0:0:
290,99,84594,1,2,0:2:0:0:
245,181,84927,2,0,P|185:216|131:206,1,104,2|2,0:2|1:2,0:0:0:0:
111,191,85427,2,0,L|96:132,1,52,10|2,0:2|1:2,0:0:0:0:
111,95,85761,5,10,0:2:0:0:
178,29,86094,1,10,0:2:0:0:
178,29,86261,2,0,L|288:11,1,104,2|2,0:2|1:2,0:2:0:0:
330,23,86761,1,10,0:2:0:0:
330,23,86927,1,2,1:2:0:0:
390,94,87261,2,0,L|453:78,1,52,10|10,0:2|0:2,0:0:0:0:
485,94,87594,1,10,0:2:0:0:
485,94,87761,1,14,0:2:0:0:
