osu file format v14

[General]
AudioFilename: audio.mp3
AudioLeadIn: 0
PreviewTime: 56095
Countdown: 0
SampleSet: Soft
StackLeniency: 0.5
Mode: 0
LetterboxInBreaks: 0
WidescreenStoryboard: 1

[Editor]
Bookmarks: 1762,17761,28428,39095,48428,56428,67094,77761
DistanceSpacing: 0.2
BeatDivisor: 4
GridSize: 32
TimelineZoom: 2.3

[Metadata]
Title:Sansan Days (TV Size)
TitleUnicode:燦々デイズ (TV Size)
Artist:Spira Spica
ArtistUnicode:スピラ・スピカ
Creator:Hisae
Version:NEVlR & Hisae's Hard
Source:その着せ替え人形は恋をする
Tags:Raitzuki Xahlt Gweon Sua Kuon- Kyuukai Eimi Fukada yaleufeu Sotarks NEVIR NEVlR sono bisque doll wa koi wo suru my dress up darling dress-up cosplay anime op opening pop jpop j-pop japanese rock jrock j-rock 幹葉 Mikiha 寺西 裕二 Teranishi Yuji ますだ Masuda kisekae ningyou 着せ恋
BeatmapID:3539025
BeatmapSetID:1731386

[Difficulty]
HPDrainRate:4.5
CircleSize:4
OverallDifficulty:6
ApproachRate:8
SliderMultiplier:1.4
SliderTickRate:1

[Events]
//Background and Video events
Video,0,"VD.mp4"
0,0,"TAAANOSHIII DESU NEEE FOUR SHIIIIIINE SAIKOUUU.jpg",0,0
//Break Periods
//Storyboard Layer 0 (Background)
//Storyboard Layer 1 (Fail)
//Storyboard Layer 2 (Pass)
//Storyboard Layer 3 (Foreground)
//Storyboard Layer 4 (Overlay)
//Storyboard Sound Samples

[TimingPoints]
429,333.333333333333,4,2,17,65,1,0
1762,333.333333333333,4,2,17,65,1,0
1762,-200,4,2,17,65,0,0
5761,-111.111111111111,4,2,17,65,0,0
7011,-111.111111111111,4,2,17,5,0,0
7095,-111.111111111111,4,2,17,65,0,0
9678,-111.111111111111,4,2,17,5,0,0
9761,-111.111111111111,4,2,17,65,0,0
10928,-166.666666666667,4,2,17,65,0,0
11928,-111.111111111111,4,2,17,65,0,0
12428,-100,4,2,17,65,0,0
12678,-100,4,2,17,5,0,0
12761,-100,4,2,17,65,0,0
13761,-90.9090909090909,4,2,17,65,0,0
14011,-90.9090909090909,4,2,17,5,0,0
14095,-90.9090909090909,4,2,17,65,0,0
15095,-83.3333333333333,4,2,17,65,0,0
16428,-76.9230769230769,4,2,17,65,0,0
17761,-125,4,2,17,55,0,0
20428,-111.111111111111,4,2,17,55,0,0
20928,-125,4,2,17,55,0,0
24428,-111.111111111111,4,2,17,55,0,0
24928,-125,4,2,17,55,0,0
25678,-125,4,2,17,5,0,0
25761,-125,4,2,17,55,0,0
31095,-111.111111111111,4,2,17,55,0,0
31595,-125,4,2,17,55,0,0
33761,-111.111111111111,4,2,17,55,0,0
34261,-125,4,2,17,55,0,0
36178,-125,4,2,17,5,0,0
36261,-125,4,2,17,55,0,0
37761,-111.111111111111,4,2,17,55,0,0
39095,-100,4,2,17,65,0,0
40428,-111.111111111111,4,2,17,65,0,0
41761,-100,4,2,17,65,0,0
42928,-111.111111111111,4,2,17,65,0,0
44345,-111.111111111111,4,2,17,5,0,0
44428,-100,4,2,17,65,0,0
45095,-111.111111111111,4,2,17,65,0,0
45761,-100,4,2,17,65,0,0
46428,-111.111111111111,4,2,17,65,0,0
48678,-111.111111111111,4,2,17,5,0,0
48761,-111.111111111111,4,2,17,65,0,0
49761,-133.333333333333,4,2,17,60,0,0
50428,-90.9090909090909,4,2,17,60,0,0
51095,-111.111111111111,4,2,17,60,0,0
51761,-90.9090909090909,4,2,17,60,0,0
52428,-100,4,2,17,65,0,0
53762,315.789473684211,4,2,17,65,1,0
54428,333.333333333333,4,2,17,65,1,0
55095,333.333333333333,4,2,17,65,1,0
55095,-76.9230769230769,4,2,17,65,0,0
55428,-142.857142857143,4,2,17,65,0,0
55928,-76.9230769230769,4,2,17,65,0,0
56344,-76.9230769230769,4,2,17,5,0,0
56428,333.333333333333,4,2,17,65,1,0
56428,-90.9090909090909,4,2,17,70,0,1
58428,-76.9230769230769,4,2,17,70,0,1
59094,-90.9090909090909,4,2,17,70,0,1
60677,-90.9090909090909,4,2,17,5,0,1
60761,-90.9090909090909,4,2,17,70,0,1
62011,-90.9090909090909,4,2,17,5,0,1
62094,-76.9230769230769,4,2,17,70,0,1
63761,-90.9090909090909,4,2,17,70,0,1
65927,-100,4,2,17,60,0,0
67094,-90.9090909090909,4,2,17,70,0,1
68427,-76.9230769230769,4,2,17,70,0,1
68677,-76.9230769230769,4,2,17,5,0,1
68761,-90.9090909090909,4,2,17,70,0,1
71344,-90.9090909090909,4,2,17,5,0,1
71427,-90.9090909090909,4,2,17,70,0,1
72677,-90.9090909090909,4,2,17,5,0,1
72761,-90.9090909090909,4,2,17,70,0,1
73094,-76.9230769230769,4,2,17,70,0,1
73761,-90.9090909090909,4,2,17,70,0,1
76094,-76.9230769230769,4,2,17,70,0,1
76511,-76.9230769230769,4,2,17,5,0,1
76594,-76.9230769230769,4,2,17,70,0,1
77677,-76.9230769230769,4,2,17,5,0,1
77761,-111.111111111111,4,2,17,60,0,0
80427,-99.9999999999999,4,2,17,60,0,0

[Colours]
Combo1 : 121,149,244
Combo2 : 226,151,95
Combo3 : 245,190,107
Combo4 : 145,126,245

[HitObjects]
1,118,1595,5,8,0:3:0:0:
1,118,1678,1,8,0:3:0:0:
1,118,1762,2,0,B|71:132|65:87|136:101,1,140,6|0,1:2|0:0,0:2:0:0:
118,180,2595,1,0,0:0:0:0:
171,241,2761,2,0,L|207:239,1,35,10|0,0:2|0:0,0:0:0:0:
285,161,3095,6,0,P|255:224|277:303,1,140,6|0,1:2|0:0,0:2:0:0:
435,377,4095,2,0,L|436:340,1,35,4|0,0:3|0:0,0:0:0:0:
356,244,4428,6,0,L|350:350,1,105,6|0,1:2|0:0,0:0:0:0:
278,381,5095,2,0,B|248:339|248:339|273:292,1,105,6|0,1:2|0:0,0:0:0:0:
162,286,5761,6,0,P|121:269|51:301,2,125.999996154785,6|4|4,1:2|0:3|0:3,0:0:0:0:
285,161,6761,2,0,L|186:166,1,94.499997116089,4|0,0:3|0:0,0:0:0:0:
178,154,7095,6,0,P|168:92|200:39,1,125.999996154785,6|0,1:2|1:2,0:2:0:0:
285,0,7595,1,4,0:3:0:0:
285,0,7761,2,0,L|283:65,1,62.9999980773926,2|0,0:2|1:2,0:2:0:0:
369,89,8095,2,0,P|398:97|435:88,1,62.9999980773926,8|0,0:2|0:0,0:2:0:0:
512,185,8428,6,0,B|469:166|469:166|390:191,1,125.999996154785,2|0,1:2|1:2,0:2:0:0:
465,255,8928,1,4,0:3:0:0:
396,301,9095,2,0,B|387:332|387:332|398:366,1,62.9999980773926,2|0,0:2|1:2,0:2:0:0:
298,299,9428,2,0,P|308:237|288:190,1,94.499997116089,8|0,0:2|0:0,0:0:0:0:
289,194,9761,5,14,0:2:0:0:
209,257,9928,2,0,L|144:255,1,62.9999980773926,2|4,1:2|0:3,0:0:0:0:
32,298,10261,5,10,0:2:0:0:
112,361,10428,2,0,L|177:363,1,62.9999980773926,2|4,1:2|0:3,0:0:0:0:
298,299,10761,5,2,0:2:0:0:
209,257,10928,2,1,B|187:151|255:160|234:54,1,209.999993591309,6|0,1:2|1:2,0:2:0:0:
151,9,11928,5,14,0:2:0:0:
91,78,12095,2,0,L|93:145,1,62.9999980773926,14|0,0:2|0:0,0:0:0:0:
0,244,12428,6,0,P|40:225|106:238,1,105,2|0,1:2|0:0,0:0:0:0:
115,230,12761,2,0,L|117:299,1,70,10|0,0:2|1:2,0:2:0:0:
190,357,13095,1,2,0:2:0:0:
272,319,13261,1,0,1:0:0:0:
345,367,13428,2,0,P|378:376|414:369,1,70,8|0,0:2|1:2,0:0:0:0:
512,286,13761,6,0,B|473:268|473:268|392:282,1,115.50000352478,2|0,1:2|0:0,0:0:0:0:
382,277,14095,2,0,B|394:243|394:243|384:195,1,77.0000023498536,8|0,0:2|1:2,0:0:0:0:
333,130,14428,1,2,0:2:0:0:
394,65,14595,1,0,1:2:0:0:
318,13,14761,2,0,L|241:15,1,77.0000023498536,10|0,0:2|0:2,0:2:0:0:
173,102,15095,5,6,1:2:0:0:
77,83,15261,1,8,0:3:0:0:
77,83,15345,1,8,0:3:0:0:
77,83,15428,2,0,P|64:51|74:0,1,83.9999974365235,2|8,1:2|0:3,0:2:0:0:
173,102,15761,5,0,1:2:0:0:
177,109,15845,1,8,0:3:0:0:
182,115,15928,1,8,0:3:0:0:
184,122,16011,1,8,0:3:0:0:
189,128,16095,2,0,L|186:214,1,83.9999974365235,10|0,0:2|0:0,0:2:0:0:
84,289,16428,6,0,B|68:245|68:245|86:196,1,90.9999958343508,6|0,1:2|0:0,0:0:0:0:
177,332,16761,2,0,B|269:329|252:386|346:384,1,181.999991668702,6|0,1:2|0:0,0:0:0:0:
442,300,17261,1,10,0:2:0:0:
442,300,17428,2,0,P|458:344|439:392,1,90.9999958343508,10|0,0:2|0:0,0:2:0:0:
351,294,17761,6,0,P|343:238|362:178,1,112,2|8,1:2|0:2,0:2:0:0:
464,115,18428,2,0,P|429:108|398:104,1,56,2|0,1:2|0:0,0:2:0:0:
370,33,18761,2,0,P|306:18|245:46,1,112,8|0,0:2|1:2,0:0:0:0:
212,99,19261,1,2,0:2:0:0:
275,152,19428,2,0,P|269:215|269:268,1,112,8|2,0:2|0:2,0:0:0:0:
212,324,19928,1,2,1:2:0:0:
153,265,20095,2,0,P|118:271|87:272,1,56,8|2,0:0|0:2,0:0:0:0:
0,310,20428,6,0,B|32:329|32:329|16:222,1,125.999996154785,0|10,1:2|0:2,0:0:0:0:
44,132,21095,1,0,0:2:0:0:
44,132,21261,1,0,1:2:0:0:
102,195,21428,2,0,P|138:187|164:188,1,56,8|0,0:2|0:2,0:2:0:0:
199,108,21761,6,0,P|249:73|309:97,1,112,2|8,1:2|0:2,0:2:0:0:
380,193,22428,1,2,0:2:0:0:
380,193,22595,2,0,P|412:184|450:176,2,56,2|8|2,1:2|0:2|0:0,0:2:0:0:
315,269,23095,6,0,P|284:263|248:258,1,56,0|2,1:0|0:0,0:0:0:0:
193,209,23428,1,8,0:0:0:0:
152,284,23595,2,0,P|98:274|72:226,1,112,2|0,0:2|1:2,0:2:0:0:
114,154,24095,2,0,P|118:114|122:86,1,56,10|0,0:2|0:2,0:0:0:0:
35,45,24428,6,0,P|74:11|153:22,1,125.999996154785,2|8,1:2|0:2,0:2:0:0:
206,117,25095,1,2,0:2:0:0:
261,62,25261,1,2,1:2:0:0:
329,97,25428,2,0,P|319:145|316:186,1,84,10|0,0:2|0:0,0:0:0:0:
345,208,25761,6,0,P|349:240|351:266,1,56,2|2,1:2|0:2,0:0:0:0:
312,333,26095,2,0,P|277:337|256:342,2,56,10|0|2,0:2|0:2|0:2,0:2:0:0:
382,382,26595,2,0,P|419:378|460:378,1,56,0|10,1:2|0:2,0:0:0:0:
486,311,26928,6,0,P|488:278|498:245,1,56,2|4,0:2|0:3,0:2:0:0:
416,201,27261,1,6,1:2:0:0:
512,122,27595,5,4,0:3:0:0:
512,122,27761,2,0,P|503:76|496:58,1,56,6|2,0:3|1:2,0:0:0:0:
442,6,28095,1,10,0:2:0:0:
394,79,28261,1,8,0:2:0:0:
394,79,28345,1,8,0:2:0:0:
394,79,28428,6,0,P|327:62|266:63,1,112,6|8,1:2|0:2,0:2:0:0:
135,0,29095,1,2,0:2:0:0:
135,0,29261,2,0,L|137:65,1,56,6|8,0:3|0:2,0:2:0:0:
12,162,29595,6,0,P|58:132|128:158,1,112,2|2,0:2|0:2,0:2:0:0:
161,218,30095,2,0,L|163:283,1,56,10|0,0:2|0:0,0:0:0:0:
77,328,30428,2,0,L|75:263,2,56,0|2|10,0:2|1:2|0:2,0:0:0:0:
165,374,30928,1,2,0:2:0:0:
240,333,31095,6,0,B|269:307|306:318|306:318|323:345|359:353,1,125.999996154785,2|8,1:2|0:2,0:2:0:0:
428,384,31595,2,0,P|457:339|447:285,1,112,2|0,0:2|1:2,0:2:0:0:
363,189,32095,2,0,L|365:254,1,56,8|0,0:2|0:2,0:2:0:0:
447,171,32428,6,1,L|443:58,1,112,2|8,1:2|0:2,0:2:0:0:
512,0,32928,1,2,0:2:0:0:
354,72,33261,1,2,1:2:0:0:
354,72,33428,2,0,P|322:74|289:70,1,56,10|0,0:2|0:2,0:0:0:0:
197,0,33761,6,0,B|224:43|224:43|201:124,1,125.999996154785,2|10,1:2|0:2,0:2:0:0:
111,144,34261,2,0,L|-2:140,1,112,2|2,0:2|1:2,0:2:0:0:
53,229,34761,2,0,L|109:231,1,56,10|0,0:2|0:0,0:2:0:0:
176,335,35095,6,0,P|126:310|63:331,1,112,2|8,1:2|0:2,0:2:0:0:
23,384,35595,1,0,0:0:0:0:
275,233,35928,2,0,L|271:317,1,84,2|0,1:2|0:0,0:2:0:0:
272,330,36261,1,2,0:2:0:0:
361,384,36428,6,0,B|386:335|386:335|357:271,1,112,2|8,1:2|0:2,0:2:0:0:
275,233,36928,1,2,1:2:0:0:
340,168,37095,2,0,L|396:170,1,56,2|0,1:2|1:2,0:2:0:0:
475,113,37428,1,10,0:2:0:0:
482,12,37595,5,0,1:2:0:0:
383,21,37761,2,0,P|330:42|257:16,1,125.999996154785,10|2,0:2|0:2,0:0:0:0:
190,114,38261,1,8,0:2:0:0:
114,62,38428,2,0,L|116:-2,1,62.9999980773926,2|2,0:2|1:2,0:0:0:0:
24,73,38761,2,0,L|26:137,1,62.9999980773926,10|0,0:2|0:2,0:0:0:0:
101,218,39095,6,0,B|148:225|186:187|186:187|219:183|250:199,1,140,6|2,1:2|1:2,0:0:0:0:
329,345,39761,2,0,P|394:358|441:310,1,140,10|2,0:2|0:2,0:0:0:0:
512,232,40261,1,8,0:2:0:0:
437,156,40428,2,0,P|422:87|414:12,1,125.999996154785,2|0,1:2|0:0,0:0:0:0:
293,13,41095,2,0,P|246:16|228:23,1,62.9999980773926,10|0,0:2|0:0,0:0:0:0:
206,98,41428,2,0,P|159:95|141:88,1,62.9999980773926,2|8,0:2|0:2,0:0:0:0:
45,43,41761,6,0,P|65:105|79:180,2,140,2|4|8,1:2|0:3|0:2,0:0:0:0:
23,236,42761,1,2,0:2:0:0:
79,293,42928,2,0,P|110:279|144:279,1,62.9999980773926,10|2,0:2|1:2,0:0:0:0:
170,350,43261,2,0,P|197:362|236:361,1,62.9999980773926,0|2,1:2|0:2,0:0:0:0:
293,314,43595,1,2,1:2:0:0:
232,265,43761,2,0,L|223:196,1,62.9999980773926,8|4,0:2|0:3,0:0:0:0:
313,156,44095,2,0,L|326:47,1,94.499997116089,8|0,0:2|0:0,0:0:0:0:
304,36,44428,6,0,P|386:21|452:25,1,140,6|8,1:2|0:2,0:2:0:0:
479,104,44928,1,6,0:3:0:0:
405,144,45095,2,0,P|394:186|391:211,2,62.9999980773926,2|0|8,0:2|0:0|0:2,0:2:0:0:
479,104,45595,1,2,0:2:0:0:
512,201,45761,6,0,P|486:268|422:282,1,140,2|8,1:2|0:2,0:2:0:0:
264,234,46428,2,0,P|303:238|325:247,1,62.9999980773926,2|4,0:2|0:3,0:0:0:0:
289,327,46761,2,0,P|257:329|228:339,1,62.9999980773926,10|0,0:2|0:0,0:2:0:0:
161,273,47095,2,0,P|70:262|24:247,1,125.999996154785,6|8,1:2|0:2,0:2:0:0:
0,179,47595,1,2,1:2:0:0:
44,107,47761,2,0,P|87:99|117:87,1,62.9999980773926,2|0,0:2|1:2,0:2:0:0:
195,19,48095,2,0,P|185:48|180:80,1,62.9999980773926,8|0,0:2|0:2,0:2:0:0:
307,182,48428,6,0,P|299:135|284:90,1,94.499997116089,6|0,1:2|0:0,0:0:0:0:
274,78,48761,1,4,0:3:0:0:
369,29,48928,1,6,0:3:0:0:
464,78,49095,2,0,P|454:107|449:139,1,62.9999980773926,6|6,0:3|0:3,0:0:0:0:
504,230,49428,1,6,1:2:0:0:
502,340,49595,5,0,1:0:0:0:
502,340,49678,1,0,1:2:0:0:
502,339,49761,2,0,P|440:292|364:301,1,157.500006008148,6|0,1:2|0:0,0:0:0:0:
285,236,50428,6,0,B|257:266|257:266|281:338,2,115.50000352478,6|2|2,1:2|0:0|0:0,0:0:0:0:
379,186,51095,6,0,P|423:126|384:15,1,188.999994232178,6|0,1:2|0:0,0:0:0:0:
314,96,51761,1,6,1:2:0:0:
223,58,51928,1,0,0:0:0:0:
155,113,52095,2,0,B|118:125|118:125|76:115,1,77.0000023498536,8|0,0:2|0:0,0:0:0:0:
2,45,52428,6,0,P|38:94|6:184,1,140,10|8,0:2|0:2,0:0:0:0:
117,231,52928,1,2,1:2:0:0:
69,305,53095,2,0,L|0:302,1,70,10|0,0:2|1:2,0:0:0:0:
117,231,53428,2,0,L|186:234,1,70,8|0,0:2|1:2,0:0:0:0:
265,310,53762,5,2,1:2:0:0:
360,274,53919,1,8,0:2:0:0:
459,306,54077,2,0,P|469:273|462:237,1,70,8|8,0:2|0:2,0:0:0:0:
427,142,54428,5,8,0:2:0:0:
348,191,54594,2,0,L|312:192,2,35,0|0|6,1:2|1:2|1:2,0:0:0:0:
503,7,55094,6,0,B|517:42|517:42|500:78,1,70,12|0,0:2|0:0,0:0:0:0:
410,104,55428,6,0,P|365:87|309:100,1,97.9999970092774,12|0,0:2|0:0,0:0:0:0:
203,1,55928,5,12,0:2:0:0:
123,61,56095,2,0,B|124:98|124:98|157:151|157:151|159:191,1,136.499993751526,12|0,0:2|0:2,0:2:0:0:
133,222,56428,6,1,L|46:236,1,77.0000023498536,6|0,1:2|0:2,0:2:0:0:
81,318,56761,2,1,L|168:332,1,77.0000023498536,10|0,0:2|0:2,0:2:0:0:
210,259,57094,1,10,0:2:0:0:
297,273,57261,1,2,1:2:0:0:
336,350,57428,1,10,0:2:0:0:
437,318,57594,1,2,1:2:0:0:
437,318,57761,2,0,P|450:220|465:164,1,154.000004699707,10|8,0:2|0:2,0:2:0:0:
512,91,58261,1,2,0:2:0:0:
446,30,58428,6,1,B|398:7|343:43|376:51|317:91|257:62,1,181.999991668702,10|8,0:2|0:2,0:2:0:0:
220,11,58928,1,2,1:2:0:0:
159,89,59094,2,0,P|149:41|138:16,1,77.0000023498536,10|0,0:2|0:2,0:2:0:0:
56,5,59428,1,10,0:2:0:0:
4,108,59594,2,0,P|49:88|93:85,1,77.0000023498536,2|8,0:2|0:2,0:2:0:0:
111,160,59928,2,0,P|145:177|183:183,1,77.0000023498536,2|8,1:2|0:2,0:0:0:0:
241,123,60261,1,0,1:2:0:0:
317,195,60427,6,0,P|294:261|242:280,1,115.50000352478,10|0,0:2|0:0,0:0:0:0:
218,256,60761,2,0,L|123:248,1,77.0000023498536,10|0,0:2|1:2,0:2:0:0:
57,282,61094,1,10,0:2:0:0:
90,366,61261,1,2,1:2:0:0:
90,366,61427,2,0,L|172:353,1,77.0000023498536,10|0,0:2|1:2,0:0:0:0:
260,384,61761,6,0,L|287:240,1,115.50000352478,10|0,0:2|0:0,0:2:0:0:
259,245,62094,6,0,P|288:180|355:202,1,136.499993751526,10|0,0:2|0:0,0:2:0:0:
363,219,62427,1,10,0:2:0:0:
432,259,62594,1,0,1:2:0:0:
490,205,62761,2,0,P|497:150|510:100,1,90.9999958343508,10|0,0:2|0:0,0:2:0:0:
512,24,63094,6,1,P|386:58|324:62,1,181.999991668702,10|8,0:2|0:2,0:2:0:0:
273,0,63594,1,2,0:2:0:0:
209,88,63761,2,0,P|197:39|183:7,1,77.0000023498536,8|0,0:2|1:2,0:0:0:0:
106,0,64094,2,0,P|92:35|83:73,1,77.0000023498536,14|0,0:2|0:0,0:2:0:0:
20,121,64427,1,14,0:2:0:0:
84,159,64594,1,2,1:2:0:0:
187,188,64927,5,10,0:2:0:0:
121,228,65094,1,2,1:2:0:0:
35,284,65427,5,10,0:2:0:0:
35,284,65594,2,0,P|35:343|136:354,1,154.000004699707,6|0,1:2|1:2,0:2:0:0:
168,300,66094,2,0,P|217:288|249:269,2,70,14|0|0,0:2|0:0|1:0,0:0:0:0:
226,377,66594,1,14,0:2:0:0:
226,377,66761,1,6,1:2:0:0:
349,276,67094,6,0,B|346:221|346:221|319:186|319:186|317:131,1,154.000004699707,6|10,1:2|0:2,0:2:0:0:
395,60,67594,1,0,0:2:0:0:
312,0,67761,2,0,B|273:-9|273:-9|233:2,1,77.0000023498536,10|2,0:2|1:2,0:0:0:0:
147,75,68094,1,10,0:2:0:0:
53,9,68261,1,2,1:2:0:0:
0,118,68427,6,1,L|4:255,1,136.499993751526,10|0,0:2|0:0,0:2:0:0:
18,270,68761,2,0,L|15:191,1,77.0000023498536,8|2,0:2|0:2,0:0:0:0:
97,336,69094,1,10,0:2:0:0:
185,290,69261,2,0,P|225:280|263:292,1,77.0000023498536,0|8,0:0|0:2,0:0:0:0:
368,346,69594,5,2,1:2:0:0:
368,346,69761,2,0,P|431:378|521:351,1,154.000004699707,10|10,0:2|0:2,0:2:0:0:
512,279,70261,2,0,L|433:276,1,77.0000023498536,2|8,0:2|0:2,0:2:0:0:
370,195,70594,2,0,L|449:198,1,77.0000023498536,2|8,1:2|0:2,0:0:0:0:
508,110,70927,1,0,1:2:0:0:
407,0,71094,6,0,P|433:43|411:113,1,115.50000352478,10|0,0:2|0:0,0:0:0:0:
404,115,71427,2,0,L|325:112,1,77.0000023498536,10|0,0:2|0:2,0:2:0:0:
244,22,71761,1,10,0:2:0:0:
165,154,71927,1,2,1:2:0:0:
165,154,72094,2,0,B|150:119|150:119|162:75,1,77.0000023498536,10|0,0:0|1:2,0:0:0:0:
27,10,72427,6,0,P|57:74|31:147,1,115.50000352478,10|0,0:2|0:0,0:2:0:0:
39,132,72761,2,0,P|29:173|36:210,1,77.0000023498536,10|0,0:2|0:2,0:2:0:0:
114,281,73094,1,10,0:2:0:0:
210,249,73261,1,0,1:2:0:0:
278,322,73427,2,0,B|322:336|322:336|364:324,1,90.9999958343508,10|0,0:2|0:0,0:2:0:0:
319,215,73761,6,0,P|286:145|318:82,1,154.000004699707,10|10,0:2|0:2,0:2:0:0:
419,169,74261,1,2,0:2:0:0:
419,169,74427,2,0,P|418:207|416:248,1,77.0000023498536,10|0,0:2|1:2,0:0:0:0:
512,249,74761,2,0,P|510:210|509:172,1,77.0000023498536,10|0,0:2|0:0,0:2:0:0:
416,245,75094,5,14,0:2:0:0:
493,345,75261,2,0,P|452:355|414:342,1,77.0000023498536,2|0,1:2|0:2,0:2:0:0:
319,263,75594,5,10,0:2:0:0:
416,171,75761,2,0,P|426:208|416:245,1,77.0000023498536,2|0,1:2|0:2,0:2:0:0:
321,357,76094,5,10,0:2:0:0:
214,305,76261,2,0,B|142:303|156:346|84:345,1,136.499993751526,6|0,1:2|0:0,0:2:0:0:
68,344,76594,1,0,1:2:0:0:
90,243,76761,5,10,0:2:0:0:
90,243,76927,2,0,L|105:143,1,90.9999958343508,0|0,1:2|1:2,0:0:0:0:
25,108,77261,1,14,0:2:0:0:
87,29,77427,2,0,B|109:23|128:11|128:11|222:34,1,136.499993751526,14|0,0:2|0:0,0:0:0:0:
240,52,77761,6,0,P|280:47|307:40,2,62.9999980773926,4|0|2,1:2|1:2|0:2,0:0:0:0:
299,133,78261,1,2,1:2:0:0:
378,88,78427,2,0,P|419:93|448:109,1,62.9999980773926,10|0,0:2|0:2,0:2:0:0:
455,185,78761,1,2,0:2:0:0:
455,185,78927,1,2,0:2:0:0:
400,248,79094,6,0,B|307:275|314:179|206:217,1,188.999994232178,2|0,1:2|1:2,0:0:0:0:
142,327,79761,1,10,0:2:0:0:
229,302,79927,1,10,0:2:0:0:
135,239,80094,1,10,0:2:0:0:
11,384,80427,6,0,L|-1:235,1,140,6|2,1:2|0:2,0:2:0:0:
57,185,80927,1,2,1:2:0:0:
83,104,81094,2,0,B|124:82|165:104|165:104|198:145|234:131,1,140,8|2,0:2|1:2,0:0:0:0:
270,76,81594,1,2,0:2:0:0:
336,30,81761,6,0,L|381:22,2,35,6|0|0,0:3|1:0|1:2,0:2:0:0:
282,93,82094,1,6,0:3:0:0:
335,153,82261,6,0,L|380:161,4,35,10|8|8|8|8,0:2|0:2|0:2|0:2|0:2,0:0:0:0:
274,207,82761,2,0,L|229:215,4,35,10|8|8|8|6,0:2|0:2|0:2|0:2|1:2,0:0:0:0:
378,258,83427,6,0,P|420:249|459:238,1,70,10|0,0:2|0:2,0:2:0:0:
512,302,83761,1,10,0:2:0:0:
471,384,83927,2,0,P|426:371|387:368,1,70,2|8,1:2|0:2,0:0:0:0:
324,330,84261,2,0,P|287:342|249:344,1,70,2|8,1:2|0:2,0:2:0:0:
218,263,84594,2,0,P|181:251|143:249,1,70,2|8,0:2|0:2,0:2:0:0:
73,315,84927,6,0,P|64:357|62:394,2,70,2|8|2,0:2|0:2|1:2,0:0:0:0:
0,265,85427,1,10,0:2:0:0:
34,181,85594,1,2,1:2:0:0:
121,168,85761,1,10,0:2:0:0:
277,36,86094,5,10,0:2:0:0:
213,86,86261,2,0,P|204:129|204:167,1,70,2|8,0:2|0:2,0:2:0:0:
273,215,86594,1,2,1:2:0:0:
273,215,86677,1,0,1:0:0:0:
273,215,86761,1,10,0:2:0:0:
336,163,86927,1,2,1:2:0:0:
491,240,87261,5,10,0:2:0:0:
406,264,87427,1,10,0:2:0:0:
351,350,87594,1,8,0:2:0:0:
266,324,87761,1,14,0:2:0:0:
