osu file format v14

[General]
AudioFilename: audio.mp3
AudioLeadIn: 0
PreviewTime: 56095
Countdown: 0
SampleSet: Soft
StackLeniency: 0.5
Mode: 0
LetterboxInBreaks: 0
WidescreenStoryboard: 1

[Editor]
Bookmarks: 87761
DistanceSpacing: 0.9
BeatDivisor: 4
GridSize: 32
TimelineZoom: 2.3

[Metadata]
Title:Sansan Days (TV Size)
TitleUnicode:燦々デイズ (TV Size)
Artist:Spira Spica
ArtistUnicode:スピラ・スピカ
Creator:Hisae
Version:Kyuukai's Expert
Source:その着せ替え人形は恋をする
Tags:Raitzuki Xahlt Gweon Sua Kuon- Kyuukai Eimi Fukada yaleufeu Sotarks NEVIR NEVlR sono bisque doll wa koi wo suru my dress up darling dress-up cosplay anime op opening pop jpop j-pop japanese rock jrock j-rock 幹葉 Mikiha 寺西 裕二 Teranishi Yuji ますだ Masuda kisekae ningyou 着せ恋
BeatmapID:3539024
BeatmapSetID:1731386

[Difficulty]
HPDrainRate:5.5
CircleSize:4.7
OverallDifficulty:8.7
ApproachRate:9
SliderMultiplier:1.8
SliderTickRate:1

[Events]
//Background and Video events
0,0,"TAAANOSHIII DESU NEEE FOUR SHIIIIIINE SAIKOUUU.jpg",0,0
Video,0,"VD.mp4"
//Break Periods
//Storyboard Layer 0 (Background)
//Storyboard Layer 1 (Fail)
//Storyboard Layer 2 (Pass)
//Storyboard Layer 3 (Foreground)
//Storyboard Layer 4 (Overlay)
//Storyboard Sound Samples

[TimingPoints]
429,333.333333333333,4,2,17,65,1,0
429,-1000,4,2,17,65,0,0
1762,333.333333333333,4,2,17,65,1,0
1762,-333.333333333333,4,2,17,65,0,0
7095,-200,4,2,17,65,0,0
8345,-200,4,2,17,5,0,0
8428,-200,4,2,17,65,0,0
9678,-200,4,2,17,5,0,0
9761,-200,4,2,17,65,0,0
11928,-66.6666666666667,4,2,17,65,0,0
12011,-66.6666666666667,4,2,17,5,0,0
12095,-200,4,2,17,65,0,0
12345,-200,4,2,17,5,0,0
12428,-100,4,2,17,65,0,0
16345,-100,4,2,17,5,0,0
16428,-66.6666666666667,4,2,17,65,0,0
16678,-66.6666666666667,4,2,17,5,0,0
16761,-200,4,2,17,65,0,0
17178,-200,4,2,17,5,0,0
17261,-66.6666666666667,4,2,17,65,0,0
17345,-66.6666666666667,4,2,17,5,0,0
17428,-66.6666666666667,4,2,17,65,0,0
17678,-66.6666666666667,4,2,17,5,0,0
17761,-125,4,2,17,55,0,0
20178,-125,4,2,17,5,0,0
20261,-125,4,2,17,55,0,0
25011,-125,4,2,17,5,0,0
25095,-125,4,2,17,55,0,0
27261,-250,4,2,17,55,0,0
27761,-125,4,2,17,55,0,0
28095,-83.3333333333333,4,2,17,55,0,0
28428,-125,4,2,17,55,0,0
39095,-111.111111111111,4,2,17,65,0,0
40345,-111.111111111111,4,2,17,5,0,0
40428,-111.111111111111,4,2,17,65,0,0
44428,-142.857142857143,4,2,17,65,0,0
48428,-100,4,2,17,65,0,0
49678,-100,4,2,17,5,0,0
49761,-166.666666666666,4,2,17,60,0,0
52428,-100,4,2,17,65,0,0
53762,315.789473684211,4,2,17,65,1,0
54428,333.333333333333,4,2,17,65,1,0
54761,-66.6666666666667,4,2,17,65,0,0
55011,-66.6666666666667,4,2,17,5,0,0
55095,333.333333333333,4,2,17,65,1,0
55095,-100,4,2,17,65,0,0
56095,-200,4,2,17,65,0,0
56344,-200,4,2,17,5,0,0
56428,333.333333333333,4,2,17,65,1,0
56428,-83.3333333333333,4,2,17,70,0,1
56678,-83.3333333333333,4,2,17,5,0,1
56761,-83.3333333333333,4,2,17,70,0,1
58011,-83.3333333333333,4,2,17,5,0,1
58094,-83.3333333333333,4,2,17,70,0,1
59344,-83.3333333333333,4,2,17,5,0,1
59428,-83.3333333333333,4,2,17,70,0,1
62011,-83.3333333333333,4,2,17,5,0,1
62094,-83.3333333333333,4,2,17,70,0,1
64344,-83.3333333333333,4,2,17,5,0,1
64427,-83.3333333333333,4,2,17,70,0,1
65594,-100,4,2,17,60,0,0
66761,-66.6666666666667,4,2,17,60,0,0
67011,-66.6666666666667,4,2,17,5,0,0
67094,-83.3333333333333,4,2,17,70,0,1
67344,-83.3333333333333,4,2,17,5,0,1
67427,-83.3333333333333,4,2,17,70,0,1
68677,-83.3333333333333,4,2,17,5,0,1
68761,-83.3333333333333,4,2,17,70,0,1
70011,-83.3333333333333,4,2,17,5,0,1
70094,-83.3333333333333,4,2,17,70,0,1
72677,-83.3333333333333,4,2,17,5,0,1
72761,-83.3333333333333,4,2,17,70,0,1
75011,-83.3333333333333,4,2,17,5,0,1
75094,-83.3333333333333,4,2,17,70,0,1
77761,-125,4,2,17,60,0,0
83094,-83.3333333333333,4,2,17,60,0,0

[Colours]
Combo1 : 121,149,244
Combo2 : 226,151,95
Combo3 : 245,190,107
Combo4 : 145,126,245

[HitObjects]
416,64,429,6,0,P|409:107|408:127,1,63,0|8,0:0|0:3,0:0:0:0:
413,133,1678,1,8,0:3:0:0:
418,140,1762,6,0,P|325:150|320:211,1,161.999995056153,6|10,1:2|0:2,0:2:0:0:
224,352,3095,2,0,P|305:326|384:320,1,161.999995056153,6|4,1:2|0:3,0:2:0:0:
512,192,4428,6,0,P|467:174|429:167,1,80.9999975280763,6|0,1:2|0:0,0:0:0:0:
391,107,5095,2,0,P|351:112|313:123,1,80.9999975280763,6|0,1:2|0:0,0:0:0:0:
256,192,5761,5,6,1:2:0:0:
192,160,6095,5,4,0:3:0:0:
128,224,6428,5,4,0:3:0:0:
0,192,6761,5,4,0:3:0:0:
60,35,7095,6,0,P|80:75|85:120,1,90,6|0,1:2|1:2,0:2:0:0:
50,262,7595,1,4,0:3:0:0:
177,211,7761,2,0,P|153:208|133:207,1,45,2|0,0:2|1:2,0:2:0:0:
18,342,8095,2,0,P|51:340|95:334,1,67.5,8|0,0:2|0:2,0:2:0:0:
160,288,8428,6,0,P|201:290|263:298,1,90,2|0,1:2|1:2,0:2:0:0:
399,353,8928,1,4,0:3:0:0:
323,252,9095,2,0,P|333:272|335:294,1,45,2|0,0:2|1:2,0:2:0:0:
437,210,9428,2,0,P|444:244|441:278,1,67.5,8|0,0:2|0:0,0:0:0:0:
439,290,9761,5,14,0:2:0:0:
224,224,9928,1,2,1:2:0:0:
320,178,10095,1,4,0:3:0:0:
192,320,10261,5,10,0:2:0:0:
32,224,10428,1,2,1:2:0:0:
96,320,10595,1,4,0:3:0:0:
192,192,10761,1,2,0:2:0:0:
96,32,10928,6,1,P|66:96|96:160,1,135,6|0,1:2|0:0,0:2:0:0:
88,152,11761,1,0,1:2:0:0:
310,99,11928,6,0,P|287:75|256:64,1,67.5000025749208,14|0,0:2|0:0,0:0:0:0:
186,124,12095,2,0,L|192:198,1,67.5,14|0,0:2|0:0,0:0:0:0:
188,201,12428,5,2,1:2:0:0:
320,288,12595,1,0,1:2:0:0:
160,384,12761,2,0,P|106:375|58:373,1,90,10|0,0:2|1:2,0:2:0:0:
230,299,13095,2,0,P|275:291|320:288,1,90,2|0,0:2|1:0,0:0:0:0:
96,192,13428,1,8,0:2:0:0:
166,315,13595,1,0,1:2:0:0:
288,192,13761,6,0,P|332:195|377:203,1,90,2|0,1:2|0:0,0:0:0:0:
506,271,14095,1,8,0:2:0:0:
384,352,14261,1,0,1:2:0:0:
510,255,14428,2,0,P|506:210|498:165,1,90,2|0,0:2|1:2,0:0:0:0:
352,96,14761,2,0,P|355:51|363:6,1,90,10|0,0:2|0:2,0:2:0:0:
412,212,15095,5,6,1:2:0:0:
236,133,15261,1,8,0:3:0:0:
246,130,15345,1,0,1:0:0:0:
256,128,15428,1,2,1:2:0:0:
265,125,15511,1,0,1:0:0:0:
274,123,15594,1,8,0:3:0:0:
416,288,15761,6,0,L|352:280,1,45,8|8,0:3|0:3,0:0:0:0:
320,224,15928,2,0,L|275:229,1,45,8|8,0:3|0:3,0:0:0:0:
192,320,16095,2,0,L|32:308,1,135,10|0,0:2|0:0,0:2:0:0:
50,302,16428,6,0,B|32:320|22:352|22:352|0:256|32:192,1,202.500007724762,6|0,1:2|0:0,0:0:0:0:
134,103,16761,6,0,P|153:156|140:210,1,112.5,6|0,1:2|0:0,0:0:0:0:
141,228,17261,6,0,P|166:210|231:210,1,67.5000025749208,10|0,0:2|0:0,0:0:0:0:
352,128,17428,6,0,P|384:133|448:288,1,202.500007724762,10|0,0:2|0:2,0:2:0:0:
448,288,17761,6,0,P|416:272|352:288,1,72,2|0,1:2|0:0,0:2:0:0:
254,364,18095,2,0,L|330:352,1,72,8|2,0:2|0:2,0:0:0:0:
264,276,18428,1,2,1:2:0:0:
160,384,18595,1,0,0:0:0:0:
288,288,18761,1,8,0:2:0:0:
151,226,18928,6,0,P|165:259|172:294,1,72,2|0,0:2|1:2,0:2:0:0:
25,230,19261,2,0,P|31:194|45:161,1,72,2|8,0:2|0:2,0:2:0:0:
83,300,19595,1,2,0:2:0:0:
0,384,19761,1,2,0:2:0:0:
172,294,19928,2,0,B|226:282|226:282|277:332,1,108,2|0,1:2|0:0,0:2:0:0:
256,334,20261,1,2,0:2:0:0:
384,256,20428,5,0,1:2:0:0:
352,352,20595,1,2,0:2:0:0:
302,228,20761,2,1,P|347:172|436:194,1,144,10|0,0:2|0:2,0:2:0:0:
512,352,21261,1,0,1:2:0:0:
405,258,21428,2,0,P|440:264|475:274,1,72,8|0,0:2|0:2,0:2:0:0:
352,352,21761,6,0,P|317:362|281:368,1,72,2|0,1:2|0:0,0:2:0:0:
160,288,22095,2,0,P|160:215|224:192,1,144,8|2,0:2|0:2,0:0:0:0:
281,268,22595,1,2,1:2:0:0:
195,367,22761,1,8,0:2:0:0:
296,263,22928,6,0,P|336:265|389:272,1,72,2|0,0:0|1:0,0:0:0:0:
181,360,23261,2,0,P|145:362|109:366,1,72,2|8,0:0|0:0,0:0:0:0:
27,288,23595,2,0,P|15:217|28:146,1,144,2|0,0:2|1:2,0:2:0:0:
160,64,24095,1,10,0:2:0:0:
64,0,24261,1,0,0:2:0:0:
170,70,24428,6,0,P|176:105|169:140,1,72,2|0,1:2|0:0,0:2:0:0:
96,256,24761,2,0,P|131:249|210:262,1,108,8|0,0:2|0:0,0:0:0:0:
256,309,25095,1,2,0:2:0:0:
160,384,25261,1,2,1:2:0:0:
331,322,25428,2,0,P|318:355|291:377,1,72,10|0,0:2|0:0,0:0:0:0:
288,224,25761,5,2,1:2:0:0:
418,251,25928,1,2,0:2:0:0:
450,379,26095,1,10,0:2:0:0:
403,324,26261,5,0,0:2:0:0:
512,256,26428,1,2,0:2:0:0:
444,147,26595,1,0,1:2:0:0:
320,224,26761,5,10,0:2:0:0:
384,63,26928,1,2,0:2:0:0:
451,157,27095,5,4,0:3:0:0:
256,96,27261,2,0,L|170:113,1,72,6|4,1:2|0:3,0:2:0:0:
64,0,27761,6,0,P|82:54|84:98,1,72,6|2,0:3|1:2,0:0:0:0:
0,224,28095,6,0,P|28:206|50:204,1,53.9999983520508,10|0,0:2|1:0,0:0:0:0:
160,256,28261,5,8,0:2:0:0:
165,264,28345,1,8,0:2:0:0:
170,270,28428,2,0,P|239:255|310:268,1,144,6|8,1:2|0:2,0:2:0:0:
224,335,28928,1,2,0:2:0:0:
264,180,29095,1,2,0:2:0:0:
388,229,29261,2,0,P|397:264|390:299,1,72,6|8,0:3|0:2,0:2:0:0:
256,167,29595,6,0,L|264:69,1,72,2|0,0:2|0:0,0:2:0:0:
384,64,29928,1,2,0:2:0:0:
264,180,30095,2,0,P|224:148|128:160,1,144,10|0,0:2|0:2,0:0:0:0:
226,259,30595,1,2,1:2:0:0:
98,330,30761,1,10,0:2:0:0:
137,248,30928,1,2,0:2:0:0:
257,344,31095,6,0,P|221:349|186:341,1,72,2|0,1:2|0:0,0:2:0:0:
37,251,31428,1,8,0:2:0:0:
121,159,31595,2,0,L|138:255,1,72,2|0,0:2|0:0,0:2:0:0:
32,96,31928,1,0,1:2:0:0:
133,229,32095,2,0,L|229:212,1,72,8|0,0:2|0:2,0:2:0:0:
352,160,32428,6,1,P|384:220|352:281,1,144,2|8,1:2|0:2,0:2:0:0:
271,123,32928,2,0,P|293:91|333:75,1,72,2|0,0:2|0:2,0:2:0:0:
480,128,33261,1,2,1:2:0:0:
419,7,33428,2,0,P|412:42|408:78,1,72,10|0,0:2|0:2,0:0:0:0:
505,269,33761,6,0,P|495:233|479:112,1,144,2|10,1:2|0:2,0:2:0:0:
512,0,34261,1,2,0:2:0:0:
384,64,34428,1,0,0:0:0:0:
480,128,34595,1,2,1:2:0:0:
377,54,34761,2,0,P|336:46|293:61,1,72,10|0,0:2|0:0,0:2:0:0:
192,128,35095,6,0,P|239:122|284:208,1,144,2|8,1:2|0:2,0:2:0:0:
160,320,35595,1,0,0:0:0:0:
308,283,35761,2,0,P|273:274|238:271,1,72,0|2,0:2|1:2,0:0:0:0:
64,352,36095,1,8,0:2:0:0:
160,224,36261,1,2,0:2:0:0:
23,118,36428,6,0,P|47:185|64:256,1,144,2|8,1:2|0:2,0:2:0:0:
0,384,36928,1,2,1:2:0:0:
160,320,37095,1,2,1:2:0:0:
64,256,37261,1,0,1:2:0:0:
160,96,37428,1,10,0:2:0:0:
224,160,37595,1,0,1:2:0:0:
32,128,37761,5,10,0:2:0:0:
256,64,37928,1,0,1:2:0:0:
130,0,38095,2,0,P|148:49|161:98,1,72,2|8,0:2|0:2,0:0:0:0:
292,219,38428,2,0,P|303:185|316:152,1,72,2|2,0:2|1:2,0:0:0:0:
160,256,38761,1,10,0:2:0:0:
320,352,38928,1,0,0:2:0:0:
91,188,39095,6,0,P|62:260|99:330,1,161.999995056153,6|2,1:2|1:2,0:0:0:0:
219,213,39595,1,2,0:2:0:0:
123,104,39761,2,0,P|77:108|42:112,1,80.9999975280763,10|0,0:2|0:0,0:0:0:0:
260,276,40095,2,0,P|299:234|287:177,1,121.499996292114,2|0,0:2|0:0,0:0:0:0:
225,139,40428,5,2,1:2:0:0:
320,32,40595,1,0,1:2:0:0:
217,129,40761,1,0,0:0:0:0:
329,40,40928,1,0,0:0:0:0:
462,92,41095,6,0,P|481:169|462:247,1,161.999995056153,10|2,0:2|0:2,0:0:0:0:
416,320,41595,1,8,0:2:0:0:
297,222,41761,2,0,P|337:222|365:250,1,80.9999975280763,2|0,1:2|0:0,0:0:0:0:
503,322,42095,2,0,P|463:330|424:341,1,80.9999975280763,4|0,0:3|0:0,0:0:0:0:
256,288,42428,6,0,B|210:271|168:297|168:297|148:331|109:337,1,161.999995056153,8|2,0:2|0:2,0:0:0:0:
223,368,42928,1,10,0:2:0:0:
95,251,43095,1,2,1:2:0:0:
64,384,43261,1,0,1:2:0:0:
104,224,43428,1,2,0:2:0:0:
0,319,43594,1,2,1:2:0:0:
192,256,43761,5,8,0:2:0:0:
32,128,44095,5,8,0:2:0:0:
128,32,44428,6,0,P|193:29|224:96,1,125.999996154785,6|8,1:2|0:2,0:2:0:0:
129,159,44928,1,6,0:3:0:0:
270,190,45095,2,0,P|243:173|215:161,1,62.9999980773926,2|0,0:2|0:0,0:2:0:0:
64,224,45428,1,8,0:2:0:0:
203,146,45595,1,2,0:2:0:0:
86,35,45761,6,0,P|73:62|71:94,1,62.9999980773926,2|0,1:2|0:2,0:2:0:0:
20,180,46095,2,0,P|37:207|64:224,1,62.9999980773926,8|0,0:2|0:2,0:2:0:0:
179,323,46428,6,0,P|195:296|222:279,1,62.9999980773926,2|4,0:2|0:3,0:0:0:0:
270,190,46762,2,0,P|301:191|328:206,1,62.9999980773926,10|0,0:2|0:0,0:2:0:0:
443,336,47095,6,0,P|384:314|322:310,1,125.999996154785,6|8,1:2|0:2,0:2:0:0:
257,359,47595,1,2,1:2:0:0:
387,245,47761,1,2,0:2:0:0:
320,192,47928,1,0,1:2:0:0:
384,384,48095,1,8,0:2:0:0:
390,373,48428,5,6,1:2:0:0:
326,344,48595,1,0,1:2:0:0:
452,256,48761,5,4,0:3:0:0:
288,284,48928,1,6,0:3:0:0:
256,128,49095,5,6,0:3:0:0:
480,192,49262,1,6,0:3:0:0:
256,347,49428,2,1,P|207:321|246:246,1,135,6|0,1:2|0:2,0:2:0:0:
246,360,49761,6,0,P|160:352|64:345,1,161.999995056153,6|0,1:2|0:0,0:0:0:0:
168,188,50428,2,0,P|87:194|6:201,1,161.999995056153,6|0,1:2|0:0,0:0:0:0:
320,96,51095,6,0,P|312:182|305:278,1,161.999995056153,6|0,1:2|0:0,0:0:0:0:
126,60,51761,2,0,P|143:115|148:133,1,53.9999983520508,6|0,1:2|0:0,0:0:0:0:
203,172,52095,2,0,P|186:227|181:245,1,53.9999983520508,8|0,0:2|0:0,0:0:0:0:
96,352,52428,5,10,0:2:0:0:
224,320,52595,1,0,1:2:0:0:
320,224,52761,5,8,0:2:0:0:
480,288,52928,1,2,1:2:0:0:
288,352,53095,5,10,0:2:0:0:
416,224,53261,1,0,1:2:0:0:
288,128,53428,5,8,0:2:0:0:
384,320,53594,1,0,1:2:0:0:
494,192,53762,5,2,1:2:0:0:
494,192,53840,1,0,1:0:0:0:
494,192,53919,2,0,P|491:159|480:133,1,45,8|0,0:2|1:0,0:0:0:0:
509,76,54077,2,0,P|478:62|450:58,1,45,8|0,0:2|1:0,0:0:0:0:
415,5,54235,2,0,P|387:24|370:46,1,45,8|0,0:2|1:0,0:0:0:0:
320,192,54428,5,8,0:2:0:0:
320,192,54511,1,0,1:0:0:0:
320,192,54594,2,0,B|322:189|312:118,1,45,0|0,1:2|1:2,0:0:0:0:
224,32,54761,6,0,P|128:-1|128:96,1,202.500007724762,6|0,1:2|0:0,0:0:0:0:
116,82,55095,5,12,0:2:0:0:
0,256,55428,5,12,0:2:0:0:
6,246,55928,5,12,0:2:0:0:
123,357,56095,2,0,L|188:341,1,67.5,12|0,0:2|0:2,0:2:0:0:
238,277,56428,6,1,P|297:286|320:384,1,161.999995056153,6|0,1:2|0:0,0:2:0:0:
434,268,56761,2,1,P|380:272|328:284,1,107.999996704102,10|0,0:2|0:2,0:2:0:0:
126,218,57094,1,10,0:2:0:0:
260,345,57261,1,2,1:2:0:0:
352,192,57428,1,10,0:2:0:0:
169,272,57595,1,2,1:2:0:0:
361,178,57761,2,0,P|388:104|360:30,1,161.999995056153,10|0,0:2|0:0,0:2:0:0:
303,76,58094,5,8,0:2:0:0:
480,160,58261,1,2,0:2:0:0:
352,256,58428,1,10,0:2:0:0:
448,224,58594,5,0,0:0:0:0:
256,288,58761,2,0,P|249:243|280:186,1,107.999996704102,8|2,0:2|1:2,0:0:0:0:
480,367,59094,2,0,L|318:353,1,161.999995056153,10|0,0:2|0:0,0:2:0:0:
263,305,59428,1,10,0:2:0:0:
397,180,59594,2,0,P|437:239|435:286,1,107.999996704102,2|8,0:2|0:2,0:2:0:0:
192,384,59928,2,0,P|187:341|170:253,1,107.999996704102,2|8,1:2|0:2,0:0:0:0:
224,128,60261,1,0,1:2:0:0:
64,256,60427,5,10,0:2:0:0:
256,224,60594,1,2,0:2:0:0:
17,167,60761,2,0,L|137:179,1,107.999996704102,10|0,0:2|1:2,0:2:0:0:
354,200,61094,1,10,0:2:0:0:
175,277,61261,1,2,1:2:0:0:
363,213,61427,2,0,L|256:224,1,107.999996704102,10|0,0:2|1:2,0:0:0:0:
161,367,61761,6,0,P|92:333|86:256,1,161.999995056153,10|0,0:2|0:0,0:2:0:0:
143,205,62094,2,0,P|160:155|142:105,1,107.999996704102,10|0,0:2|1:2,0:2:0:0:
0,0,62427,1,10,0:2:0:0:
66,156,62594,1,0,1:2:0:0:
190,38,62761,2,0,P|143:17|94:36,1,107.999996704102,10|0,0:2|0:0,0:2:0:0:
0,224,63094,6,1,B|45:221|70:179|70:179|160:192|192:256,1,215.999993408203,10|8,0:2|0:2,0:2:0:0:
96,288,63594,1,2,0:2:0:0:
213,380,63761,1,8,0:2:0:0:
85,297,63927,1,0,1:2:0:0:
256,167,64094,2,0,P|279:243|255:319,1,161.999995056153,14|0,0:2|0:0,0:2:0:0:
213,380,64427,5,14,0:2:0:0:
107,279,64594,1,2,1:2:0:0:
192,224,64761,1,0,0:2:0:0:
64,352,64927,5,10,0:2:0:0:
0,192,65094,1,2,1:2:0:0:
128,96,65261,1,4,0:3:0:0:
288,224,65427,5,10,0:2:0:0:
31,282,65594,2,0,P|34:192|56:102,1,180,6|0,1:2|1:2,0:2:0:0:
172,303,66094,1,14,0:2:0:0:
49,384,66261,1,0,0:0:0:0:
166,289,66427,1,0,1:0:0:0:
304,352,66594,2,0,L|384:336,1,45,14|0,0:2|1:0,0:0:0:0:
445,375,66761,6,0,B|458:278|384:250|384:250|394:220|419:214,1,202.500007724762,6|0,1:2|0:0,0:0:0:0:
484,176,67094,6,0,P|510:101|484:26,1,161.999995056153,6|0,1:2|0:0,0:2:0:0:
381,144,67427,2,0,P|427:131|475:163,1,107.999996704102,10|0,0:2|0:2,0:2:0:0:
320,288,67761,1,10,0:2:0:0:
512,352,67927,1,2,1:2:0:0:
329,274,68094,1,10,0:2:0:0:
493,189,68261,1,2,1:2:0:0:
362,362,68427,6,1,P|291:377|183:351,1,161.999995056153,10|0,0:2|0:0,0:2:0:0:
252,297,68761,1,8,0:2:0:0:
64,224,68927,1,2,0:2:0:0:
160,192,69094,1,10,0:2:0:0:
32,128,69261,5,0,0:0:0:0:
260,197,69427,2,0,P|249:129|206:110,1,107.999996704102,8|2,0:2|1:2,0:0:0:0:
64,299,69761,2,0,L|226:283,1,161.999995056153,10|0,0:2|0:0,0:2:0:0:
288,320,70094,1,10,0:2:0:0:
448,224,70261,2,0,P|395:178|352:178,1,107.999996704102,2|8,0:2|0:2,0:2:0:0:
274,345,70594,2,0,L|381:334,1,107.999996704102,2|8,1:2|0:2,0:0:0:0:
275,208,70927,1,0,1:2:0:0:
192,384,71094,5,10,0:2:0:0:
347,262,71261,1,2,0:2:0:0:
160,320,71427,2,0,L|52:309,1,107.999996704102,10|0,0:2|0:2,0:2:0:0:
192,160,71761,1,10,0:2:0:0:
256,352,71927,1,2,1:2:0:0:
105,207,72094,2,0,P|88:136|121:100,1,107.999996704102,10|0,0:0|1:2,0:0:0:0:
264,32,72427,6,0,P|287:112|292:192,1,161.999995056153,10|0,0:2|0:0,0:2:0:0:
351,244,72761,2,0,P|405:259|441:223,1,107.999996704102,10|0,0:2|0:2,0:2:0:0:
512,128,73094,1,10,0:2:0:0:
480,320,73261,1,0,1:2:0:0:
379,148,73427,2,0,P|374:94|398:46,1,107.999996704102,10|0,0:2|0:0,0:2:0:0:
277,266,73761,6,0,P|178:301|96:224,1,215.999993408203,10|10,0:2|0:2,0:2:0:0:
256,160,74261,1,2,0:2:0:0:
64,64,74427,1,10,0:2:0:0:
224,0,74594,1,0,1:2:0:0:
120,159,74761,2,0,P|73:158|29:271,1,161.999995056153,10|0,0:2|0:0,0:2:0:0:
64,314,75094,5,14,0:2:0:0:
224,256,75261,1,2,1:2:0:0:
128,224,75427,1,0,0:2:0:0:
288,320,75594,5,10,0:2:0:0:
128,384,75761,1,2,1:2:0:0:
297,246,75927,1,0,0:2:0:0:
64,160,76094,5,10,0:2:0:0:
320,64,76261,2,0,B|352:32|352:32|435:43|480:160,1,215.999993408203,6|0,1:2|1:2,0:2:0:0:
288,224,76761,5,10,0:2:0:0:
371,125,76927,1,0,1:2:0:0:
480,192,77094,1,0,1:2:0:0:
320,320,77261,5,14,0:2:0:0:
416,352,77427,2,0,P|409:305|393:246,1,107.999996704102,14|0,0:2|0:0,0:0:0:0:
221,113,77761,5,4,1:2:0:0:
300,79,77927,2,0,L|293:163,1,72,0|2,1:2|0:2,0:0:0:0:
64,224,78261,1,2,1:2:0:0:
143,258,78427,2,0,L|136:174,1,72,10|0,0:2|0:2,0:2:0:0:
256,256,78761,1,2,0:2:0:0:
128,352,78927,1,2,0:2:0:0:
139,170,79094,5,2,1:2:0:0:
252,272,79261,1,2,0:2:0:0:
142,154,79427,2,0,L|64:166,1,72,2|0,0:2|1:2,0:2:0:0:
192,32,79761,1,10,0:2:0:0:
288,128,79927,1,10,0:2:0:0:
192,224,80094,1,10,0:2:0:0:
192,224,80427,6,0,L|352:210,1,144,6|2,1:2|0:2,0:2:0:0:
428,278,80927,1,2,1:2:0:0:
428,278,81094,2,0,P|428:222|473:146,1,144,8|2,0:2|1:2,0:0:0:0:
512,224,81594,1,2,0:2:0:0:
368,117,81761,6,0,P|363:82|375:34,1,72,6|0,0:3|0:2,0:2:0:0:
448,0,82094,1,6,0:3:0:0:
273,60,82261,1,10,0:2:0:0:
275,70,82344,1,8,0:2:0:0:
277,79,82427,2,8,P|242:74|194:86,1,72,8|8,0:2|0:2,0:2:0:0:
64,160,82677,5,8,0:2:0:0:
70,150,82761,2,0,L|156:159,1,72,10|8,0:2|0:2,0:0:0:0:
256,192,83011,5,8,0:2:0:0:
250,201,83094,2,0,P|230:286|295:326,1,161.999995056153,6|0,1:2|0:0,0:2:0:0:
314,325,83427,5,10,0:2:0:0:
416,352,83594,1,0,0:2:0:0:
512,224,83761,5,10,0:2:0:0:
384,256,83928,1,2,1:2:0:0:
448,128,84094,5,8,0:2:0:0:
512,320,84261,1,2,1:2:0:0:
320,224,84427,5,8,0:2:0:0:
416,32,84594,2,0,P|468:39|512:96,1,107.999996704102,2|8,0:2|0:2,0:2:0:0:
320,128,84927,2,0,P|201:138|96:160,1,215.999993408203,2|2,0:2|1:2,0:0:0:0:
0,256,85427,1,10,0:2:0:0:
192,352,85594,1,2,1:2:0:0:
106,157,85761,6,0,P|126:218|131:281,1,107.999996704102,10|0,0:2|0:2,0:2:0:0:
64,384,86094,1,10,0:2:0:0:
269,278,86261,2,0,P|226:325|174:361,1,107.999996704102,2|8,0:2|0:2,0:2:0:0:
32,288,86594,1,2,1:2:0:0:
192,160,86761,1,10,0:2:0:0:
64,64,86927,1,2,1:2:0:0:
66,76,87261,5,10,0:2:0:0:
194,172,87427,1,10,0:2:0:0:
320,32,87594,1,8,0:2:0:0:
32,224,87761,1,14,0:2:0:0:
