osu file format v14

[General]
AudioFilename: cosplay.ogg
AudioLeadIn: 0
PreviewTime: 56034
Countdown: 0
SampleSet: Normal
StackLeniency: 0.7
Mode: 1
LetterboxInBreaks: 0
WidescreenStoryboard: 0

[Editor]
Bookmarks: 12406,17739,44411,61744,67078,72411,83411
DistanceSpacing: 1.5
BeatDivisor: 4
GridSize: 32
TimelineZoom: 0.8

[Metadata]
Title:Sansan Days (TV Size)
TitleUnicode:燦々デイズ (TV Size)
Artist:Spira Spica
ArtistUnicode:スピラ・スピカ
Creator:BlackBN
Version:Cosplay Oni
Source:その着せ替え人形は恋をする
Tags:BlackBq anime pop j-pop jpop japanese sono bisuku dōru wa koi o suru dooru doru the bisque doll that fell in love cosplay my dress-up darling dress up dressup 着せ恋 kisekoi opening op 喜多川海夢 Kitagawa Marin 直田姫奈 Suguta Hina
BeatmapID:3448496
BeatmapSetID:1687379

[Difficulty]
HPDrainRate:6
CircleSize:2
OverallDifficulty:6
ApproachRate:10
SliderMultiplier:1.4
SliderTickRate:1

[Events]
//Background and Video events
0,0,"bg.jpg",0,-40
Video,-400,"cosplay.mp4"
//Break Periods
//Storyboard Layer 0 (Background)
//Storyboard Layer 1 (Fail)
//Storyboard Layer 2 (Pass)
//Storyboard Layer 3 (Foreground)
//Storyboard Layer 4 (Overlay)
//Storyboard Sound Samples

[TimingPoints]
1410,333.333333333333,4,1,0,70,1,0
9409,-100,4,1,0,70,0,0
9576,-99.289573318586,4,1,0,70,0,0
9743,-98.5891695530962,4,1,0,70,0,0
9909,-97.9026845637584,4,1,0,70,0,0
9993,-97.5589366326701,4,1,0,70,0,0
10076,-97.2216436872579,4,1,0,70,0,0
10243,-96.5500124100273,4,1,0,70,0,0
10409,-95.8915365653246,4,1,0,70,0,0
10576,-95.2380952380952,4,1,0,70,0,0
11076,-100,4,1,0,70,0,0
11576,-83.3333333333333,4,1,0,70,0,0
11993,-90.9090909090909,4,1,0,80,0,0
16076,-83.3333333333333,4,1,0,80,0,0
16909,-90.9090909090909,4,1,0,80,0,0
17076,-93.7558597412338,4,1,0,80,0,0
17409,-100,4,1,0,80,0,0
17493,-111.111111111111,4,1,0,70,0,0
37409,-111.111111111111,4,1,0,70,0,0
37743,-108.103727714749,4,1,0,70,0,0
37909,-106.668798976491,4,1,0,70,0,0
38076,-105.263157894737,4,1,0,70,0,0
38409,-102.568045517453,4,1,0,70,0,0
38576,-101.267744629166,4,1,0,70,0,0
38743,-100,4,1,0,70,0,0
49326,-90.9090909090909,4,1,0,70,0,0
49576,-100,4,1,0,70,0,0
49993,-90.9090909090909,4,1,0,70,0,0
50243,-100,4,1,0,70,0,0
50660,-90.9090909090909,4,1,0,70,0,0
50909,-100,4,1,0,70,0,0
51326,-90.9090909090909,4,1,0,70,0,0
51576,-100,4,1,0,70,0,0
52076,-90.9090909090909,4,1,0,70,0,0
52243,-100,4,1,0,70,0,0
52409,-99.6184434330897,4,1,0,70,0,0
52576,-99.2375151695556,4,1,0,70,0,0
52659,-99.0492732425267,4,1,0,70,0,0
52743,-98.8594890510949,4,1,0,70,0,0
52909,-98.48657001318,4,1,0,70,0,0
53076,-98.1142326760691,4,1,0,70,0,0
53243,-97.744700045106,4,1,0,70,0,0
53326,-97.5620737005605,4,1,0,70,0,0
53409,-97.380128521997,4,1,0,70,0,0
53576,-97.0160947328364,4,1,0,70,0,0
53659,-96.8361783894897,4,1,0,70,0,0
53743,-96.6547725245317,4,1,0,70,0,0
53909,-96.2982713415989,4,1,0,70,0,0
54076,-95.9422663980696,4,1,0,70,0,0
54243,-95.5888839876489,4,1,0,70,0,0
54326,-95.414217466922,4,1,0,70,0,0
54409,-95.2401881070628,4,1,0,70,0,0
54743,-80,4,1,0,70,0,0
55576,-85.1063829787234,4,1,0,70,0,0
56076,-90.9090909090909,4,1,0,80,0,1
66243,-83.3333333333333,4,1,0,80,0,1
66743,-90.9090909090909,4,1,0,80,0,1
76909,-83.3333333333333,4,1,0,80,0,1
77326,-100,4,1,0,70,0,1
77409,-90.9090909090909,4,1,0,70,0,0
77576,-100,4,1,0,70,0,0
81743,-100,4,1,0,70,0,0
81909,-98.3671060397403,4,1,0,70,0,0
81993,-97.5609756097561,4,1,0,70,0,0
82076,-96.7773153972709,4,1,0,70,0,0
82159,-96.0061443932412,4,1,0,70,0,0
82243,-95.2380952380952,4,1,0,70,0,0
82326,-94.4911650760654,4,1,0,70,0,0
82409,-93.7558597412338,4,1,0,70,0,0
82493,-93.0232558139535,4,1,0,70,0,0
82576,-92.3105326317733,4,1,0,70,0,0
82659,-100,4,1,0,80,0,0
82743,-90.9090909090909,4,1,0,80,0,0
87409,-76.9230769230769,4,1,0,80,0,0

[HitObjects]
384,96,1410,5,4,0:0:0:0:
256,192,2409,1,8,0:0:0:0:
384,96,2743,1,4,0:0:0:0:
256,192,3743,1,0,0:0:0:0:
384,96,4076,1,4,0:0:0:0:
384,96,4743,1,12,0:0:0:0:
384,96,5409,1,4,0:0:0:0:
256,192,5743,1,0,0:0:0:0:
256,192,6076,1,8,0:0:0:0:
256,192,6409,1,8,0:0:0:0:
256,192,6576,1,8,0:0:0:0:
384,96,6743,1,4,0:0:0:0:
256,192,7076,1,0,0:0:0:0:
256,192,7243,1,8,0:0:0:0:
256,192,7409,1,0,0:0:0:0:
256,192,7576,1,0,0:0:0:0:
256,192,7743,1,8,0:0:0:0:
256,192,8076,1,0,0:0:0:0:
256,192,8409,1,0,0:0:0:0:
256,192,8576,1,8,0:0:0:0:
256,192,8743,1,8,0:0:0:0:
256,192,8909,1,0,0:0:0:0:
256,192,9076,1,8,0:0:0:0:
384,96,9409,1,4,0:0:0:0:
256,192,9576,1,0,0:0:0:0:
256,192,9743,1,8,0:0:0:0:
256,192,9909,1,8,0:0:0:0:
256,192,9993,1,8,0:0:0:0:
256,192,10076,1,0,0:0:0:0:
256,192,10243,1,8,0:0:0:0:
256,192,10409,1,0,0:0:0:0:
384,96,10576,1,12,0:0:0:0:
256,192,11076,1,8,0:0:0:0:
256,192,11409,1,0,0:0:0:0:
384,96,11576,1,12,0:0:0:0:
384,96,11743,1,12,0:0:0:0:
384,96,12076,1,4,0:0:0:0:
256,192,12243,1,0,0:0:0:0:
256,192,12326,1,0,0:0:0:0:
256,192,12409,1,8,0:0:0:0:
256,192,12576,1,0,0:0:0:0:
256,192,12743,1,8,0:0:0:0:
256,192,12826,1,8,0:0:0:0:
256,192,12909,1,0,0:0:0:0:
256,192,12993,1,0,0:0:0:0:
256,192,13076,1,8,0:0:0:0:
256,192,13243,1,0,0:0:0:0:
256,192,13409,1,8,0:0:0:0:
256,192,13493,1,8,0:0:0:0:
256,192,13576,1,0,0:0:0:0:
256,192,13743,1,8,0:0:0:0:
256,192,13909,1,0,0:0:0:0:
256,192,14076,1,8,0:0:0:0:
256,192,14159,1,0,0:0:0:0:
256,192,14243,1,8,0:0:0:0:
256,192,14409,1,8,0:0:0:0:
256,192,14576,1,0,0:0:0:0:
256,192,14743,1,8,0:0:0:0:
256,192,14826,1,8,0:0:0:0:
256,192,14909,1,8,0:0:0:0:
256,192,14993,1,8,0:0:0:0:
256,192,15076,1,0,0:0:0:0:
256,192,15243,1,0,0:0:0:0:
256,192,15409,1,8,0:0:0:0:
256,192,15493,1,0,0:0:0:0:
256,192,15576,1,0,0:0:0:0:
256,192,15659,1,0,0:0:0:0:
256,192,15743,1,8,0:0:0:0:
256,192,15826,1,8,0:0:0:0:
256,192,15909,1,0,0:0:0:0:
384,96,16076,1,12,0:0:0:0:
384,96,16409,1,12,0:0:0:0:
384,96,16909,1,4,0:0:0:0:
384,96,17076,1,4,0:0:0:0:
384,96,17409,1,4,0:0:0:0:
256,192,17743,1,8,0:0:0:0:
256,192,17909,1,8,0:0:0:0:
256,192,18076,1,0,0:0:0:0:
256,192,18409,1,8,0:0:0:0:
256,192,18576,1,0,0:0:0:0:
256,192,18909,1,0,0:0:0:0:
256,192,19076,1,8,0:0:0:0:
256,192,19243,1,0,0:0:0:0:
256,192,19409,1,0,0:0:0:0:
256,192,19576,1,8,0:0:0:0:
256,192,19743,1,8,0:0:0:0:
256,192,19909,1,0,0:0:0:0:
256,192,20243,1,0,0:0:0:0:
256,192,20409,1,8,0:0:0:0:
256,192,20576,1,0,0:0:0:0:
256,192,20743,1,0,0:0:0:0:
256,192,20909,1,0,0:0:0:0:
256,192,21076,1,8,0:0:0:0:
256,192,21409,1,8,0:0:0:0:
256,192,21576,1,0,0:0:0:0:
256,192,21743,1,8,0:0:0:0:
256,192,22076,1,8,0:0:0:0:
256,192,22243,1,0,0:0:0:0:
256,192,22409,1,8,0:0:0:0:
256,192,22576,1,8,0:0:0:0:
256,192,22743,1,0,0:0:0:0:
256,192,22909,1,0,0:0:0:0:
256,192,23076,1,8,0:0:0:0:
256,192,23243,1,0,0:0:0:0:
256,192,23576,1,0,0:0:0:0:
256,192,23743,1,8,0:0:0:0:
256,192,23909,1,8,0:0:0:0:
256,192,24076,1,0,0:0:0:0:
256,192,24409,1,8,0:0:0:0:
256,192,24743,1,0,0:0:0:0:
256,192,24909,1,0,0:0:0:0:
256,192,25076,1,8,0:0:0:0:
256,192,25409,1,8,0:0:0:0:
256,192,25576,1,0,0:0:0:0:
256,192,25743,1,8,0:0:0:0:
256,192,25909,1,8,0:0:0:0:
256,192,26076,1,0,0:0:0:0:
256,192,26243,1,0,0:0:0:0:
256,192,26409,1,8,0:0:0:0:
256,192,26743,1,0,0:0:0:0:
256,192,26909,1,8,0:0:0:0:
256,192,27243,1,0,0:0:0:0:
256,192,27409,1,8,0:0:0:0:
256,192,27576,1,0,0:0:0:0:
256,192,27743,1,8,0:0:0:0:
256,192,27909,1,8,0:0:0:0:
256,192,27993,1,8,0:0:0:0:
256,192,28076,1,0,0:0:0:0:
256,192,28409,1,8,0:0:0:0:
256,192,28576,1,0,0:0:0:0:
256,192,28743,1,0,0:0:0:0:
256,192,28909,1,0,0:0:0:0:
256,192,29076,1,8,0:0:0:0:
256,192,29243,1,0,0:0:0:0:
256,192,29576,1,0,0:0:0:0:
256,192,29743,1,8,0:0:0:0:
256,192,30076,1,8,0:0:0:0:
256,192,30243,1,0,0:0:0:0:
256,192,30409,1,8,0:0:0:0:
256,192,30576,1,8,0:0:0:0:
256,192,30743,1,0,0:0:0:0:
256,192,31076,1,8,0:0:0:0:
256,192,31243,1,8,0:0:0:0:
256,192,31409,1,0,0:0:0:0:
256,192,31576,1,0,0:0:0:0:
256,192,31743,1,8,0:0:0:0:
256,192,32076,1,0,0:0:0:0:
256,192,32243,1,0,0:0:0:0:
256,192,32409,1,8,0:0:0:0:
256,192,32576,1,0,0:0:0:0:
256,192,32909,1,0,0:0:0:0:
256,192,33076,1,8,0:0:0:0:
256,192,33243,1,8,0:0:0:0:
256,192,33409,1,0,0:0:0:0:
256,192,33743,1,8,0:0:0:0:
256,192,33909,1,0,0:0:0:0:
256,192,34076,1,0,0:0:0:0:
256,192,34243,1,0,0:0:0:0:
256,192,34409,1,8,0:0:0:0:
256,192,34743,1,0,0:0:0:0:
256,192,34909,1,0,0:0:0:0:
256,192,35076,1,8,0:0:0:0:
256,192,35409,1,0,0:0:0:0:
256,192,35576,1,0,0:0:0:0:
256,192,35743,1,8,0:0:0:0:
256,192,35909,1,0,0:0:0:0:
256,192,36076,1,8,0:0:0:0:
256,192,36409,1,8,0:0:0:0:
256,192,36576,1,0,0:0:0:0:
256,192,36743,1,0,0:0:0:0:
256,192,37076,1,8,0:0:0:0:
256,192,37243,1,0,0:0:0:0:
256,192,37409,1,8,0:0:0:0:
256,192,37743,1,8,0:0:0:0:
256,192,37909,1,8,0:0:0:0:
256,192,38076,1,0,0:0:0:0:
256,192,38409,1,8,0:0:0:0:
256,192,38576,1,8,0:0:0:0:
384,96,38743,1,4,0:0:0:0:
256,192,38909,1,8,0:0:0:0:
256,192,39076,1,0,0:0:0:0:
256,192,39243,1,0,0:0:0:0:
256,192,39409,1,8,0:0:0:0:
256,192,39743,1,0,0:0:0:0:
256,192,39909,1,8,0:0:0:0:
256,192,39993,1,8,0:0:0:0:
256,192,40076,1,0,0:0:0:0:
256,192,40243,1,0,0:0:0:0:
256,192,40409,1,0,0:0:0:0:
256,192,40576,1,0,0:0:0:0:
256,192,40743,1,8,0:0:0:0:
256,192,41076,1,0,0:0:0:0:
256,192,41243,1,8,0:0:0:0:
256,192,41326,1,0,0:0:0:0:
256,192,41409,1,8,0:0:0:0:
256,192,41576,1,8,0:0:0:0:
256,192,41743,1,0,0:0:0:0:
256,192,41909,1,0,0:0:0:0:
256,192,42076,1,8,0:0:0:0:
256,192,42409,1,0,0:0:0:0:
256,192,42576,1,8,0:0:0:0:
256,192,42659,1,8,0:0:0:0:
256,192,42743,1,0,0:0:0:0:
256,192,42909,1,8,0:0:0:0:
256,192,43076,1,0,0:0:0:0:
256,192,43243,1,0,0:0:0:0:
256,192,43409,1,8,0:0:0:0:
256,192,43743,1,8,0:0:0:0:
384,96,44076,1,4,0:0:0:0:
256,192,44409,1,8,0:0:0:0:
256,192,44576,1,0,0:0:0:0:
256,192,44659,1,0,0:0:0:0:
256,192,44743,1,0,0:0:0:0:
256,192,44909,1,0,0:0:0:0:
256,192,45076,1,8,0:0:0:0:
256,192,45243,1,0,0:0:0:0:
256,192,45409,1,0,0:0:0:0:
256,192,45743,1,8,0:0:0:0:
256,192,45909,1,0,0:0:0:0:
256,192,45993,1,0,0:0:0:0:
256,192,46076,1,8,0:0:0:0:
256,192,46243,1,0,0:0:0:0:
256,192,46409,1,8,0:0:0:0:
256,192,46743,1,0,0:0:0:0:
256,192,47076,1,8,0:0:0:0:
256,192,47243,1,0,0:0:0:0:
256,192,47409,1,8,0:0:0:0:
256,192,47493,1,8,0:0:0:0:
256,192,47576,1,0,0:0:0:0:
256,192,47743,1,8,0:0:0:0:
256,192,47909,1,0,0:0:0:0:
256,192,48076,1,8,0:0:0:0:
256,192,48243,1,0,0:0:0:0:
256,192,48326,1,0,0:0:0:0:
256,192,48409,1,0,0:0:0:0:
256,192,48576,1,8,0:0:0:0:
256,192,48743,1,0,0:0:0:0:
256,192,48909,1,0,0:0:0:0:
256,192,49076,1,8,0:0:0:0:
384,96,49409,1,4,0:0:0:0:
256,192,49743,1,8,0:0:0:0:
384,96,50076,1,4,0:0:0:0:
256,192,50243,1,8,0:0:0:0:
256,192,50576,1,8,0:0:0:0:
384,96,50743,1,4,0:0:0:0:
256,192,50909,1,0,0:0:0:0:
256,192,51243,1,8,0:0:0:0:
384,96,51409,1,4,0:0:0:0:
256,192,51576,1,0,0:0:0:0:
256,192,51743,1,8,0:0:0:0:
384,96,52076,1,4,0:0:0:0:
256,192,52243,1,0,0:0:0:0:
256,192,52409,1,8,0:0:0:0:
256,192,52576,1,0,0:0:0:0:
256,192,52659,1,0,0:0:0:0:
256,192,52743,1,8,0:0:0:0:
256,192,52909,1,0,0:0:0:0:
256,192,53076,1,8,0:0:0:0:
256,192,53243,1,8,0:0:0:0:
256,192,53326,1,8,0:0:0:0:
256,192,53409,1,0,0:0:0:0:
256,192,53576,1,0,0:0:0:0:
256,192,53659,1,0,0:0:0:0:
256,192,53743,1,8,0:0:0:0:
256,192,53909,1,8,0:0:0:0:
256,192,54076,1,0,0:0:0:0:
256,192,54243,1,0,0:0:0:0:
256,192,54326,1,0,0:0:0:0:
256,192,54409,1,8,0:0:0:0:
384,96,54743,1,12,0:0:0:0:
384,96,55076,1,12,0:0:0:0:
384,96,55576,1,4,0:0:0:0:
384,96,55743,1,4,0:0:0:0:
384,96,56076,1,12,0:0:0:0:
256,192,56243,1,0,0:0:0:0:
256,192,56326,1,0,0:0:0:0:
256,192,56409,1,8,0:0:0:0:
256,192,56576,1,0,0:0:0:0:
256,192,56743,1,8,0:0:0:0:
256,192,56826,1,0,0:0:0:0:
256,192,56909,1,0,0:0:0:0:
256,192,56993,1,0,0:0:0:0:
256,192,57076,1,8,0:0:0:0:
256,192,57243,1,0,0:0:0:0:
256,192,57409,1,8,0:0:0:0:
256,192,57493,1,8,0:0:0:0:
256,192,57576,1,0,0:0:0:0:
256,192,57659,1,0,0:0:0:0:
256,192,57743,1,8,0:0:0:0:
256,192,57909,1,0,0:0:0:0:
256,192,57993,1,0,0:0:0:0:
256,192,58076,1,8,0:0:0:0:
256,192,58159,1,8,0:0:0:0:
256,192,58243,1,0,0:0:0:0:
256,192,58409,1,8,0:0:0:0:
256,192,58576,1,0,0:0:0:0:
256,192,58659,1,0,0:0:0:0:
256,192,58743,1,8,0:0:0:0:
256,192,58909,1,0,0:0:0:0:
256,192,59076,1,8,0:0:0:0:
256,192,59243,1,0,0:0:0:0:
256,192,59326,1,0,0:0:0:0:
256,192,59409,1,8,0:0:0:0:
256,192,59576,1,0,0:0:0:0:
256,192,59659,1,0,0:0:0:0:
256,192,59743,1,8,0:0:0:0:
256,192,59909,1,0,0:0:0:0:
256,192,60076,1,8,0:0:0:0:
256,192,60159,1,0,0:0:0:0:
256,192,60243,1,8,0:0:0:0:
256,192,60409,1,0,0:0:0:0:
256,192,60576,1,0,0:0:0:0:
256,192,60659,1,0,0:0:0:0:
256,192,60743,1,8,0:0:0:0:
256,192,60826,1,0,0:0:0:0:
256,192,60909,1,8,0:0:0:0:
256,192,61076,1,8,0:0:0:0:
256,192,61159,1,8,0:0:0:0:
256,192,61243,1,0,0:0:0:0:
384,96,61409,1,4,0:0:0:0:
256,192,61576,1,0,0:0:0:0:
256,192,61659,1,0,0:0:0:0:
256,192,61743,1,8,0:0:0:0:
256,192,61909,1,0,0:0:0:0:
256,192,62076,1,8,0:0:0:0:
256,192,62159,1,8,0:0:0:0:
256,192,62243,1,0,0:0:0:0:
256,192,62409,1,8,0:0:0:0:
256,192,62493,1,8,0:0:0:0:
256,192,62576,1,0,0:0:0:0:
256,192,62659,1,0,0:0:0:0:
256,192,62743,1,8,0:0:0:0:
256,192,62909,1,0,0:0:0:0:
256,192,63076,1,8,0:0:0:0:
256,192,63159,1,0,0:0:0:0:
256,192,63243,1,0,0:0:0:0:
256,192,63409,1,8,0:0:0:0:
256,192,63576,1,0,0:0:0:0:
256,192,63659,1,0,0:0:0:0:
256,192,63743,1,8,0:0:0:0:
256,192,64076,1,8,0:0:0:0:
256,192,64243,1,0,0:0:0:0:
256,192,64326,1,0,0:0:0:0:
256,192,64409,1,0,0:0:0:0:
256,192,64576,1,8,0:0:0:0:
256,192,64743,1,0,0:0:0:0:
256,192,64826,1,0,0:0:0:0:
256,192,64909,1,0,0:0:0:0:
256,192,65076,1,8,0:0:0:0:
384,96,65243,1,4,0:0:0:0:
256,192,65576,1,0,0:0:0:0:
256,192,65743,1,8,0:0:0:0:
256,192,65826,1,8,0:0:0:0:
256,192,65909,1,8,0:0:0:0:
256,192,66076,1,0,0:0:0:0:
384,96,66243,1,12,0:0:0:0:
384,96,66409,1,12,0:0:0:0:
384,96,66743,1,4,0:0:0:0:
256,192,66909,1,8,0:0:0:0:
256,192,66993,1,8,0:0:0:0:
256,192,67076,1,0,0:0:0:0:
256,192,67243,1,8,0:0:0:0:
256,192,67409,1,0,0:0:0:0:
256,192,67493,1,0,0:0:0:0:
256,192,67576,1,8,0:0:0:0:
256,192,67659,1,0,0:0:0:0:
256,192,67743,1,8,0:0:0:0:
256,192,67909,1,0,0:0:0:0:
256,192,68076,1,8,0:0:0:0:
256,192,68159,1,8,0:0:0:0:
256,192,68243,1,0,0:0:0:0:
256,192,68326,1,0,0:0:0:0:
256,192,68409,1,8,0:0:0:0:
256,192,68576,1,8,0:0:0:0:
256,192,68659,1,0,0:0:0:0:
256,192,68743,1,8,0:0:0:0:
256,192,68826,1,8,0:0:0:0:
256,192,68909,1,0,0:0:0:0:
256,192,69076,1,8,0:0:0:0:
256,192,69243,1,0,0:0:0:0:
256,192,69326,1,0,0:0:0:0:
256,192,69409,1,8,0:0:0:0:
256,192,69576,1,0,0:0:0:0:
256,192,69743,1,8,0:0:0:0:
256,192,69909,1,8,0:0:0:0:
256,192,69993,1,0,0:0:0:0:
256,192,70076,1,8,0:0:0:0:
256,192,70243,1,0,0:0:0:0:
256,192,70326,1,0,0:0:0:0:
256,192,70409,1,8,0:0:0:0:
256,192,70576,1,0,0:0:0:0:
256,192,70743,1,8,0:0:0:0:
256,192,70826,1,8,0:0:0:0:
256,192,70909,1,8,0:0:0:0:
256,192,71076,1,0,0:0:0:0:
256,192,71243,1,0,0:0:0:0:
256,192,71326,1,0,0:0:0:0:
256,192,71409,1,8,0:0:0:0:
256,192,71493,1,0,0:0:0:0:
256,192,71576,1,8,0:0:0:0:
256,192,71743,1,8,0:0:0:0:
256,192,71826,1,8,0:0:0:0:
256,192,71909,1,0,0:0:0:0:
384,96,72076,1,4,0:0:0:0:
256,192,72243,1,0,0:0:0:0:
256,192,72326,1,0,0:0:0:0:
256,192,72409,1,8,0:0:0:0:
256,192,72576,1,0,0:0:0:0:
256,192,72743,1,8,0:0:0:0:
256,192,72826,1,8,0:0:0:0:
256,192,72909,1,0,0:0:0:0:
256,192,73076,1,8,0:0:0:0:
256,192,73159,1,0,0:0:0:0:
256,192,73243,1,0,0:0:0:0:
256,192,73326,1,0,0:0:0:0:
256,192,73409,1,8,0:0:0:0:
256,192,73576,1,0,0:0:0:0:
256,192,73743,1,8,0:0:0:0:
256,192,73826,1,0,0:0:0:0:
256,192,73909,1,0,0:0:0:0:
256,192,74076,1,8,0:0:0:0:
256,192,74243,1,8,0:0:0:0:
256,192,74326,1,0,0:0:0:0:
256,192,74409,1,8,0:0:0:0:
256,192,74743,1,8,0:0:0:0:
256,192,74909,1,0,0:0:0:0:
256,192,74993,1,8,0:0:0:0:
256,192,75076,1,0,0:0:0:0:
256,192,75243,1,8,0:0:0:0:
256,192,75409,1,0,0:0:0:0:
256,192,75493,1,0,0:0:0:0:
256,192,75576,1,0,0:0:0:0:
256,192,75743,1,8,0:0:0:0:
384,96,75909,1,4,0:0:0:0:
256,192,76243,1,0,0:0:0:0:
256,192,76409,1,8,0:0:0:0:
256,192,76493,1,8,0:0:0:0:
256,192,76576,1,0,0:0:0:0:
256,192,76743,1,0,0:0:0:0:
384,96,76909,1,12,0:0:0:0:
384,96,77076,1,12,0:0:0:0:
384,96,77409,1,4,0:0:0:0:
256,192,77576,1,8,0:0:0:0:
256,192,77659,1,0,0:0:0:0:
256,192,77743,1,0,0:0:0:0:
256,192,77909,1,0,0:0:0:0:
256,192,78076,1,8,0:0:0:0:
256,192,78409,1,0,0:0:0:0:
256,192,78576,1,0,0:0:0:0:
256,192,78659,1,0,0:0:0:0:
256,192,78743,1,0,0:0:0:0:
256,192,78909,1,0,0:0:0:0:
256,192,79076,1,8,0:0:0:0:
256,192,79243,1,0,0:0:0:0:
256,192,79326,1,0,0:0:0:0:
256,192,79409,1,8,0:0:0:0:
256,192,79576,1,8,0:0:0:0:
256,192,79743,1,8,0:0:0:0:
256,192,80076,1,0,0:0:0:0:
256,192,80243,1,0,0:0:0:0:
256,192,80326,1,0,0:0:0:0:
256,192,80409,1,8,0:0:0:0:
256,192,80576,1,0,0:0:0:0:
256,192,80743,1,8,0:0:0:0:
256,192,80909,1,8,0:0:0:0:
256,192,80993,1,8,0:0:0:0:
256,192,81076,1,0,0:0:0:0:
256,192,81243,1,0,0:0:0:0:
256,192,81409,1,8,0:0:0:0:
256,192,81743,1,0,0:0:0:0:
256,192,81909,1,8,0:0:0:0:
256,192,81993,1,0,0:0:0:0:
256,192,82076,1,8,0:0:0:0:
256,192,82159,1,8,0:0:0:0:
256,192,82243,1,0,0:0:0:0:
256,192,82326,1,0,0:0:0:0:
256,192,82409,1,8,0:0:0:0:
256,192,82493,1,0,0:0:0:0:
256,192,82576,1,8,0:0:0:0:
384,96,82743,1,4,0:0:0:0:
256,192,83076,1,8,0:0:0:0:
256,192,83243,1,0,0:0:0:0:
256,192,83326,1,0,0:0:0:0:
256,192,83409,1,8,0:0:0:0:
256,192,83576,1,0,0:0:0:0:
256,192,83743,1,8,0:0:0:0:
256,192,83909,1,0,0:0:0:0:
256,192,83993,1,0,0:0:0:0:
256,192,84076,1,8,0:0:0:0:
256,192,84243,1,0,0:0:0:0:
256,192,84409,1,8,0:0:0:0:
256,192,84576,1,0,0:0:0:0:
256,192,84659,1,0,0:0:0:0:
256,192,84743,1,8,0:0:0:0:
256,192,84909,1,0,0:0:0:0:
256,192,84993,1,0,0:0:0:0:
256,192,85076,1,8,0:0:0:0:
256,192,85159,1,8,0:0:0:0:
256,192,85243,1,0,0:0:0:0:
256,192,85409,1,8,0:0:0:0:
256,192,85576,1,0,0:0:0:0:
256,192,85659,1,0,0:0:0:0:
256,192,85743,1,8,0:0:0:0:
256,192,85909,1,8,0:0:0:0:
256,192,85993,1,0,0:0:0:0:
256,192,86076,1,8,0:0:0:0:
256,192,86243,1,0,0:0:0:0:
256,192,86326,1,0,0:0:0:0:
256,192,86409,1,8,0:0:0:0:
256,192,86576,1,0,0:0:0:0:
256,192,86909,1,0,0:0:0:0:
256,192,87076,1,0,0:0:0:0:
256,192,87243,1,0,0:0:0:0:
384,96,87409,1,12,0:0:0:0:
