osu file format v14

[General]
AudioFilename: RERISE.mp3
AudioLeadIn: 0
PreviewTime: 58265
Countdown: 0
SampleSet: Soft
StackLeniency: 0.4
Mode: 0
LetterboxInBreaks: 0
WidescreenStoryboard: 1

[Editor]
DistanceSpacing: 1.2
BeatDivisor: 4
GridSize: 32
TimelineZoom: 2.3

[Metadata]
Title:Re:RISE (TV Size)
TitleUnicode:リライズ (TV Size)
Artist:Spira Spica
ArtistUnicode:スピラ・スピカ
Creator:Sarawatlism
Version:EmPao's Hard
Source:ガンダムビルドダイバーズRe:RISE
Tags:Gundam Build Divers spira・spica jrock j-rock rock -e.p.- re rise rerise op opening anime japanese jpop j-pop pop [_lost_] conner c_o_n_n_e_r kittyadventure gokugohan12468 -_Frontier_- shockolatte EmPao Daoski
BeatmapID:2246302
BeatmapSetID:1054530

[Difficulty]
HPDrainRate:5
CircleSize:3.6
OverallDifficulty:6
ApproachRate:7.5
SliderMultiplier:1.4
SliderTickRate:1

[Events]
//Background and Video events
0,0,"BG.jpg",0,0
Video,250,"VD.mp4"
//Break Periods
//Storyboard Layer 0 (Background)
//Storyboard Layer 1 (Fail)
//Storyboard Layer 2 (Pass)
//Storyboard Layer 3 (Foreground)
//Storyboard Layer 4 (Overlay)
//Storyboard Sound Samples

[TimingPoints]
1157,361.44578313253,4,2,1,30,1,0
1157,-111.111111111111,4,2,1,30,0,0
11277,-125,4,2,1,30,0,0
12180,-125,4,2,11,50,0,0
12723,-100,4,2,1,60,0,0
13446,-100,4,2,11,60,0,0
13536,-100,4,2,12,60,0,0
13626,-100,4,2,13,60,0,0
13717,-100,4,2,14,60,0,0
13988,-100,4,2,1,60,0,0
15072,-100,4,2,12,60,0,0
15253,-100,4,2,1,60,0,0
16337,-100,4,2,11,60,0,0
16517,-100,4,2,12,60,0,0
16608,-100,4,2,13,60,0,0
16699,-100,4,2,14,60,0,0
16879,-100,4,2,1,60,0,0
17963,-100,4,2,13,60,0,0
18144,-100,4,2,1,60,0,0
18506,-100,4,2,1,40,0,0
28626,-100,4,2,1,60,0,0
30072,-100,4,2,1,50,0,0
41638,-111.111111111111,4,2,1,40,0,0
47422,-111.111111111111,4,2,1,50,0,0
56096,-100,4,2,1,60,0,0
56457,-100,4,2,13,60,0,0
56638,-100,4,2,1,60,0,0
57000,-100,4,2,11,60,0,0
57361,-100,4,2,1,60,0,0
57723,-100,4,2,14,60,0,0
57903,-100,4,2,1,60,0,0
58265,-100,4,2,1,55,0,0
58626,-100,4,2,0,55,0,0
58988,-90.9090909090909,4,2,1,80,0,1
59711,-90.9090909090909,4,2,11,80,0,1
59801,-90.9090909090909,4,2,12,80,0,1
59891,-90.9090909090909,4,2,13,80,0,1
59982,-90.9090909090909,4,2,14,80,0,1
60253,-90.9090909090909,4,2,1,80,0,1
61336,-90.9090909090909,4,2,13,80,0,1
61518,-90.9090909090909,4,2,1,80,0,1
62602,-90.9090909090909,4,2,11,80,0,1
62692,-90.9090909090909,4,2,12,80,0,1
62782,-90.9090909090909,4,2,13,80,0,1
62873,-90.9090909090909,4,2,14,80,0,1
63144,-90.9090909090909,4,2,1,80,0,1
63506,-90.9090909090909,4,2,12,80,0,1
63687,-90.9090909090909,4,2,1,80,0,1
64771,-90.9090909090909,4,2,1,75,0,1
69108,-90.9090909090909,4,2,1,85,0,1
70464,-90.9090909090909,4,2,1,85,0,0
70554,-90.9090909090909,4,2,1,80,0,1
71277,-90.9090909090909,4,2,11,80,0,1
71457,-90.9090909090909,4,2,12,80,0,1
71548,-90.9090909090909,4,2,13,80,0,1
71638,-90.9090909090909,4,2,14,80,0,1
71819,-90.9090909090909,4,2,1,80,0,1
72903,-90.9090909090909,4,2,11,80,0,1
73083,-90.9090909090909,4,2,1,80,0,1
74169,-90.9090909090909,4,2,11,80,0,1
74349,-90.9090909090909,4,2,12,80,0,1
74440,-90.9090909090909,4,2,13,80,0,1
74530,-90.9090909090909,4,2,14,80,0,1
74710,-90.9090909090909,4,2,1,80,0,1
75071,-90.9090909090909,4,2,14,80,0,1
75253,-90.9090909090909,4,2,1,80,0,1
75976,-90.9090909090909,4,2,11,80,0,1
76066,-90.9090909090909,4,2,12,80,0,1
76156,-90.9090909090909,4,2,13,80,0,1
76247,-90.9090909090909,4,2,14,80,0,1
76337,-90.9090909090909,4,2,1,75,0,1
80675,-90.9090909090909,4,2,1,85,0,1
82120,-90.9090909090909,4,2,1,80,0,1
83566,-90.9090909090909,4,2,11,85,0,1
83746,-90.9090909090909,4,2,12,85,0,1
83837,-90.9090909090909,4,2,13,85,0,1
83928,-90.9090909090909,4,2,14,85,0,1
84108,-90.9090909090909,4,2,11,85,0,1
84288,-90.9090909090909,4,2,13,85,0,1
84470,-90.9090909090909,4,2,14,85,0,1
84650,-90.9090909090909,4,2,1,85,0,1
85012,-90.9090909090909,4,2,1,60,0,0
85735,-90.9090909090909,4,2,11,60,0,0
85825,-90.9090909090909,4,2,12,60,0,0
85915,-90.9090909090909,4,2,13,60,0,0
86006,-90.9090909090909,4,2,14,60,0,0
86277,-90.9090909090909,4,2,1,65,0,0
87000,-90.9090909090909,4,2,1,70,0,0
87723,-90.9090909090909,4,2,14,75,0,0
88988,-90.9090909090909,4,2,14,5,0,0

[Colours]
Combo1 : 61,61,218
Combo2 : 0,64,128
Combo3 : 155,205,255
Combo4 : 180,103,103

[HitObjects]
50,163,1157,6,0,P|94:126|157:140,1,125.999996154785,2|2,2:0|2:0,2:0:0:0:
300,242,1879,2,0,L|312:306,1,62.9999980773926,2|2,2:0|2:0,2:0:0:0:
385,355,2241,2,0,P|399:329|396:290,1,62.9999980773926,2|2,2:0|2:0,2:0:0:0:
381,211,2602,6,0,B|372:161|372:161|391:85,1,125.999996154785,0|0,2:0|2:0,2:0:0:0:
469,242,3325,2,0,P|497:294|468:351,1,125.999996154785,2|2,2:0|2:0,2:0:0:0:
398,296,3867,1,2,2:0:0:0:
398,296,4048,6,0,B|344:307|344:307|274:274,1,125.999996154785,2|2,2:0|2:0,2:0:0:0:
122,197,4771,2,0,P|169:152|227:158,1,125.999996154785,2|2,2:0|2:0,2:0:0:0:
200,241,5313,1,2,2:0:0:0:
200,241,5494,6,0,B|160:278|160:278|85:286,1,125.999996154785,0|0,2:0|2:0,2:0:0:0:
28,222,6036,1,2,2:0:0:0:
56,138,6217,2,0,L|43:77,1,62.9999980773926,2|2,2:0|2:0,2:0:0:0:
102,11,6578,2,0,P|133:13|162:33,1,62.9999980773926,2|2,2:0|2:0,2:0:0:0:
180,116,6940,6,0,B|214:115|234:89|234:89|262:110|293:99,1,125.999996154785,2|0,2:0|2:0,2:0:0:0:
470,95,7663,2,0,L|464:158,1,62.9999980773926,2|2,2:0|2:0,2:0:0:0:
381,126,8024,2,0,L|376:63,1,62.9999980773926,2|2,2:0|2:0,2:0:0:0:
293,99,8385,6,0,B|262:110|234:89|234:89|214:115|180:116,1,125.999996154785,0|2,2:0|2:0,2:0:0:0:
98,79,8928,1,2,2:0:0:0:
98,79,9108,2,0,P|82:138|120:188,1,125.999996154785,0|0,2:0|2:0,2:0:0:0:
209,205,9650,1,2,2:0:0:0:
209,205,9831,6,0,B|233:245|233:245|223:328,1,125.999996154785,2|0,2:0|2:0,2:0:0:0:
144,362,10373,1,2,2:0:0:0:
67,317,10554,2,0,L|60:254,1,62.9999980773926,2|2,2:0|2:0,2:0:0:0:
118,186,10916,2,0,P|128:155|121:120,1,62.9999980773926,2|2,2:0|2:0,2:0:0:0:
59,55,11277,6,0,B|112:1|197:41|165:57|252:88|322:30,1,280,2|8,2:0|3:2,2:0:0:0:
320,31,12723,6,0,P|352:17|385:27,1,70,6|2,1:2|2:0,2:0:0:0:
449,82,13084,2,0,L|438:154,1,70,10|2,2:0|2:0,2:0:0:0:
489,218,13446,2,0,P|500:240|497:261,3,35,8|0|2|0,3:2|3:0|3:2|3:0,2:0:0:0:
484,289,13807,1,0,3:0:0:0:
446,365,13988,6,0,B|406:355|391:330|391:330|322:351,1,140,6|8,1:2|2:0,2:0:0:0:
293,267,14530,1,0,1:2:0:0:
293,267,14711,2,0,P|265:245|231:244,1,70,8|0,2:0|1:2,2:0:0:0:
158,291,15072,1,2,3:2:0:0:
234,329,15253,1,10,2:0:0:0:
232,244,15434,6,0,L|228:104,1,140,2|0,2:0|2:0,2:0:0:0:
167,45,15976,2,0,P|130:40|100:57,1,70,8|0,2:0|2:0,2:0:0:0:
73,134,16337,2,0,P|87:139|117:138,3,35,0|0|2|0,3:2|3:0|3:2|3:2,2:0:0:0:
147,128,16699,1,2,3:2:0:0:
228,104,16879,6,0,L|232:244,1,140,6|8,1:2|2:0,2:0:0:0:
300,294,17422,1,0,1:2:0:0:
372,249,17602,1,8,2:0:0:0:
454,264,17783,2,0,P|456:228|434:194,1,70,0|2,1:2|3:2,2:0:0:0:
372,249,18144,1,14,2:0:0:0:
228,336,18506,6,0,L|85:316,1,140,6|0,1:2|1:2,2:0:0:0:
4,171,19229,2,0,P|37:117|115:132,1,140,2|0,1:2|1:2,2:0:0:0:
175,171,19771,1,0,2:0:0:0:
230,234,19952,6,0,P|293:243|327:183,1,140,2|0,1:2|1:2,2:0:0:0:
292,19,20675,1,2,1:2:0:0:
292,19,20855,1,10,2:0:0:0:
359,68,21036,2,0,P|391:57|410:28,1,70,2|2,1:2|2:0,2:0:0:0:
492,11,21397,6,0,P|482:84|481:166,1,140,0|2,1:2|1:2,2:0:0:0:
496,233,21940,1,2,2:0:0:0:
413,245,22120,2,0,B|373:268|373:268|281:252,1,140,0|2,1:2|1:2,2:0:0:0:
209,205,22663,1,2,2:0:0:0:
161,274,22843,6,0,B|184:234|184:234|168:142,1,140,0|0,1:2|1:2,2:0:0:0:
11,202,23566,1,2,1:2:0:0:
11,202,23746,1,10,2:0:0:0:
74,146,23927,2,0,P|80:111|68:74,1,70,2|2,1:2|2:0,2:0:0:0:
2,30,24289,6,0,B|43:50|43:50|135:28,1,140,0|2,1:2|1:2,2:0:0:0:
202,79,24831,1,2,2:0:0:0:
270,126,25012,2,0,P|217:169|152:145,1,140,0|10,1:2|2:0,2:0:0:0:
202,79,25554,1,2,2:0:0:0:
270,126,25735,6,0,B|317:110|317:110|356:124|356:124|402:109,1,140,0|0,1:2|1:2,2:0:0:0:
509,238,26458,2,0,P|516:205|504:172,1,70,2|2,1:2|2:0,2:0:0:0:
430,213,26819,2,0,P|423:246|435:279,1,70,10|2,2:0|2:0,2:0:0:0:
492,341,27181,6,0,B|451:321|451:321|408:350|363:355,1,140,0|10,1:2|2:0,2:0:0:0:
303,296,27723,1,2,2:0:0:0:
238,241,27903,2,0,P|292:202|356:225,1,140,0|10,1:2|2:0,2:0:0:0:
303,296,28446,1,2,2:0:0:0:
238,241,28626,5,6,1:2:0:0:
164,281,28807,2,0,P|129:280|95:258,2,70,2|2|2,2:0|2:0|2:0,2:0:0:0:
157,193,29349,1,2,2:0:0:0:
157,193,29530,1,2,1:2:0:0:
164,281,29711,2,0,B|172:358,1,70,14|0,2:0|2:0,2:0:0:0:
303,296,30072,6,0,B|323:257|323:257|313:158,1,140,6|8,1:2|2:0,2:0:0:0:
303,77,30614,1,0,2:0:0:0:
237,128,30795,2,0,P|174:138|118:88,1,140,2|8,2:0|2:0,2:0:0:0:
117,6,31337,1,0,2:0:0:0:
46,52,31518,6,0,B|16:76|16:76|12:186,1,140,2|8,1:2|2:0,2:0:0:0:
79,228,32060,1,0,2:0:0:0:
10,277,32241,1,2,2:0:0:0:
10,277,32421,1,2,1:2:0:0:
84,313,32602,2,0,P|120:307|145:284,1,70,10|2,2:0|2:0,2:0:0:0:
212,333,32963,6,0,B|253:356|253:356|345:334,1,140,0|10,1:2|2:0,2:0:0:0:
422,363,33506,2,0,P|476:333|462:259,1,140,2|0,2:0|1:2,2:0:0:0:
420,193,34048,1,10,2:0:0:0:
420,193,34229,1,2,2:0:0:0:
362,255,34410,6,0,B|276:272|276:272|227:245,1,140,0|8,1:2|2:0,2:0:0:0:
159,201,34951,1,0,2:0:0:0:
239,160,35132,1,2,2:0:0:0:
239,160,35313,1,2,1:2:0:0:
162,120,35494,2,0,P|125:124|100:144,1,70,10|2,2:0|2:0,2:0:0:0:
72,225,35855,6,0,B|69:321|69:321|90:361,1,140,0|10,1:2|2:0,2:0:0:0:
170,336,36397,2,0,B|209:327|236:346|226:357|258:376|301:363,1,140,2|0,2:0|1:2,2:0:0:0:
375,322,36939,1,10,2:0:0:0:
375,322,37120,1,2,2:0:0:0:
448,363,37301,6,0,P|494:329|474:246,1,140,0|8,1:2|2:0,2:0:0:0:
430,188,37843,1,0,2:0:0:0:
345,188,38024,2,0,P|312:180|280:193,1,70,2|2,2:0|1:2,2:0:0:0:
219,251,38385,2,0,P|184:256|154:240,1,70,10|2,2:0|2:0,2:0:0:0:
89,186,38747,6,0,B|65:146|65:146|72:52,1,140,0|10,1:2|2:0,2:0:0:0:
145,11,39289,2,0,P|187:59|270:57,1,140,2|0,0:0|1:0,0:0:0:0:
330,16,39831,1,10,2:0:0:0:
401,60,40012,1,2,2:0:0:0:
473,164,40193,6,0,P|444:185|409:186,1,70,14|0,2:0|2:0,2:0:0:0:
347,134,40554,1,0,1:2:0:0:
382,262,40735,6,0,P|349:243|332:212,1,70,10|2,2:0|2:0,2:0:0:0:
347,134,41096,1,0,1:2:0:0:
249,225,41277,6,0,P|249:188|269:158,1,70,14|2,2:0|2:0,2:0:0:0:
347,134,41638,6,0,B|426:103|426:103|471:112,1,125.999996154785,6|0,1:2|2:0,2:0:0:0:
446,198,42181,1,2,1:2:0:0:
446,198,42361,2,0,P|455:229|445:264,1,62.9999980773926,10|0,2:0|2:0,2:0:0:0:
390,325,42723,2,0,B|359:311|359:311|329:316,1,62.9999980773926,2|10,1:2|2:0,2:0:0:0:
243,332,43084,6,0,P|212:334|184:320,2,62.9999980773926,2|8|0,1:2|2:0|1:2,2:0:0:0:
276,254,43626,1,0,2:0:0:0:
276,254,43807,2,0,L|269:190,1,62.9999980773926,8|0,2:0|1:2,2:0:0:0:
316,116,44169,2,0,P|319:86|303:57,1,62.9999980773926,8|2,3:0|2:0,2:0:0:0:
223,21,44530,6,0,B|190:20|190:20|163:35,1,62.9999980773926,2|2,1:2|1:2,2:0:0:0:
76,50,44891,1,2,2:0:0:0:
76,50,45072,2,0,B|35:81|35:81|24:158,1,125.999996154785,2|2,1:2|2:0,2:0:0:0:
88,225,45614,1,2,1:2:0:0:
88,225,45795,1,10,2:0:0:0:
66,309,45976,6,0,P|99:311|128:300,1,62.9999980773926,0|8,1:2|2:0,2:0:0:0:
179,231,46337,2,0,P|207:215|243:219,1,62.9999980773926,0|2,1:2|2:0,2:0:0:0:
312,265,46699,2,0,L|319:331,1,62.9999980773926,10|0,2:0|2:0,2:0:0:0:
403,369,47060,1,14,2:0:0:0:
403,369,47241,1,2,2:0:0:0:
486,342,47422,6,0,P|458:290|393:281,1,125.999996154785,6|8,1:2|2:0,2:0:0:0:
320,328,47964,1,2,2:0:0:0:
320,328,48144,2,0,L|309:257,1,62.9999980773926,2|0,1:2|2:0,2:0:0:0:
373,199,48506,1,2,1:2:0:0:
373,199,48687,6,0,B|381:124|381:124|350:83,1,125.999996154785,10|2,2:0|2:0,2:0:0:0:
285,143,49229,1,10,2:0:0:0:
285,143,49410,2,0,P|223:148|180:104,1,125.999996154785,2|0,2:0|2:0,2:0:0:0:
167,18,49952,2,0,P|197:13|227:30,1,62.9999980773926,2|10,1:2|2:0,2:0:0:0:
180,105,50313,6,0,L|171:167,1,62.9999980773926,2|2,1:2|2:0,2:0:0:0:
105,224,50675,2,0,P|96:252|104:285,1,62.9999980773926,10|2,2:0|2:0,2:0:0:0:
55,356,51036,2,0,B|108:370|108:370|176:341,1,125.999996154785,0|10,1:2|0:0,2:0:0:0:
186,255,51578,1,2,2:0:0:0:
103,284,51759,6,0,P|95:253|105:224,1,62.9999980773926,2|2,1:2|2:0,2:0:0:0:
170,167,52121,2,0,L|181:102,1,62.9999980773926,10|2,2:0|2:0,2:0:0:0:
134,29,52482,2,0,P|191:10|241:44,1,125.999996154785,0|2,1:2|1:2,2:0:0:0:
180,105,53024,1,10,2:0:0:0:
270,129,53205,5,2,1:2:0:0:
270,129,53385,2,0,L|332:117,1,62.9999980773926,2|8,2:0|2:0,2:0:0:0:
389,50,53747,2,0,P|421:47|451:67,1,62.9999980773926,2|0,2:0|1:2,2:0:0:0:
490,141,54108,2,0,L|479:203,1,62.9999980773926,2|8,2:0|2:0,2:0:0:0:
501,288,54469,1,2,2:0:0:0:
501,288,54650,6,0,B|454:294|454:294|424:277|424:277|380:283,2,125.999996154785,0|8|0,1:2|2:0|1:2,2:0:0:0:
480,202,55554,1,2,2:0:0:0:
480,202,55735,2,0,L|490:139,1,62.9999980773926,10|2,2:0|2:0,2:0:0:0:
392,49,56096,6,0,P|358:41|324:52,2,70,14|2|2,2:0|2:0|3:2,2:0:0:0:
365,128,56638,6,0,L|373:200,1,70,14|0,2:0|2:0,2:0:0:0:
385,288,57000,1,2,3:2:0:0:
385,288,57181,1,2,2:0:0:0:
283,182,57361,6,0,L|291:254,1,70,14|0,2:0|2:0,2:0:0:0:
303,342,57723,1,2,3:2:0:0:
158,312,57903,6,0,P|192:300|224:309,1,70,14|0,2:0|2:0,2:0:0:0:
303,342,58265,6,0,B|352:336|352:336|392:360|392:360|440:353,1,140,2|2,2:0|1:2,2:0:0:0:
493,292,58807,1,2,2:0:0:0:
407,258,58988,6,0,B|415:218|451:206|451:206|468:168|446:128,1,154.000004699707,6|10,1:2|2:0,2:0:0:0:
376,65,59530,1,0,2:0:0:0:
358,155,59711,2,0,L|317:169,3,38.5000011749268,2|0|2|0,3:2|3:0|3:2|3:0,2:0:0:0:
290,133,60072,1,2,3:2:0:0:
201,106,60253,6,0,P|164:106|132:128,1,77.0000023498536,6|0,1:2|2:0,2:0:0:0:
48,86,60614,2,0,B|33:123|33:123|41:163,1,77.0000023498536,10|0,2:0|1:2,2:0:0:0:
115,220,60976,1,8,2:0:0:0:
115,220,61156,2,0,L|109:297,1,77.0000023498536,2|0,1:2|3:0,2:0:0:0:
24,314,61518,2,0,P|31:350|62:373,1,77.0000023498536,14|2,2:0|2:0,2:0:0:0:
149,379,61879,6,0,B|188:392|228:365|212:357|243:325|293:341,1,154.000004699707,6|10,1:2|2:0,2:0:0:0:
350,269,62422,1,0,2:0:0:0:
375,358,62602,2,0,L|419:347,3,38.5000011749268,2|0|2|0,3:2|3:0|3:2|3:0,2:0:0:0:
452,371,62963,1,2,3:2:0:0:
471,280,63144,6,0,P|476:244|456:210,1,77.0000023498536,4|0,1:2|2:0,2:0:0:0:
388,146,63506,1,2,3:2:0:0:
388,146,63687,2,0,L|378:67,1,77.0000023498536,14|0,1:2|2:0,2:0:0:0:
305,12,64048,1,2,1:2:0:0:
286,103,64229,2,0,L|279:145,3,38.5000011749268,10|8|2|0,2:0|2:0|1:2|1:2,2:0:0:0:
237,161,64590,1,10,2:0:0:0:
196,78,64771,6,0,P|127:51|68:96,1,154.000004699707,6|8,1:2|2:0,2:0:0:0:
31,181,65313,1,2,2:0:0:0:
122,171,65494,1,2,1:2:0:0:
68,96,65675,1,2,2:0:0:0:
31,181,65855,2,0,B|19:218|19:218|24:261,1,77.0000023498536,10|2,2:0|2:0,2:0:0:0:
57,342,66217,6,0,P|89:360|127:356,1,77.0000023498536,0|2,1:2|2:0,2:0:0:0:
220,360,66578,1,10,2:0:0:0:
220,360,66759,2,0,B|231:322|231:322|225:283,1,77.0000023498536,2|0,2:0|1:2,2:0:0:0:
210,194,67120,1,8,2:0:0:0:
140,255,67301,1,2,1:2:0:0:
225,285,67482,1,10,2:0:0:0:
210,194,67663,6,0,L|213:117,1,77.0000023498536,2|2,1:2|2:0,2:0:0:0:
285,58,68024,1,10,2:0:0:0:
330,138,68205,1,2,2:0:0:0:
397,75,68385,2,0,P|435:70|467:89,1,77.0000023498536,2|2,1:2|2:0,2:0:0:0:
507,174,68746,1,10,2:0:0:0:
507,174,68927,1,2,2:0:0:0:
397,75,69108,6,0,L|403:-4,2,77.0000023498536,14|2|2,2:0|2:0|1:2,2:0:0:0:
269,129,69650,6,0,L|258:52,1,77.0000023498536,14|2,2:0|2:0,2:0:0:0:
179,103,70012,1,2,1:2:0:0:
248,223,70193,6,0,P|285:227|322:209,1,77.0000023498536,14|2,2:0|2:0,2:0:0:0:
397,75,70554,6,0,B|345:71|345:71|310:40|310:40|255:35,1,154.000004699707,6|10,1:2|2:0,2:0:0:0:
269,129,71096,1,0,2:0:0:0:
179,103,71277,2,0,L|136:111,3,38.5000011749268,2|0|2|0,3:2|3:0|3:2|3:2,2:0:0:0:
110,75,71638,1,0,3:2:0:0:
41,137,71819,6,0,L|32:215,1,77.0000023498536,6|0,1:2|2:0,2:0:0:0:
85,289,72180,1,10,2:0:0:0:
155,229,72361,1,2,1:2:0:0:
210,304,72543,2,0,P|244:317|282:308,1,77.0000023498536,10|0,2:0|1:2,2:0:0:0:
349,245,72903,2,0,L|358:166,2,77.0000023498536,2|14|2,3:2|2:0|2:0,2:0:0:0:
282,309,73446,5,0,1:2:0:0:
246,224,73626,2,0,B|239:144,2,77.0000023498536,2|10|2,2:0|2:0|2:0,2:0:0:0:
282,309,74169,1,2,3:2:0:0:
377,344,74349,1,2,3:2:0:0:
377,344,74440,1,0,3:2:0:0:
377,344,74530,2,0,P|413:354|451:339,1,77.0000023498536,2|14,3:2|2:0,2:0:0:0:
493,259,74891,6,0,L|504:176,1,77.0000023498536,2|0,1:2|3:2,2:0:0:0:
445,109,75253,2,0,P|407:95|373:109,1,77.0000023498536,14|0,2:0|2:0,2:0:0:0:
318,182,75614,1,0,1:2:0:0:
412,183,75795,1,10,2:0:0:0:
412,191,75885,1,8,2:0:0:0:
413,198,75976,2,0,L|414:238,3,38.5000011749268,2|0|2|0,3:2|3:2|3:2|3:2,2:0:0:0:
389,274,76337,6,0,B|375:310|396:347|396:347|357:370|323:348,1,154.000004699707,6|8,1:2|2:0,2:0:0:0:
265,274,76879,1,2,2:0:0:0:
201,341,77060,2,0,P|165:358|131:348,1,77.0000023498536,2|2,1:2|2:0,2:0:0:0:
65,292,77422,1,10,2:0:0:0:
65,292,77602,6,0,L|58:212,1,77.0000023498536,2|0,2:0|1:2,2:0:0:0:
10,135,77964,1,2,2:0:0:0:
58,215,78144,1,10,2:0:0:0:
104,134,78325,2,0,P|140:117|174:127,1,77.0000023498536,2|0,2:0|1:2,2:0:0:0:
241,191,78687,1,8,2:0:0:0:
241,191,78867,1,0,1:2:0:0:
314,134,79048,1,10,2:0:0:0:
381,197,79229,6,0,L|389:274,1,77.0000023498536,6|2,1:2|2:0,2:0:0:0:
400,365,79590,1,10,2:0:0:0:
316,325,79771,2,0,P|279:315|245:331,1,77.0000023498536,2|0,2:0|1:2,2:0:0:0:
166,379,80132,1,2,2:0:0:0:
172,286,80313,1,10,2:0:0:0:
245,331,80494,1,2,2:0:0:0:
91,327,80675,6,0,L|80:250,2,77.0000023498536,14|2|2,2:0|1:2|1:2,2:0:0:0:
249,238,81217,6,0,L|252:159,1,77.0000023498536,10|0,2:0|1:2,2:0:0:0:
168,200,81578,1,2,1:2:0:0:
91,327,81759,5,14,2:0:0:0:
245,331,81940,6,0,B|295:327|295:327|331:361|331:361|386:358,1,154.000004699707,2|2,2:0|2:0,2:0:0:0:
447,289,82482,1,10,2:0:0:0:
358,259,82662,1,2,2:0:0:0:
447,289,82843,2,0,P|486:277|507:243,1,77.0000023498536,2|2,1:2|2:0,2:0:0:0:
427,198,83205,1,10,2:0:0:0:
358,259,83385,1,2,2:0:0:0:
427,198,83566,6,0,L|418:159,3,38.5000011749268,2|0|2|0,3:2|3:0|3:2|3:2,2:0:0:0:
377,137,83928,1,2,3:2:0:0:
295,93,84108,6,0,L|302:53,3,38.5000011749268,2|0|0|0,3:2|3:0|3:2|3:2,2:0:0:0:
344,34,84470,1,2,3:2:0:0:
297,188,84650,2,0,P|257:184|227:154,1,77.0000023498536,14|0,2:0|2:0,2:0:0:0:
202,71,85012,6,0,B|163:64|163:64|125:82,1,77.0000023498536,6|2,1:2|2:0,2:0:0:0:
45,118,85373,2,0,L|30:202,1,77.0000023498536,10|2,2:0|2:0,2:0:0:0:
100,256,85735,2,0,L|100:295,3,38.5000011749268,0|0|2|0,3:2|3:2|3:2|3:2,2:0:0:0:
68,327,86096,1,2,3:2:0:0:
31,193,86277,6,0,L|44:117,1,77.0000023498536,14|0,2:0|2:0,2:0:0:0:
135,92,86638,1,10,2:0:0:0:
135,92,86819,1,2,1:2:0:0:
176,226,87000,6,0,L|180:311,1,77.0000023498536,14|0,2:0|2:0,2:0:0:0:
253,358,87361,1,10,2:0:0:0:
333,264,87542,1,10,2:0:0:0:
440,352,87723,5,14,2:0:0:0:
256,192,87813,12,0,88988,2:0:0:0:
