osu file format v14

[General]
AudioFilename: RERISE.mp3
AudioLeadIn: 0
PreviewTime: 58265
Countdown: 0
SampleSet: Soft
StackLeniency: 0.7
Mode: 0
LetterboxInBreaks: 0
WidescreenStoryboard: 0

[Editor]
DistanceSpacing: 1.2
BeatDivisor: 4
GridSize: 32
TimelineZoom: 1.4

[Metadata]
Title:Re:RISE (TV Size)
TitleUnicode:リライズ (TV Size)
Artist:Spira Spica
ArtistUnicode:スピラ・スピカ
Creator:Sarawatlism
Version:Arise
Source:ガンダムビルドダイバーズRe:RISE
Tags:Gundam Build Divers spira・spica jrock j-rock rock -e.p.- re rise rerise op opening anime japanese jpop j-pop pop [_lost_] conner c_o_n_n_e_r kittyadventure gokugohan12468 -_Frontier_- shockolatte EmPao Daoski
BeatmapID:2203352
BeatmapSetID:1054530

[Difficulty]
HPDrainRate:7
CircleSize:4
OverallDifficulty:8
ApproachRate:9
SliderMultiplier:1.89
SliderTickRate:1

[Events]
//Background and Video events
0,0,"BG.jpg",0,0
Video,250,"VD.mp4"
//Break Periods
//Storyboard Layer 0 (Background)
//Storyboard Layer 1 (Fail)
//Storyboard Layer 2 (Pass)
//Storyboard Layer 3 (Foreground)
//Storyboard Layer 4 (Overlay)
//Storyboard Sound Samples

[TimingPoints]
1157,361.44578313253,4,2,1,30,1,0
1157,-142.857142857143,4,2,1,30,0,0
12090,-142.857142857143,4,2,1,5,0,0
12181,-100,4,2,11,50,0,0
12241,-100,4,2,12,50,0,0
12301,-100,4,2,13,50,0,0
12361,-100,4,2,14,50,0,0
12723,-100,4,2,1,60,0,0
13446,-100,4,2,11,60,0,0
13536,-100,4,2,12,60,0,0
13626,-100,4,2,13,60,0,0
13717,-100,4,2,14,60,0,0
13988,-100,4,2,1,60,0,0
14259,-100,4,2,1,5,0,0
14349,-100,4,2,1,60,0,0
15072,-100,4,2,12,60,0,0
15253,-100,4,2,1,60,0,0
16336,-100,4,2,11,60,0,0
16518,-100,4,2,12,60,0,0
16608,-100,4,2,13,60,0,0
16699,-100,4,2,14,60,0,0
16879,-100,4,2,1,60,0,0
17150,-100,4,2,1,5,0,0
17241,-100,4,2,1,60,0,0
17964,-100,4,2,13,60,0,0
18144,-100,4,2,1,60,0,0
18506,-125,4,2,1,40,0,0
28626,-125,4,2,1,60,0,0
29711,-90.9090909090909,4,2,1,60,0,0
29982,-90.9090909090909,4,2,1,5,0,0
30072,-111.111111111111,4,2,1,50,0,0
31427,-111.111111111111,4,2,1,5,0,0
31518,-111.111111111111,4,2,1,50,0,0
33777,-111.111111111111,4,2,1,5,0,0
33867,-111.111111111111,4,2,1,50,0,0
35765,-111.111111111111,4,2,1,5,0,0
35855,-111.111111111111,4,2,1,50,0,0
36668,-111.111111111111,4,2,1,5,0,0
36759,-111.111111111111,4,2,1,50,0,0
40102,-111.111111111111,4,2,1,5,0,0
40193,-111.111111111111,4,2,1,50,0,0
41638,-125,4,2,1,40,0,0
46970,-125,4,2,1,5,0,0
47060,-125,4,2,1,40,0,0
47422,-111.111111111111,4,2,1,50,0,0
48415,-111.111111111111,4,2,1,5,0,0
48506,-111.111111111111,4,2,1,50,0,0
52753,-111.111111111111,4,2,1,5,0,0
52843,-111.111111111111,4,2,1,50,0,0
56096,-90.9090909090909,4,2,1,60,0,0
56458,-90.9090909090909,4,2,13,60,0,0
56638,-90.9090909090909,4,2,1,60,0,0
57000,-90.9090909090909,4,2,11,60,0,0
57361,-90.9090909090909,4,2,1,60,0,0
57723,-90.9090909090909,4,2,14,60,0,0
57903,-90.9090909090909,4,2,1,60,0,0
58174,-90.9090909090909,4,2,1,5,0,0
58265,-142.857142857143,4,2,1,55,0,0
58626,-142.857142857143,4,1,0,55,0,0
58807,-142.857142857143,4,2,1,40,0,0
58988,-83.3333333333333,4,2,1,80,0,1
59711,-83.3333333333333,4,2,11,80,0,1
59801,-83.3333333333333,4,2,12,80,0,1
59891,-83.3333333333333,4,2,13,80,0,1
59982,-83.3333333333333,4,2,14,80,0,1
60253,-83.3333333333333,4,2,1,80,0,1
60524,-83.3333333333333,4,2,1,5,0,1
60614,-83.3333333333333,4,2,1,80,0,1
61336,-83.3333333333333,4,2,13,80,0,1
61518,-83.3333333333333,4,2,1,80,0,1
61789,-83.3333333333333,4,2,1,5,0,1
61879,-83.3333333333333,4,2,1,80,0,1
62602,-83.3333333333333,4,2,11,80,0,1
62692,-83.3333333333333,4,2,12,80,0,1
62782,-83.3333333333333,4,2,13,80,0,1
62873,-83.3333333333333,4,2,14,80,0,1
63144,-83.3333333333333,4,2,1,80,0,1
63415,-83.3333333333333,4,2,1,5,0,1
63506,-83.3333333333333,4,2,12,80,0,1
63687,-83.3333333333333,4,2,1,80,0,1
64771,-83.3333333333333,4,2,1,75,0,1
69108,-83.3333333333333,4,2,1,85,0,1
70464,-83.3333333333333,4,2,1,85,0,0
70554,-83.3333333333333,4,2,1,80,0,1
71277,-83.3333333333333,4,2,11,80,0,1
71458,-83.3333333333333,4,2,12,80,0,1
71548,-83.3333333333333,4,2,13,80,0,1
71638,-83.3333333333333,4,2,14,80,0,1
71819,-83.3333333333333,4,2,1,80,0,1
72090,-83.3333333333333,4,2,1,5,0,1
72181,-83.3333333333333,4,2,1,80,0,1
72903,-83.3333333333333,4,2,11,80,0,1
73084,-83.3333333333333,4,2,1,80,0,1
74169,-83.3333333333333,4,2,11,80,0,1
74349,-83.3333333333333,4,2,12,80,0,1
74440,-83.3333333333333,4,2,13,80,0,1
74530,-83.3333333333333,4,2,14,80,0,1
74711,-83.3333333333333,4,2,1,80,0,1
75071,-83.3333333333333,4,2,14,80,0,1
75253,-83.3333333333333,4,2,1,80,0,1
75524,-83.3333333333333,4,2,1,5,0,1
75614,-83.3333333333333,4,2,1,80,0,1
75976,-83.3333333333333,4,2,11,80,0,1
76066,-83.3333333333333,4,2,12,80,0,1
76156,-83.3333333333333,4,2,13,80,0,1
76246,-83.3333333333333,4,2,14,80,0,1
76337,-83.3333333333333,4,2,1,75,0,1
80675,-83.3333333333333,4,2,1,85,0,1
82120,-83.3333333333333,4,2,1,80,0,1
83566,-83.3333333333333,4,2,11,85,0,1
83747,-83.3333333333333,4,2,12,85,0,1
83837,-83.3333333333333,4,2,13,85,0,1
83928,-83.3333333333333,4,2,14,85,0,1
84108,-83.3333333333333,4,2,11,85,0,1
84289,-83.3333333333333,4,2,13,85,0,1
84470,-83.3333333333333,4,2,14,85,0,1
84650,-83.3333333333333,4,2,1,85,0,1
84921,-83.3333333333333,4,2,1,5,0,1
85012,-83.3333333333333,4,2,1,60,0,0
85735,-83.3333333333333,4,2,11,60,0,0
85825,-83.3333333333333,4,2,12,60,0,0
85916,-83.3333333333333,4,2,13,60,0,0
86006,-83.3333333333333,4,2,14,60,0,0
86277,-83.3333333333333,4,2,1,65,0,0
86548,-83.3333333333333,4,2,1,5,0,0
86638,-83.3333333333333,4,2,1,65,0,0
87000,-83.3333333333333,4,2,1,70,0,0
87271,-83.3333333333333,4,2,1,5,0,0
87361,-83.3333333333333,4,2,1,70,0,0
87723,-166.666666666667,4,2,14,75,0,0
88988,-166.666666666667,4,2,14,5,0,0

[Colours]
Combo1 : 61,61,218
Combo2 : 0,64,128
Combo3 : 155,205,255
Combo4 : 180,103,103

[HitObjects]
62,228,1157,6,0,P|116:232|190:191,1,132.299995962525,2|2,0:0|0:0,0:0:0:0:
192,118,1699,1,0,0:0:0:0:
130,67,1879,2,0,P|90:72|58:84,1,66.1499979812623,2|2,0:0|0:0,0:0:0:0:
181,3,2241,2,0,P|221:8|253:20,1,66.1499979812623,2|2,0:0|0:0,0:0:0:0:
301,72,2602,6,0,B|332:81|382:72|349:43|385:32|432:44,1,132.299995962525
481,94,3144,1,0,0:0:0:0:
446,165,3325,2,0,P|442:211|447:314,1,132.299995962525,2|2,0:0|0:0,0:0:0:0:
391,355,3867,1,2,0:0:0:0:
324,310,4048,6,0,P|275:283|214:341,1,132.299995962525,2|2,0:0|0:0,0:0:0:0:
86,232,4771,2,0,P|136:231|151:152,1,132.299995962525,2|2,0:0|0:0,0:0:0:0:
102,103,5313,1,2,0:0:0:0:
160,49,5494,6,0,P|197:55|297:47,1,132.299995962525
363,16,6036,1,2,0:0:0:0:
427,62,6217,2,0,P|471:37|490:35,1,66.1499979812623,2|2,0:0|0:0,0:0:0:0:
394,142,6578,2,0,P|350:117|331:115,1,66.1499979812623,2|2,0:0|0:0,0:0:0:0:
464,189,6940,6,0,P|478:227|470:322,1,132.299995962525,2|0,0:0|0:0,0:0:0:0:
317,355,7663,2,0,P|277:330|248:331,1,66.1499979812623,2|2,0:0|0:0,0:0:0:0:
180,341,8024,2,0,P|140:366|111:365,1,66.1499979812623,2|2,0:0|0:0,0:0:0:0:
56,322,8385,2,0,L|50:176,1,132.299995962525,0|2,0:0|0:0,0:0:0:0:
11,119,8928,1,2,0:0:0:0:
42,46,9108,6,0,P|76:10|152:38,1,132.299995962525
203,88,9650,1,2,0:0:0:0:
265,39,9831,1,2,0:0:0:0:
327,88,10012,2,0,P|367:90|468:75,1,132.299995962525,2|2,0:0|0:0,0:0:0:0:
480,154,10554,2,0,P|474:196|472:224,1,66.1499979812623,2|2,0:0|0:0,0:0:0:0:
425,284,10916,2,0,P|441:328|445:352,1,66.1499979812623,2|2,0:0|0:0,0:0:0:0:
365,341,11277,6,0,B|293:315|309:380|205:386|150:315|233:200|293:271,1,297.67499091568,2|0,0:0|2:0,0:0:0:0:
290,268,12181,6,0,L|295:235,3,31.5,8|0|0|0,3:2|3:2|3:2|3:2,0:0:0:0:
290,268,12723,6,0,P|232:267|196:242,1,94.5,6|2,1:2|0:0,0:0:0:0:
269,157,13084,2,0,P|326:157|363:183,1,94.5,10|2,0:0|0:0,0:0:0:0:
425,285,13446,2,0,P|388:276|375:259,1,47.25,8|0,3:2|3:0,0:0:0:0:
450,151,13626,1,2,3:2:0:0:
446,177,13717,1,0,3:0:0:0:
443,202,13807,1,0,3:0:0:0:
270,15,13988,6,0,L|268:162,1,141.75,6|0,1:2|2:0,0:0:0:0:
268,178,14349,1,8,0:0:0:0:
114,145,14530,2,0,P|148:97|194:93,1,94.5,0|8,1:2|0:0,0:0:0:0:
196,252,14891,1,0,1:2:0:0:
38,97,15072,1,2,3:2:0:0:
9,250,15253,2,0,L|126:238,1,94.5,10|2,0:0|0:0,0:0:0:0:
284,99,15614,6,0,B|231:78|194:110|212:133|161:170|108:141,2,189,6|8|0,1:2|0:0|3:2,0:0:0:0:
370,173,16518,1,2,3:2:0:0:
370,173,16608,1,0,3:2:0:0:
370,173,16699,1,2,3:2:0:0:
483,40,16879,6,0,P|399:36|377:94,1,141.75,6|0,1:2|2:0,0:0:0:0:
372,94,17241,1,8,0:0:0:0:
486,184,17422,1,0,1:2:0:0:
286,177,17602,1,8,0:0:0:0:
448,103,17783,1,0,1:2:0:0:
397,295,17964,1,2,3:2:0:0:
216,222,18144,2,0,P|201:177|215:131,1,94.5,14|0,0:0|0:0,0:0:0:0:
279,278,18506,6,0,P|190:261|113:260,1,151.2,6|0,1:2|1:2,0:0:0:0:
72,329,19048,1,0,0:0:0:0:
21,253,19229,2,0,P|9:190|22:95,1,151.2,2|0,1:2|1:2,0:0:0:0:
86,43,19771,1,0,0:0:0:0:
155,100,19952,6,0,B|191:120|232:90|210:75|248:46|290:63,1,151.2,2|0,1:2|1:2,0:0:0:0:
361,118,20494,1,0,0:0:0:0:
441,75,20675,1,2,1:2:0:0:
368,21,20855,1,10,0:0:0:0:
502,121,21036,2,0,P|518:78|508:44,1,75.6,2|2,1:2|0:0,0:0:0:0:
428,156,21397,6,0,P|422:231|434:316,1,151.2,0|2,1:2|1:2,0:0:0:0:
364,367,21940,1,2,0:0:0:0:
290,314,22120,2,0,B|253:293|212:323|235:339|196:367|154:350,1,151.2,0|2,1:2|1:2,0:0:0:0:
74,308,22663,1,2,0:0:0:0:
62,218,22843,6,0,P|81:158|168:173,1,151.2,0|0,1:2|1:2,0:0:0:0:
235,209,23385,1,0,0:0:0:0:
297,142,23566,1,2,1:2:0:0:
224,86,23747,1,10,0:0:0:0:
297,142,23928,2,0,P|348:143|374:124,1,75.6,2|2,1:2|0:0,0:0:0:0:
407,49,24289,6,0,B|389:93|389:93|403:213,1,151.2,0|2,1:2|1:2,0:0:0:0:
469,256,24831,1,2,0:0:0:0:
408,323,25012,2,0,B|345:319|345:319|323:330|323:330|248:327,1,151.2,0|10,1:2|0:0,0:0:0:0:
179,284,25554,1,2,0:0:0:0:
117,350,25735,6,0,P|89:296|119:215,1,151.2,0|0,1:2|1:2,0:0:0:0:
166,138,26277,1,0,0:0:0:0:
97,78,26458,2,0,P|52:86|27:110,1,75.6,2|2,1:2|0:0,0:0:0:0:
145,9,26819,2,0,P|174:31|211:36,1,75.6,10|2,0:0|0:0,0:0:0:0:
301,18,27181,6,0,B|337:-2|378:27|356:43|394:71|436:54,1,151.2,0|10,1:2|0:0,0:0:0:0:
483,131,27723,1,2,0:0:0:0:
455,216,27903,2,0,P|405:197|337:266,1,151.2,0|10,1:2|0:0,0:0:0:0:
294,335,28446,1,2,0:0:0:0:
256,217,28626,5,6,1:2:0:0:
183,255,28807,1,2,0:0:0:0:
168,262,28897,1,2,0:0:0:0:
156,269,28988,1,2,0:0:0:0:
256,217,29169,1,2,0:0:0:0:
178,168,29349,1,2,0:0:0:0:
256,217,29530,1,2,1:2:0:0:
38,228,29711,6,0,B|72:206|116:230|98:253|147:272|193:250,1,155.925004758454,14|0,0:0|2:0,0:0:0:0:
237,307,30072,6,0,P|276:216|245:135,1,170.09999480896,6|8,1:2|0:0,0:0:0:0:
192,56,30614,1,0,0:0:0:0:
257,151,30795,2,0,P|292:155|342:127,1,85.0499974044801,2|0,0:0|1:2,0:0:0:0:
310,34,31156,2,0,B|281:15|245:35|260:54|219:70|181:52,1,127.57499610672,8|0,0:0|2:0,0:0:0:0:
178,42,31518,6,0,P|112:11|52:84,1,170.09999480896,2|8,1:2|0:0,0:0:0:0:
30,173,32060,1,0,0:0:0:0:
122,215,32241,2,0,P|131:162|118:128,1,85.0499974044801,2|2,0:0|1:2,0:0:0:0:
52,267,32602,2,0,P|43:320|56:354,1,85.0499974044801,10|2,0:0|0:0,0:0:0:0:
146,305,32964,6,0,B|181:282|226:307|207:330|258:350|305:327,1,170.09999480896,0|10,1:2|0:0,0:0:0:0:
366,205,33506,2,0,P|307:193|272:251,1,127.57499610672,2|0,0:0|2:0,0:0:0:0:
269,258,33867,1,0,1:2:0:0:
442,249,34048,2,0,P|451:202|439:165,1,85.0499974044801,10|2,0:0|0:0,0:0:0:0:
371,89,34410,6,0,B|335:66|290:91|309:114|258:134|211:111,1,170.09999480896,0|8,1:2|0:0,0:0:0:0:
131,52,34952,1,0,0:0:0:0:
190,190,35132,2,0,P|215:144|212:106,1,85.0499974044801,2|2,0:0|1:2,0:0:0:0:
71,122,35494,2,0,L|81:258,1,127.57499610672,10|0,0:0|2:0,0:0:0:0:
71,263,35855,6,0,B|106:240|151:265|132:288|183:308|230:285,1,170.09999480896,0|10,1:2|0:0,0:0:0:0:
288,125,36397,2,0,P|220:128|192:181,1,127.57499610672,2|0,0:0|2:0,0:0:0:0:
190,190,36759,1,0,1:2:0:0:
302,218,36940,2,0,P|311:172|297:130,1,85.0499974044801,10|2,0:0|0:0,0:0:0:0:
243,301,37301,6,0,P|301:296|435:290,1,170.09999480896,0|8,1:2|0:0,0:0:0:0:
493,353,37843,1,0,0:0:0:0:
456,208,38024,2,0,P|427:236|423:294,1,85.0499974044801,2|2,0:0|1:2,0:0:0:0:
498,114,38385,2,0,P|508:69|495:29,1,85.0499974044801,10|2,0:0|0:0,0:0:0:0:
402,72,38747,6,0,B|367:49|322:74|341:97|290:117|243:94,1,170.09999480896,0|10,1:2|0:0,0:0:0:0:
171,23,39289,1,2,0:0:0:0:
99,96,39470,2,0,P|52:105|15:80,1,85.0499974044801,0|0,0:0|1:2,0:0:0:0:
177,136,39831,2,0,P|201:186|179:255,1,127.57499610672,10|0,0:0|2:0,0:0:0:0:
166,264,40193,6,0,L|265:258,1,85.0499974044801,14|0,0:0|0:0,0:0:0:0:
98,196,40554,1,0,1:2:0:0:
120,346,40735,2,0,L|219:340,1,85.0499974044801,10|2,0:0|0:0,0:0:0:0:
98,196,41096,1,0,1:2:0:0:
2,292,41277,2,0,P|48:297|90:261,1,85.0499974044801,14|2,0:0|0:0,0:0:0:0:
14,67,41638,6,0,P|20:157|24:221,1,151.2,6|0,1:2|0:0,0:0:0:0:
2,292,42181,1,2,1:2:0:0:
55,345,42361,2,0,P|97:330|133:337,1,75.6,10|0,0:0|0:0,0:0:0:0:
170,272,42723,2,0,P|211:287|234:316,1,75.6,2|10,1:2|0:0,0:0:0:0:
293,353,43084,5,2,1:2:0:0:
351,304,43265,1,8,0:0:0:0:
414,345,43446,2,0,P|464:338|481:246,1,151.2,0|8,1:2|0:0,0:0:0:0:
442,187,43988,1,0,1:2:0:0:
367,175,44169,2,0,P|314:184|292:201,1,75.6,8|2,3:0|0:0,0:0:0:0:
231,233,44530,6,0,P|185:230|152:214,1,75.6,2|2,1:2|1:2,0:0:0:0:
142,144,44891,1,2,0:0:0:0:
191,86,45072,1,2,1:2:0:0:
142,27,45253,2,0,P|88:21|28:97,1,151.2,8|2,0:0|1:2,0:0:0:0:
16,163,45795,1,10,0:0:0:0:
52,229,45976,6,0,P|94:226|129:219,1,75.6,0|8,1:2|0:0,0:0:0:0:
217,151,46337,2,0,P|179:144|141:143,1,75.6,0|2,1:2|0:0,0:0:0:0:
93,305,46699,2,0,P|164:293|229:289,1,113.4,10|0,0:2|2:0,0:0:0:0:
229,304,47060,2,0,P|271:310|317:317,1,75.6,14|2,0:0|0:0,0:0:0:0:
424,363,47422,6,0,P|385:320|425:222,1,170.09999480896,6|8,1:2|0:0,0:0:0:0:
471,136,47964,1,2,0:0:0:0:
378,75,48144,2,0,B|333:77|333:77|303:92|303:92|249:97,1,127.57499610672,2|0,1:2|2:0,0:0:0:0:
234,83,48506,1,2,1:2:0:0:
141,21,48687,1,10,0:0:0:0:
110,218,48867,6,0,P|151:166|98:88,1,170.09999480896,0|10,1:2|0:0,0:0:0:0:
20,166,49410,1,2,0:0:0:0:
103,237,49590,2,0,P|144:225|200:218,1,85.0499974044801,0|0,1:2|0:0,0:0:0:0:
50,310,49952,1,2,1:2:0:0:
203,219,50132,1,10,0:0:0:0:
238,338,50313,6,0,P|197:326|141:319,1,85.0499974044801,2|2,1:2|0:0,0:0:0:0:
298,248,50675,2,0,P|344:232|362:193,1,85.0499974044801,10|2,0:0|0:0,0:0:0:0:
244,5,51036,2,0,P|251:76|261:182,1,170.09999480896,0|10,1:2|0:0,0:0:0:0:
162,123,51578,1,2,0:0:0:0:
330,122,51759,6,0,P|363:86|363:41,1,85.0499974044801,2|2,1:2|0:0,0:0:0:0:
497,166,52120,2,0,P|454:136|414:144,1,85.0499974044801,10|2,0:0|0:0,0:0:0:0:
435,304,52482,2,0,P|476:273|428:233,1,127.57499610672,0|0,1:2|2:0,0:0:0:0:
415,230,52843,1,2,1:2:0:0:
365,360,53024,1,10,0:0:0:0:
258,195,53205,5,2,1:2:0:0:
198,287,53385,2,0,P|266:280|300:277,1,85.0499974044801,2|8,0:0|0:0,0:0:0:0:
80,219,53747,2,0,P|148:212|182:209,1,85.0499974044801,2|0,0:0|1:2,0:0:0:0:
38,303,54108,1,2,0:0:0:0:
7,170,54289,2,0,P|36:137|83:133,1,85.0499974044801,8|2,0:0|0:0,0:0:0:0:
184,115,54650,6,0,P|135:111|9:67,2,170.09999480896,0|8|0,1:2|0:0|1:2,0:0:0:0:
270,45,55554,1,2,0:0:0:0:
187,131,55735,2,0,P|177:180|195:216,1,85.0499974044801,10|2,0:0|0:0,0:0:0:0:
352,193,56096,6,0,P|314:158|254:166,1,103.950003172302,14|2,0:0|0:0,0:0:0:0:
383,275,56458,1,2,3:2:0:0:
446,109,56638,2,0,P|428:162|452:210,1,103.950003172302,14|0,0:0|0:0,0:0:0:0:
506,337,57000,5,2,3:2:0:0:
383,275,57181,1,2,0:0:0:0:
511,159,57361,2,0,P|525:104|508:57,1,103.950003172302,14|0,0:0|0:0,0:0:0:0:
352,193,57723,5,2,3:2:0:0:
268,330,57903,2,0,P|337:325|439:320,1,155.925004758454,14|0,0:0|2:0,0:0:0:0:
506,337,58265,6,0,P|464:339|402:266,1,132.299995962525,2|2,0:0|1:2,0:0:0:0:
352,193,58807,1,2,0:0:0:0:
94,211,58988,6,0,P|166:217|231:66,1,226.799993078613,6|10,1:2|0:0,0:0:0:0:
97,33,59530,1,0,0:0:0:0:
10,166,59711,1,2,3:2:0:0:
12,200,59801,1,0,3:0:0:0:
14,235,59891,1,2,3:2:0:0:
16,269,59982,1,0,3:0:0:0:
18,304,60072,1,2,3:2:0:0:
167,359,60253,6,0,B|221:378|259:347|234:324|271:299|322:314,1,170.09999480896,6|0,1:2|2:0,0:0:0:0:
385,353,60614,1,10,0:0:0:0:
305,178,60795,1,0,1:2:0:0:
488,289,60976,1,8,0:0:0:0:
239,231,61156,2,0,P|222:154|242:117,1,113.399996539307,2|0,1:2|3:0,0:0:0:0:
377,55,61518,6,0,B|405:85|405:85|403:219,1,170.09999480896,14|0,0:0|2:0,0:0:0:0:
338,259,61879,2,0,B|265:233|213:275|247:306|197:340|128:319,1,226.799993078613,6|10,1:2|0:0,0:0:0:0:
30,202,62422,1,0,0:0:0:0:
138,87,62602,1,2,3:2:0:0:
167,117,62692,1,0,3:0:0:0:
178,157,62782,1,2,3:2:0:0:
171,198,62873,1,0,3:0:0:0:
146,231,62963,1,2,3:2:0:0:
17,32,63144,6,0,B|79:27|79:27|125:42|125:42|208:33,1,170.09999480896,4|0,1:2|2:0,0:0:0:0:
257,8,63506,1,2,3:2:0:0:
339,143,63687,2,0,P|291:97|237:100,1,113.399996539307,14|0,1:2|0:0,0:0:0:0:
308,242,64048,1,2,1:2:0:0:
464,216,64229,1,10,0:0:0:0:
486,180,64319,1,8,0:0:0:0:
493,139,64410,2,0,P|482:100|469:81,1,56.6999982696534,2|0,1:2|1:2,0:0:0:0:
393,261,64590,2,0,P|404:300|417:319,1,56.6999982696534,10|8,0:0|0:0,0:0:0:0:
477,359,64771,6,0,P|426:284|316:328,1,226.799993078613,6|8,1:2|0:0,0:0:0:0:
162,367,65313,1,2,0:0:0:0:
111,216,65494,2,0,P|181:220|205:259,1,113.399996539307,2|2,1:2|0:0,0:0:0:0:
34,311,65855,1,10,0:0:0:0:
197,139,66036,1,2,0:0:0:0:
13,0,66217,6,0,P|20:60|31:236,1,226.799993078613,0|10,1:2|0:0,0:0:0:0:
210,62,66759,1,2,0:0:0:0:
187,58,66849,1,2,0:0:0:0:
167,54,66940,1,0,1:2:0:0:
352,159,67120,1,8,0:0:0:0:
267,0,67301,1,2,1:2:0:0:
237,223,67482,1,10,0:0:0:0:
354,41,67663,5,2,1:2:0:0:
136,147,67843,1,2,0:0:0:0:
337,266,68024,1,10,0:0:0:0:
167,54,68205,1,2,0:0:0:0:
111,249,68385,2,0,P|167:242|223:233,1,113.399996539307,2|2,1:2|0:0,0:0:0:0:
29,142,68747,1,10,0:0:0:0:
171,334,68928,1,2,0:0:0:0:
414,163,69108,6,0,P|371:127|315:129,1,113.399996539307,14|2,0:0|0:0,0:0:0:0:
279,153,69379,1,2,0:0:0:0:
268,170,69470,1,2,1:2:0:0:
419,342,69650,2,0,B|445:289|445:289|413:228,1,113.399996539307,14|2,0:0|0:0,0:0:0:0:
276,52,70011,1,2,1:2:0:0:
224,270,70193,2,0,P|285:284|344:260,1,113.399996539307,14|2,0:0|0:0,0:0:0:0:
210,87,70554,6,0,B|155:58|105:103|117:115|70:158|-11:125,1,226.799993078613,6|10,1:2|0:0,0:0:0:0:
82,20,71096,1,0,0:0:0:0:
214,179,71277,2,0,P|241:175|263:157,1,56.6999982696534,2|0,3:2|3:0,0:0:0:0:
110,203,71458,1,2,3:2:0:0:
122,235,71548,1,0,3:2:0:0:
148,257,71638,1,0,3:2:0:0:
213,9,71819,6,0,L|214:179,1,170.09999480896,6|0,1:2|2:0,0:0:0:0:
214,203,72181,1,10,0:0:0:0:
395,74,72361,2,0,P|345:38|289:54,1,113.399996539307,2|10,1:2|0:0,0:0:0:0:
394,171,72723,1,0,1:2:0:0:
474,40,72903,1,2,3:2:0:0:
295,139,73084,2,0,L|295:260,1,113.399996539307,14|2,0:0|0:0,0:0:0:0:
427,344,73446,5,0,1:2:0:0:
295,253,73626,1,2,0:0:0:0:
467,217,73807,1,10,0:0:0:0:
334,368,73988,1,2,0:0:0:0:
295,139,74169,1,2,3:2:0:0:
493,304,74349,1,2,3:2:0:0:
493,304,74440,1,0,3:2:0:0:
493,304,74530,1,2,3:2:0:0:
228,304,74711,1,14,0:0:0:0:
394,171,74891,6,0,P|433:131|503:142,1,113.399996539307,2|0,1:2|3:2,0:0:0:0:
365,289,75253,2,0,B|319:304|276:282|296:255|241:226|193:258,1,170.09999480896,14|0,0:0|2:0,0:0:0:0:
146,293,75614,1,0,1:2:0:0:
21,194,75795,1,10,0:0:0:0:
42,173,75885,1,8,0:0:0:0:
63,161,75976,2,0,P|90:155|131:162,1,56.6999982696534,2|0,3:2|3:2,0:0:0:0:
54,306,76156,2,0,P|27:296|5:278,1,56.6999982696534,2|0,3:2|3:2,0:0:0:0:
0,96,76337,6,0,B|55:64|119:97|86:150|164:172|216:145,1,226.799993078613,6|8,1:2|0:0,0:0:0:0:
291,19,76879,1,2,0:0:0:0:
416,117,77060,2,0,P|479:107|506:64,1,113.399996539307,2|2,1:2|0:0,0:0:0:0:
311,140,77422,2,0,P|294:199|318:249,1,113.399996539307,10|2,0:0|0:0,0:0:0:0:
453,320,77783,6,0,B|365:326|365:326|330:342|330:342|230:346,1,226.799993078613,0|10,1:2|0:0,0:0:0:0:
102,250,78325,1,2,0:0:0:0:
87,232,78416,1,2,0:0:0:0:
73,217,78506,1,0,1:2:0:0:
230,267,78687,1,8,0:0:0:0:
44,326,78867,1,0,1:2:0:0:
188,172,79048,1,10,0:0:0:0:
49,94,79229,6,0,P|30:141|57:206,1,113.399996539307,6|2,1:2|0:0,0:0:0:0:
161,85,79590,1,10,0:0:0:0:
28,4,79771,1,2,0:0:0:0:
188,172,79952,2,0,P|241:135|246:78,1,113.399996539307,0|2,1:2|0:0,0:0:0:0:
28,213,80313,2,0,P|39:278|44:342,1,113.399996539307,10|2,0:0|0:0,0:0:0:0:
110,147,80675,5,14,0:0:0:0:
230,267,80855,1,2,1:2:0:0:
208,263,80946,1,0,1:2:0:0:
188,260,81036,1,2,1:2:0:0:
313,186,81217,2,0,P|368:172|424:163,1,113.399996539307,10|0,0:0|1:2,0:0:0:0:
220,351,81577,1,2,1:2:0:0:
110,147,81759,2,0,P|156:112|219:132,1,113.399996539307,14|2,0:0|0:0,0:0:0:0:
331,271,82120,5,6,1:2:0:0:
207,122,82301,1,2,0:0:0:0:
331,271,82482,2,0,P|386:257|442:248,1,113.399996539307,10|2,0:0|0:0,0:0:0:0:
282,75,82843,1,2,1:2:0:0:
442,248,83024,1,2,0:0:0:0:
207,122,83205,1,10,0:0:0:0:
415,1,83385,1,2,0:0:0:0:
298,279,83566,6,0,P|266:274|241:251,1,56.6999982696534,2|0,3:2|3:0,0:0:0:0:
280,169,83747,2,0,P|312:174|337:197,1,56.6999982696534,2|0,3:2|3:2,0:0:0:0:
153,282,83928,1,2,3:2:0:0:
147,18,84108,6,0,P|158:57|162:84,1,56.6999982696534,2|0,3:2|3:0,0:0:0:0:
90,203,84289,2,0,P|98:176|104:148,1,56.6999982696534,0|0,3:2|3:2,0:0:0:0:
34,87,84470,1,2,3:2:0:0:
0,289,84650,6,0,P|87:288|191:289,1,170.09999480896,14|0,0:0|2:0,0:0:0:0:
188,297,85012,6,0,B|217:246|217:246|186:177,1,113.399996539307,6|2,1:2|0:0,0:0:0:0:
81,84,85373,2,0,B|52:135|52:135|83:204,1,113.399996539307,10|2,0:0|0:0,0:0:0:0:
268,63,85735,2,0,P|248:24|227:15,1,56.6999982696534,0|0,3:2|3:2,0:0:0:0:
273,180,85916,1,2,3:2:0:0:
301,179,86006,1,0,3:2:0:0:
324,156,86096,1,2,3:2:0:0:
72,14,86277,6,0,P|74:108|73:203,1,170.09999480896,14|0,0:0|2:0,0:0:0:0:
76,213,86638,1,10,0:0:0:0:
268,63,86819,1,2,1:2:0:0:
355,274,87000,6,0,B|311:303|262:278|269:273|227:244|183:278,1,170.09999480896,14|0,0:0|2:0,0:0:0:0:
122,317,87361,1,10,0:0:0:0:
268,63,87542,1,10,0:0:0:0:
482,312,87723,6,0,P|381:341|487:240,1,396.899987887574,14|0,0:0|0:0,0:0:0:0:
