osu file format v14

[General]
AudioFilename: audio.mp3
AudioLeadIn: 0
PreviewTime: 45643
Countdown: 0
SampleSet: Soft
StackLeniency: 0.7
Mode: 0
LetterboxInBreaks: 0
WidescreenStoryboard: 0

[Editor]
Bookmarks: 394,5727,11060,21727,32393,45727,77727,83060,93727,104393,117727,149727,160393,171060,183060,215060,222060,225393
DistanceSpacing: 1.5
BeatDivisor: 4
GridSize: 32
TimelineZoom: 1.4

[Metadata]
Title:Pyramid Daigyakuten
TitleUnicode:ピラミッド大逆転
Artist:Spira Spica
ArtistUnicode:スピラ・スピカ
Creator:Amateurre
Version:Insane
Source:俺だけ入れる隠しダンジョン
Tags:Ore dake Haireru Kakushi Dungeon The Hidden Only I Can Enter anime japanese j-pop jpop pop asagi some hero heroine
BeatmapID:3359237
BeatmapSetID:1645708

[Difficulty]
HPDrainRate:4
CircleSize:3.7
OverallDifficulty:8
ApproachRate:8.8
SliderMultiplier:1.8
SliderTickRate:1

[Events]
//Background and Video events
0,0,"amateurre_anime_gun_bg.jpg",0,0
//Break Periods
2,172593,179764
//Storyboard Layer 0 (Background)
//Storyboard Layer 1 (Fail)
//Storyboard Layer 2 (Pass)
//Storyboard Layer 3 (Foreground)
//Storyboard Layer 4 (Overlay)
//Storyboard Sound Samples

[TimingPoints]
394,333.333333333333,4,2,1,60,1,0
394,-166.666666666667,4,2,1,60,0,0
5727,-111.111111111111,4,2,1,75,0,0
11060,-125,4,2,1,65,0,0
32393,-125,4,2,1,70,0,0
43060,-99.9999999999999,4,2,1,70,0,0
45727,-99.9999999999999,4,2,1,80,0,0
64393,-125,4,2,1,80,0,0
67060,-125,4,2,1,70,0,0
77560,-111.111111111111,4,2,1,70,0,0
77727,-111.111111111111,4,2,1,80,0,0
83060,-125,4,2,1,65,0,0
104393,-125,4,2,1,70,0,0
117727,-100,4,2,1,80,0,0
136393,-125,4,2,1,80,0,0
139060,-125,4,2,1,70,0,0
149727,-166.666666666667,4,2,1,60,0,0
160393,-111.111111111111,4,2,1,75,0,0
169727,-166.666666666666,4,2,1,75,0,0
171060,-166.666666666666,4,2,1,50,0,0
180393,-100,4,2,1,70,0,0
182393,-250,4,2,1,70,0,0
183060,-100,4,2,1,80,0,0
204393,-125,4,2,1,70,0,0
214893,-111.111111111111,4,2,1,70,0,0
215060,-111.111111111111,4,2,1,75,0,0
222143,-100,4,2,1,25,0,0
225393,-111.111111111111,4,2,1,5,0,0

[Colours]
Combo1 : 150,214,252
Combo2 : 251,151,243
Combo3 : 157,167,255
Combo4 : 250,213,124

[HitObjects]
130,339,394,6,0,P|77:344|22:352,2,107.999996704102,2|0|0,3:2|1:2|3:2,0:2:0:0:
216,369,1227,2,0,P|219:342|222:316,2,53.9999983520508,0|0|0,1:2|1:2|1:2,0:2:0:0:
321,203,1727,6,0,L|260:188,1,53.9999983520508,2|0,3:2|3:2,0:2:0:0:
192,233,2060,2,0,P|186:179|178:125,1,107.999996704102,0|0,1:2|3:2,0:2:0:0:
178,125,2727,1,0,1:2:0:0:
178,125,2893,1,0,1:2:0:0:
14,34,3060,6,0,P|64:20|85:120,1,161.999995056153,2|0,3:2|0:2,0:2:0:0:
28,171,3727,2,0,P|105:147|185:132,1,161.999995056153,2|0,3:2|0:2,0:2:0:0:
280,62,4393,6,0,P|272:138|263:223,1,161.999995056153,2|0,3:2|0:2,0:2:0:0:
263,223,5060,1,2,0:2:0:0:
362,176,5227,5,0,3:2:0:0:
245,330,5393,2,0,P|216:324|182:319,1,53.9999983520508,0|2,1:2|0:2,0:2:0:0:
364,278,5727,6,0,P|456:272|511:336,1,161.999995056153,6|0,3:2|1:2,0:2:0:0:
361,373,6227,1,2,0:2:0:0:
267,234,6393,2,0,P|260:279|258:314,1,80.9999975280763,2|0,3:2|3:2,0:2:0:0:
116,381,6727,2,0,P|117:340|124:300,1,80.9999975280763,0|2,1:2|0:2,0:2:0:0:
10,134,7060,6,0,P|-9:187|7:215,1,80.9999975280763,2|0,3:2|0:2,0:2:0:0:
194,206,7393,2,0,P|133:184|71:180,1,121.499996292114,2|0,1:2|0:2,0:2:0:0:
76,179,7727,1,2,3:2:0:0:
129,270,7893,1,2,3:2:0:0:
274,153,8060,2,0,P|279:183|285:233,1,80.9999975280763,2|0,1:2|0:2,0:2:0:0:
485,333,8393,5,2,1:2:0:0:
370,384,8560,2,0,P|382:304|396:224,1,161.999995056153,0|0,3:2|3:2,0:2:0:0:
495,103,9060,2,0,P|457:117|419:131,1,80.9999975280763,2|0,0:2|3:2,0:2:0:0:
200,104,9393,1,2,1:2:0:0:
296,222,9560,1,0,3:2:0:0:
362,12,9727,5,2,1:2:0:0:
362,12,11060,6,0,P|351:76|343:154,1,144,6|0,3:2|1:2,0:2:0:0:
438,258,11560,1,0,3:2:0:0:
498,211,11727,2,0,P|504:175|512:140,1,72,2|0,0:2|3:2,0:2:0:0:
357,243,12060,2,0,P|321:249|286:257,1,72,2|0,1:2|0:2,0:2:0:0:
117,201,12393,5,2,3:2:0:0:
103,329,12560,1,0,0:2:0:0:
195,258,12727,1,0,1:2:0:0:
64,123,12893,2,0,P|33:163|49:261,1,144,2|2,3:2|3:2,0:2:0:0:
189,342,13393,2,0,P|200:280|210:254,1,72,0|0,1:2|0:2,0:2:0:0:
352,176,13727,6,0,P|411:213|481:203,1,144,2|0,3:2|1:2,0:2:0:0:
446,59,14227,2,0,P|433:97|429:132,1,72,2|0,3:2|0:2,0:2:0:0:
315,263,14560,1,2,3:2:0:0:
248,226,14727,2,0,P|243:190|231:156,1,72,0|0,1:2|0:2,0:2:0:0:
289,23,15060,6,0,P|335:71|326:156,1,144,2|0,3:2|1:2,0:2:0:0:
159,226,15560,1,0,3:2:0:0:
159,226,15727,2,0,P|149:259|143:296,1,72,0|0,0:2|3:2,0:2:0:0:
53,153,16060,1,0,1:2:0:0:
160,113,16227,1,2,0:2:0:0:
245,275,16393,6,0,P|322:280|375:236,1,144,2|2,3:2|1:2,0:2:0:0:
506,174,16893,1,2,3:2:0:0:
400,127,17060,1,0,0:2:0:0:
482,263,17227,2,0,P|489:219|495:192,1,72,2|0,3:2|1:2,0:2:0:0:
477,42,17560,5,0,0:2:0:0:
404,146,17727,1,2,3:2:0:0:
277,20,17893,2,0,P|317:38|365:46,1,72,0|0,0:2|1:2,0:2:0:0:
488,175,18227,2,0,P|437:175|347:254,1,144,0|0,3:2|3:2,0:2:0:0:
247,301,18727,2,0,P|234:267|229:231,1,72,0|0,1:2|0:2,0:2:0:0:
96,127,19060,6,0,P|60:189|73:246,1,108,2|0,3:2|0:2,0:2:0:0:
83,246,19393,2,0,P|116:233|152:228,1,72,2|0,1:2|3:2,0:2:0:0:
276,125,19727,1,2,0:2:0:0:
177,76,19893,1,2,3:2:0:0:
177,76,19977,1,0,3:2:0:0:
177,76,20060,2,0,P|185:109|188:147,1,72,0|0,1:2|3:2,0:2:0:0:
286,282,20393,5,2,1:2:0:0:
450,241,20560,2,0,P|387:228|372:221,1,72,0|0,3:2|0:2,0:2:0:0:
162,374,20893,2,0,P|196:362|231:358,1,72,0|0,3:2|0:2,0:2:0:0:
185,238,21227,1,0,3:2:0:0:
352,349,21393,2,0,P|380:299|371:247,1,108,0|0,1:2|0:2,0:2:0:0:
321,197,21727,6,0,P|327:101|349:26,1,144,6|0,3:2|1:2,0:2:0:0:
152,126,22227,1,0,3:2:0:0:
205,8,22393,2,0,P|223:42|230:82,1,72,2|0,0:2|3:2,0:2:0:0:
82,178,22727,2,0,P|44:170|6:167,1,72,2|0,1:2|0:2,0:2:0:0:
185,301,23060,6,0,P|220:259|222:164,1,144,2|0,3:2|1:2,0:2:0:0:
62,26,23560,2,0,P|98:38|143:47,1,72,2|0,3:2|0:2,0:2:0:0:
294,116,23893,1,2,3:2:0:0:
421,19,24060,2,0,P|406:59|399:92,1,72,0|2,1:2|0:2,0:2:0:0:
411,108,24310,1,0,0:2:0:0:
411,108,24394,6,0,P|460:101|495:98,1,72,2|0,3:2|0:2,0:2:0:0:
289,194,24727,2,0,P|240:187|205:184,1,72,2|0,1:2|3:2,0:2:0:0:
495,296,25060,1,2,0:2:0:0:
418,201,25227,1,0,3:2:0:0:
317,283,25393,1,2,1:2:0:0:
219,174,25560,1,2,0:0:0:0:
103,237,25727,6,0,P|152:187|247:212,1,144,0|0,3:2|1:2,0:2:0:0:
345,109,26227,1,0,3:2:0:0:
345,109,26310,1,0,0:2:0:0:
345,109,26393,2,0,P|334:167|333:200,1,72,0|0,0:2|3:2,0:2:0:0:
438,284,26727,2,0,P|441:248|449:213,1,72,0|2,1:2|0:2,0:2:0:0:
466,83,27060,5,2,3:2:0:0:
363,163,27227,1,0,0:2:0:0:
261,107,27393,2,0,P|214:103|171:95,1,72,2|0,1:2|3:2,0:2:0:0:
280,228,27727,1,2,0:2:0:0:
364,80,27893,2,0,P|371:119|376:160,1,72,2|0,3:2|1:2,0:2:0:0:
466,384,28227,6,0,P|473:348|480:313,1,72,2|0,0:2|3:2,0:2:0:0:
511,201,28560,2,0,P|475:208|440:215,1,72,2|0,0:2|1:2,0:2:0:0:
305,310,28893,1,2,3:2:0:0:
231,340,29060,2,0,P|195:332|160:325,1,72,0|0,0:2|3:2,0:2:0:0:
20,233,29393,2,0,P|68:209|124:209,1,108,0|0,1:2|0:2,0:2:0:0:
153,222,29727,6,0,P|192:158|171:93,1,144,2|0,3:2|1:2,0:2:0:0:
11,52,30227,1,2,3:2:0:0:
117,0,30393,2,0,P|99:43|91:97,1,72,0|0,0:2|3:2,0:2:0:0:
166,231,30727,1,2,1:2:0:0:
249,161,30893,1,0,0:2:0:0:
325,330,31060,5,2,1:2:0:0:
156,237,31227,2,0,P|107:248|64:264,1,72,0|0,3:2|0:2,0:2:0:0:
226,313,31560,5,0,1:2:0:0:
159,147,31727,1,0,3:2:0:0:
77,259,31893,1,0,3:2:0:0:
260,168,32060,6,0,P|263:132|270:96,1,72,0|2,1:2|0:2,0:2:0:0:
275,73,32310,1,0,0:2:0:0:
275,73,32393,6,0,P|355:68|434:60,2,144,6|0|2,3:2|3:2|3:2,0:2:0:0:
145,138,33227,1,0,0:2:0:0:
74,44,33393,1,2,3:2:0:0:
147,154,33560,6,0,P|133:197|127:232,1,72,2|0,1:2|3:2,0:2:0:0:
55,306,33893,2,0,P|47:270|36:236,1,72,2|0,0:2|3:2,0:2:0:0:
216,197,34227,2,0,P|227:231|234:266,1,72,2|0,0:2|3:2,0:2:0:0:
298,360,34560,2,0,P|305:324|316:290,1,72,2|0,0:2|3:2,0:2:0:0:
425,183,34893,5,0,1:2:0:0:
498,224,35060,2,0,P|459:218|419:197,1,72,2|0,3:2|0:2,0:2:0:0:
324,279,35393,2,0,P|309:242|307:197,1,72,2|0,3:2|0:2,0:2:0:0:
361,38,35727,1,0,3:2:0:0:
283,98,35893,2,0,P|218:120|156:113,1,108,2|0,0:2|0:2,0:2:0:0:
179,118,36227,1,0,1:2:0:0:
21,151,36393,6,0,P|12:82|62:34,2,144,2|0|2,3:2|3:2|3:2,0:2:0:0:
171,35,37227,1,0,1:2:0:0:
110,194,37393,2,0,P|97:226|87:262,1,72,0|0,1:2|0:2,0:2:0:0:
303,234,37727,6,0,P|343:225|452:214,1,144,6|0,3:2|3:2,0:2:0:0:
445,214,38393,2,0,P|431:247|422:282,1,72,2|0,3:2|0:2,0:2:0:0:
324,139,38726,1,2,3:2:0:0:
226,214,38893,6,0,P|278:219|312:227,1,72,2|0,1:2|3:2,0:2:0:0:
407,128,39227,2,0,P|400:92|397:56,1,72,2|0,0:2|3:2,0:2:0:0:
246,12,39560,2,0,P|252:47|255:83,1,72,2|0,0:2|3:2,0:2:0:0:
416,143,39893,2,0,P|451:136|487:133,1,72,2|0,0:2|3:2,0:2:0:0:
389,50,40227,5,2,1:2:0:0:
315,162,40393,2,0,P|246:183|179:147,1,144,6|0,3:2|0:2,0:2:0:0:
43,188,40893,1,0,3:2:0:0:
87,44,41060,2,0,P|96:79|101:114,2,72,0|0|0,1:2|0:2|0:2,0:2:0:0:
184,153,41560,1,2,1:2:0:0:
135,230,41727,6,0,P|94:245|63:261,1,72,2|0,3:2|1:2,0:2:0:0:
200,151,42060,2,0,P|232:166|266:178,1,72,2|0,3:2|0:2,0:2:0:0:
351,260,42393,1,2,1:2:0:0:
428,106,42560,2,0,P|472:178|455:238,1,144,2|0,3:2|0:2,0:2:0:0:
363,365,43060,6,0,P|358:320|349:276,1,90,6|0,1:2|3:2,0:2:0:0:
260,122,43393,1,2,0:2:0:0:
378,175,43560,1,2,3:2:0:0:
219,298,43727,6,0,P|223:253|232:209,1,90,2|0,0:2|3:2,0:2:0:0:
276,36,44060,1,2,1:2:0:0:
153,133,44227,1,2,3:2:0:0:
343,106,44393,5,2,1:2:0:0:
147,20,44560,1,2,3:2:0:0:
118,220,44727,1,2,1:2:0:0:
131,226,45060,6,0,P|153:231|175:238,3,45,2|2|2|2,0:2|0:2|0:2|0:2,0:2:0:0:
44,174,45394,2,0,P|22:179|0:186,3,45,2|2|2|2,0:2|0:2|0:2|0:2,0:2:0:0:
108,122,45727,6,0,P|89:202|74:298,1,180,6|2,3:2|1:2,0:2:0:0:
273,317,46227,2,0,P|317:307|361:301,1,90,2|0,0:2|3:2,0:2:0:0:
197,372,46560,2,0,P|177:332|182:287,1,90,2|0,0:2|1:2,0:2:0:0:
290,134,46893,6,0,P|220:187|133:178,1,180,2|2,0:2|0:2,0:2:0:0:
12,102,47393,2,0,P|55:91|97:74,1,90,2|0,1:2|0:2,0:2:0:0:
228,3,47727,2,0,P|210:44|200:88,1,90,2|0,3:2|0:2,0:2:0:0:
239,230,48060,2,0,P|305:215|383:208,1,135,2|0,1:2|0:2,0:2:0:0:
371,208,48393,5,2,3:2:0:0:
466,132,48560,1,2,0:2:0:0:
489,320,48727,2,0,P|498:269|515:221,1,90,2|0,1:2|0:2,0:2:0:0:
389,70,49060,1,2,3:2:0:0:
507,22,49227,1,2,0:2:0:0:
466,147,49393,1,2,1:2:0:0:
311,109,49560,5,2,0:2:0:0:
311,109,49643,1,2,0:2:0:0:
311,109,49727,2,0,P|211:92|131:81,1,180,2|0,3:2|1:2,0:2:0:0:
15,181,50227,1,2,0:2:0:0:
135,162,50393,1,2,3:2:0:0:
40,70,50560,5,0,1:2:0:0:
125,265,50727,2,0,P|138:207|151:164,1,90,0|0,1:2|0:2,0:2:0:0:
291,8,51060,6,0,P|349:87|319:178,1,180,6|2,3:2|1:2,0:2:0:0:
410,312,51560,2,0,P|424:253|430:214,1,90,2|0,0:2|3:2,0:2:0:0:
235,231,51893,2,0,P|279:239|323:248,1,90,2|0,0:2|1:2,0:2:0:0:
502,126,52227,6,0,B|406:96|425:176|325:143,1,180,2|2,0:2|0:2,0:2:0:0:
170,54,52727,1,2,1:2:0:0:
114,167,52893,1,2,0:2:0:0:
259,101,53060,2,0,P|274:45|287:10,1,90,2|0,3:2|0:2,0:2:0:0:
124,177,53393,2,0,P|81:162|37:151,1,90,0|2,1:2|0:2,0:2:0:0:
22,154,53643,1,2,0:2:0:0:
22,154,53727,5,2,3:2:0:0:
132,266,53893,2,0,P|174:251|218:240,1,90,2|0,0:2|1:2,0:2:0:0:
338,145,54227,2,0,P|412:209|375:311,1,180,2|2,0:2|0:2,0:2:0:0:
319,232,54727,1,2,1:2:0:0:
512,115,54893,5,2,0:2:0:0:
512,115,54977,1,2,0:2:0:0:
512,115,55060,2,0,P|500:142|497:157,1,45,2|0,1:2|0:2,0:2:0:0:
323,239,55393,6,0,P|334:266|337:281,1,45,0|0,1:2|0:2,0:2:0:0:
430,366,55727,6,0,P|434:344|444:324,1,45,0|0,1:2|0:2,0:2:0:0:
414,223,55893,1,8,0:3:0:0:
343,296,56060,1,4,0:3:0:0:
503,258,56227,1,0,3:2:0:0:
323,307,56393,6,0,P|251:291|111:279,1,180,6|2,3:2|1:2,0:2:0:0:
0,196,56893,2,0,P|44:177|101:189,1,90,2|0,0:2|3:2,0:2:0:0:
73,354,57227,2,0,P|64:301|44:254,1,90,2|0,0:2|1:2,0:2:0:0:
144,111,57560,6,0,P|214:162|299:142,1,180,2|2,0:2|0:2,0:2:0:0:
462,174,58060,2,0,P|403:191|361:212,1,90,2|2,1:2|0:2,0:2:0:0:
356,12,58393,2,0,P|374:54|384:101,1,90,2|0,3:2|0:2,0:2:0:0:
369,217,58727,1,2,1:2:0:0:
489,286,58893,1,2,0:2:0:0:
474,170,59060,5,2,3:2:0:0:
387,312,59227,1,2,0:2:0:0:
278,198,59393,2,0,P|287:142|290:104,1,90,2|0,1:2|0:2,0:2:0:0:
156,241,59727,2,0,P|147:297|144:335,1,90,2|0,3:2|0:2,0:2:0:0:
48,219,60060,1,2,1:2:0:0:
179,107,60227,6,0,P|105:60|18:87,1,180,2|0,0:2|0:2,0:2:0:0:
95,149,60727,1,0,1:2:0:0:
272,75,60893,2,0,P|264:127|255:187,1,90,2|0,0:2|3:2,0:2:0:0:
276,328,61227,1,0,1:2:0:0:
135,256,61393,2,0,P|82:260|42:270,1,90,0|0,1:2|0:2,0:2:0:0:
290,342,61727,6,0,P|377:357|454:314,1,180,6|2,3:2|1:2,0:2:0:0:
481,184,62227,2,0,P|436:198|389:223,1,90,2|0,0:2|3:2,0:2:0:0:
229,125,62560,1,2,0:2:0:0:
334,70,62727,6,0,P|319:142|303:249,1,180,2|2,1:2|3:2,0:2:0:0:
212,338,63227,2,0,P|205:295|189:250,1,90,2|0,0:2|1:2,0:2:0:0:
66,122,63560,1,2,0:2:0:0:
230,98,63727,6,0,P|163:83|131:67,1,90,2|0,3:2|0:2,0:2:0:0:
1,234,64060,2,0,P|42:217|87:210,1,90,2|0,1:2|0:2,0:2:0:0:
247,89,64393,6,0,P|289:127|269:220,1,144,6|0,3:2|0:2,0:2:0:0:
227,295,64893,1,0,3:2:0:0:
143,259,65060,1,0,1:2:0:0:
239,305,65227,2,0,P|277:295|387:285,1,144,0|2,0:2|3:2,0:2:0:0:
481,359,65727,6,0,P|483:316|488:287,1,72,2|2,1:2|3:2,0:2:0:0:
384,199,66060,2,0,P|382:234|376:270,1,72,0|2,0:2|3:2,0:2:0:0:
275,342,66393,5,0,1:2:0:0:
224,253,66560,1,0,3:2:0:0:
385,287,66727,1,0,1:2:0:0:
269,354,66893,1,0,0:2:0:0:
170,177,67060,6,0,P|134:284|144:309,1,144,6|2,3:2|0:2,0:2:0:0:
62,380,67560,2,0,P|54:340|32:286,1,72,2|0,3:2|1:2,0:2:0:0:
224,253,67893,2,0,P|253:255|311:263,1,72,2|0,0:2|3:2,0:2:0:0:
488,220,68227,6,0,P|417:227|349:174,1,144,2|2,3:2|1:2,0:2:0:0:
210,101,68727,1,2,3:2:0:0:
305,24,68893,1,2,0:2:0:0:
292,101,69060,2,0,P|285:135|279:187,1,72,2|0,1:2|0:2,0:2:0:0:
153,317,69393,6,0,P|127:269|134:213,1,108,2|0,0:1|0:2,0:2:0:0:
124,203,69727,6,0,P|75:208|48:219,1,72,2|0,3:2|0:2,0:2:0:0:
219,256,70060,2,0,P|290:266|359:286,1,144,2|2,0:2|1:2,0:2:0:0:
477,199,70560,2,0,P|467:153|456:118,1,72,2|2,0:2|0:2,0:2:0:0:
334,22,70893,6,0,P|298:89|325:153,1,144,2|2,3:2|1:2,0:2:0:0:
299,248,71393,2,0,P|349:248|384:228,1,72,2|0,3:2|0:2,0:2:0:0:
453,185,71727,1,2,1:2:0:0:
453,185,71893,1,0,3:2:0:0:
478,300,72060,6,0,P|471:333|467:371,1,72,2|0,1:1|0:2,0:2:0:0:
232,319,72393,6,0,P|196:251|223:187,1,144,6|2,3:2|0:2,0:2:0:0:
239,56,72893,1,2,3:2:0:0:
164,115,73060,2,0,P|129:123|93:131,1,72,0|2,1:2|0:2,0:2:0:0:
4,76,73393,5,2,3:2:0:0:
44,0,73560,2,0,P|93:58|79:127,1,144,0|2,3:2|1:2,0:2:0:0:
0,218,74060,2,0,P|8:270|11:299,1,72,2|0,3:2|0:2,0:2:0:0:
97,276,74393,2,0,P|89:224|86:195,1,72,2|0,1:2|0:2,0:2:0:0:
37,133,74727,1,2,3:2:0:0:
37,133,74893,1,2,0:2:0:0:
190,47,75060,6,0,P|241:32|293:50,1,108,6|0,3:2|0:2,0:2:0:0:
302,70,75393,2,0,P|281:131|281:167,1,72,2|2,0:2|3:2,0:2:0:0:
245,261,75727,2,0,P|281:247|340:243,1,72,2|2,0:2|3:2,0:2:0:0:
448,180,76060,2,0,P|412:174|379:161,1,72,2|2,1:2|3:2,0:2:0:0:
315,75,76393,1,4,3:2:0:0:
235,272,76560,5,0,1:2:0:0:
136,123,76727,1,0,1:2:0:0:
108,241,76893,1,0,1:2:0:0:
265,152,77060,1,0,1:2:0:0:
265,152,77560,5,2,0:2:0:0:
354,321,77727,2,0,P|364:248|381:146,1,161.999995056153,6|0,3:2|1:2,0:2:0:0:
328,25,78227,1,2,0:2:0:0:
496,68,78393,2,0,P|435:74|400:83,1,80.9999975280763,2|0,3:2|3:2,0:2:0:0:
255,159,78727,2,0,P|247:119|244:78,1,80.9999975280763,0|2,1:2|0:2,0:2:0:0:
396,158,79060,6,0,P|388:197|385:238,1,80.9999975280763,2|0,3:2|0:2,0:2:0:0:
486,364,79393,2,0,P|504:320|490:249,1,121.499996292114,2|0,1:2|0:2,0:2:0:0:
490,249,79727,1,2,3:2:0:0:
395,318,79893,1,2,3:2:0:0:
224,252,80060,2,0,P|274:244|305:230,1,80.9999975280763,2|0,1:2|0:2,0:2:0:0:
394,139,80393,5,2,1:2:0:0:
273,327,80560,2,0,P|265:246|251:166,1,161.999995056153,0|0,3:2|3:2,0:2:0:0:
133,37,81060,2,0,P|149:87|156:122,1,80.9999975280763,2|0,0:2|3:2,0:2:0:0:
115,192,81393,1,2,1:2:0:0:
232,67,81560,1,0,3:2:0:0:
17,21,81727,5,2,1:2:0:0:
35,23,82560,5,0,3:2:0:0:
124,104,82727,2,0,P|113:146|108:187,1,80.9999975280763,0|0,1:2|0:2,0:2:0:0:
161,301,83060,6,0,P|100:265|30:279,1,144,6|0,3:2|1:2,0:2:0:0:
84,351,83560,1,0,3:2:0:0:
231,248,83727,2,0,P|238:283|244:318,1,72,2|0,0:2|3:2,0:2:0:0:
358,380,84060,2,0,P|352:344|344:309,1,72,2|0,1:2|0:2,0:2:0:0:
459,216,84393,5,2,3:2:0:0:
313,149,84560,1,0,0:2:0:0:
473,222,84727,1,2,1:2:0:0:
350,298,84893,2,0,P|313:238|327:169,1,144,2|2,3:2|3:2,0:2:0:0:
407,55,85393,2,0,P|411:90|420:125,1,72,0|0,1:2|0:2,0:2:0:0:
285,238,85727,6,0,P|214:221|116:211,1,144,2|0,3:2|1:2,0:2:0:0:
68,268,86227,2,0,P|55:230|51:195,1,72,2|0,3:2|0:2,0:2:0:0:
51,121,86560,1,2,3:2:0:0:
163,24,86727,2,0,P|174:57|179:93,1,72,0|0,1:2|0:2,0:2:0:0:
301,157,87060,6,0,P|371:160|422:113,1,144,2|0,3:2|1:2,0:2:0:0:
365,5,87560,2,0,P|354:39|349:74,1,72,0|0,3:2|0:2,0:0:0:0:
280,160,87893,1,0,3:2:0:0:
414,213,88060,2,0,P|448:202|483:197,1,72,0|2,1:2|0:2,0:0:0:0:
314,312,88393,6,0,P|307:347|301:382,2,72,2|0|2,3:2|0:0|1:2,0:2:0:0:
200,208,88893,1,0,3:2:0:0:
148,314,89060,1,2,0:2:0:0:
33,276,89227,2,0,P|26:232|20:205,1,72,2|0,3:2|1:2,0:2:0:0:
96,37,89560,5,2,0:2:0:0:
208,110,89727,1,2,3:2:0:0:
80,142,89893,2,0,P|40:124|-8:116,1,72,2|0,0:2|1:2,0:2:0:0:
196,19,90227,2,0,P|256:28|298:112,1,144,2|0,3:2|3:2,0:2:0:0:
384,216,90727,2,0,P|389:180|401:146,1,72,0|2,1:2|0:2,0:2:0:0:
462,49,91060,6,0,P|418:58|378:68,1,72,2|0,3:2|0:0,0:2:0:0:
213,157,91393,2,0,P|257:166|297:176,1,72,2|0,1:2|3:2,0:2:0:0:
463,303,91727,1,2,0:2:0:0:
512,218,91893,2,0,P|440:224|370:243,1,144,2|0,3:2|3:2,0:0:0:0:
193,241,92393,5,2,1:2:0:0:
257,354,92560,1,0,3:2:0:0:
257,354,92643,1,0,0:0:0:0:
257,354,92727,2,0,P|327:367|342:372,1,72,0|0,0:2|3:2,0:0:0:0:
114,288,93060,2,0,P|44:301|29:306,1,72,0|0,0:2|3:2,0:0:0:0:
208,227,93393,2,0,P|218:183|181:105,1,108,0|0,1:2|0:2,0:2:0:0:
191,104,93727,6,0,P|262:113|334:120,1,144,6|0,3:2|1:2,0:2:0:0:
432,53,94227,1,0,3:2:0:0:
457,205,94393,2,0,P|464:168|470:132,1,72,2|0,0:2|3:2,0:2:0:0:
344,35,94727,2,0,P|336:71|330:107,1,72,2|0,1:2|0:2,0:2:0:0:
300,272,95060,5,2,3:2:0:0:
261,139,95227,1,0,0:0:0:0:
354,186,95393,1,2,1:2:0:0:
240,356,95560,2,0,P|205:289|222:209,1,144,2|2,3:2|3:2,0:2:0:0:
114,100,96060,2,0,P|109:136|104:171,1,72,0|2,1:2|0:2,0:2:0:0:
100,187,96310,1,2,0:2:0:0:
100,186,96393,6,0,P|49:197|27:206,1,72,2|0,3:2|0:2,0:2:0:0:
151,288,96727,1,2,1:2:0:0:
225,217,96893,1,0,3:2:0:0:
334,336,97060,2,0,P|288:313|254:308,1,72,2|0,0:2|3:2,0:0:0:0:
163,150,97393,1,2,1:2:0:0:
317,205,97560,6,0,P|341:171|313:62,1,144,2|0,0:2|0:0,0:0:0:0:
326,75,98060,1,0,1:2:0:0:
491,84,98227,2,0,P|473:46|365:15,1,144,0|0,3:2|3:2,0:0:0:0:
261,91,98727,2,0,P|298:92|337:74,1,72,0|2,1:2|0:2,0:2:0:0:
441,155,99060,6,0,P|431:214|429:249,1,72,2|0,3:2|0:2,0:0:0:0:
501,343,99393,2,0,P|505:307|512:271,1,72,2|0,1:2|3:2,0:2:0:0:
348,172,99727,1,2,0:2:0:0:
283,230,99893,2,0,P|245:239|204:256,1,72,2|0,3:2|1:2,0:2:0:0:
70,195,100227,2,0,P|39:225|53:324,2,144,2|2|2,0:2|0:2|3:2,0:2:0:0:
140,299,101060,2,0,P|132:334|127:369,1,72,2|0,0:2|3:2,0:2:0:0:
225,242,101393,2,0,P|217:206|212:171,1,72,0|0,1:2|0:0,0:2:0:0:
173,43,101727,6,0,P|236:62|272:71,1,72,2|0,3:2|0:0,0:2:0:0:
372,119,102060,1,2,1:2:0:0:
456,27,102227,1,0,3:2:0:0:
359,133,102393,2,0,P|354:172|376:211,1,72,2|0,0:2|3:2,0:2:0:0:
486,252,102727,2,0,P|473:219|465:184,1,72,2|0,1:2|0:2,0:0:0:0:
366,39,103060,6,2,P|332:37|291:27,2,72,2|0|0,1:2|3:2|0:2,0:0:0:0:
258,168,103560,2,0,P|224:170|183:180,1,72,0|0,1:2|3:2,0:0:0:0:
53,132,103893,1,0,3:2:0:0:
120,28,104060,2,0,P|144:57|143:106,1,72,0|2,1:2|0:2,0:2:0:0:
132,119,104310,1,2,0:2:0:0:
132,118,104393,6,0,P|147:189|161:260,2,144,6|0|2,3:2|3:2|3:2,0:2:0:0:
208,10,105227,1,0,0:2:0:0:
299,112,105393,1,2,3:2:0:0:
383,0,105560,6,0,P|341:7|306:12,1,72,2|0,1:2|3:2,0:2:0:0:
215,114,105893,2,0,P|250:119|286:125,1,72,2|0,0:2|3:2,0:2:0:0:
419,168,106227,2,0,P|402:122|387:89,1,72,2|0,0:2|3:2,0:2:0:0:
506,24,106560,2,0,P|495:58|486:93,1,72,2|0,1:2|3:2,0:2:0:0:
327,184,106893,5,2,1:2:0:0:
412,269,107060,2,0,P|456:261|499:263,1,72,2|0,3:2|0:2,0:2:0:0:
314,176,107393,2,0,P|253:170|182:232,1,144,2|0,3:2|3:2,0:2:0:0:
258,327,107893,2,0,P|264:278|273:244,1,72,0|0,1:2|3:2,0:2:0:0:
225,141,108227,1,2,1:2:0:0:
181,225,108393,6,0,P|109:216|37:208,1,144,2|0,3:2|3:2,0:2:0:0:
137,86,108893,1,2,0:0:0:0:
59,12,109060,2,0,P|41:43|46:89,1,72,2|0,3:2|1:2,0:0:0:0:
187,211,109393,2,0,P|199:175|217:139,1,72,0|0,3:2|1:2,0:2:0:0:
327,41,109727,6,0,P|403:37|470:30,1,144,6|0,3:2|3:2,0:2:0:0:
470,30,110393,1,2,3:2:0:0:
454,117,110559,1,0,0:2:0:0:
437,203,110726,1,2,3:2:0:0:
300,158,110893,2,0,P|337:150|370:142,1,72,2|0,1:2|3:2,0:2:0:0:
511,238,111227,2,0,P|475:229|440:222,1,72,2|0,0:2|3:2,0:2:0:0:
297,290,111560,2,0,P|282:340|276:368,1,72,2|0,0:2|3:2,0:2:0:0:
218,234,111893,5,2,1:2:0:0:
375,339,112060,2,0,P|418:333|451:329,1,72,0|2,3:2|1:2,0:0:0:0:
207,230,112393,6,0,P|156:219|78:276,1,144,6|0,3:2|1:2,0:2:0:0:
5,162,112893,1,0,0:2:0:0:
84,277,113060,2,0,P|75:310|68:347,2,72,0|0|0,3:2|1:2|3:2,0:2:0:0:
219,211,113560,5,2,1:2:0:0:
122,107,113727,2,0,P|131:151|136:183,1,72,2|0,3:2|0:2,0:2:0:0:
307,242,114060,2,0,P|301:206|293:171,1,72,2|0,1:2|0:2,0:2:0:0:
319,18,114393,1,2,0:2:0:0:
201,61,114560,1,2,1:2:0:0:
201,61,114643,1,2,0:0:0:0:
201,61,114727,2,0,P|241:74|277:89,1,72,2|0,3:2|3:2,0:0:0:0:
495,265,115060,6,0,P|505:216|512:195,1,72,6|0,1:2|3:2,0:2:0:0:
442,76,115393,2,0,P|431:110|425:145,1,72,2|0,0:2|3:2,0:0:0:0:
337,279,115727,2,0,P|347:230|354:209,1,72,2|0,0:2|3:2,0:2:0:0:
284,90,116060,2,0,P|273:124|267:159,1,72,2|0,1:2|3:2,0:0:0:0:
198,216,116393,5,2,1:2:0:0:
384,92,116727,5,2,1:2:0:0:
196,7,117060,5,2,1:2:0:0:
213,146,117227,1,0,1:0:0:0:
211,157,117310,1,0,1:0:0:0:
208,169,117393,1,0,1:0:0:0:
206,181,117477,1,0,1:0:0:0:
203,192,117560,1,0,1:0:0:0:
201,204,117643,1,0,1:0:0:0:
198,216,117727,6,0,B|293:200|272:267|370:239,1,180,6|2,3:2|1:2,0:2:0:0:
480,309,118227,2,0,P|488:256|496:210,1,90,2|0,0:2|3:2,0:2:0:0:
412,117,118560,2,0,P|465:109|511:101,1,90,2|0,0:2|1:2,0:2:0:0:
354,205,118893,6,0,P|317:161|355:45,1,180,2|2,0:2|0:2,0:2:0:0:
468,20,119393,1,2,1:2:0:0:
400,126,119560,1,2,0:2:0:0:
268,18,119727,2,0,P|220:10|173:0,1,90,2|0,3:2|0:2,0:2:0:0:
57,128,120060,2,0,P|101:118|145:111,1,90,2|0,1:2|0:0,0:2:0:0:
275,228,120393,5,2,3:2:0:0:
310,143,120560,1,2,0:2:0:0:
182,222,120727,1,2,1:2:0:0:
356,270,120893,1,2,0:2:0:0:
320,41,121060,2,0,P|308:97|302:134,1,90,2|2,3:2|0:2,0:0:0:0:
252,310,121393,1,2,1:2:0:0:
410,191,121560,6,0,P|449:247|415:351,1,180,2|0,0:2|0:0,0:0:0:0:
241,303,122060,2,0,P|196:285|130:287,1,90,0|2,1:2|0:2,0:0:0:0:
59,326,122393,1,2,3:2:0:0:
172,182,122560,5,0,1:2:0:0:
162,384,122727,2,0,P|154:335|141:289,1,90,0|0,1:2|0:2,0:2:0:0:
8,130,123060,6,0,P|91:160|185:169,1,180,6|2,3:2|1:2,0:2:0:0:
359,88,123560,2,0,P|384:137|384:183,1,90,2|0,0:2|3:2,0:2:0:0:
272,267,123893,2,0,P|278:204|287:172,1,90,2|0,0:2|1:2,0:2:0:0:
372,78,124227,6,0,P|322:7|235:7,1,180,2|2,0:2|0:2,0:2:0:0:
105,103,124727,2,0,P|192:80|218:80,1,90,0|2,1:2|0:2,0:0:0:0:
376,173,125060,1,2,3:2:0:0:
281,90,125227,5,0,0:2:0:0:
260,234,125393,2,0,P|251:286|247:325,1,90,0|2,1:2|0:2,0:2:0:0:
258,339,125643,1,2,0:2:0:0:
258,339,125727,5,2,3:2:0:0:
161,277,125893,1,2,0:2:0:0:
88,370,126060,1,2,1:2:0:0:
26,251,126227,2,0,P|35:197|46:157,1,90,2|0,0:2|3:0,0:2:0:0:
177,70,126560,1,2,0:2:0:0:
71,18,126727,2,0,P|87:58|106:121,1,90,2|2,1:2|0:2,0:0:0:0:
198,173,127060,5,0,1:2:0:0:
368,57,127227,1,0,1:2:0:0:
368,57,127310,1,0,1:2:0:0:
368,57,127393,1,0,1:2:0:0:
265,53,127560,5,0,1:2:0:0:
265,53,127643,1,0,1:2:0:0:
265,53,127727,1,8,0:3:0:0:
265,53,127810,1,8,0:3:0:0:
265,53,127893,2,0,L|276:100,1,45,8|8,0:3|0:3,0:2:0:0:
367,146,128060,2,0,L|356:193,3,45,4|4|4|4,0:3|0:3|0:3|0:3,0:2:0:0:
287,250,128393,6,0,P|193:265|102:293,1,180,6|2,3:2|1:2,0:2:0:0:
16,185,128893,2,0,P|83:190|127:203,1,90,2|0,0:2|3:2,0:2:0:0:
197,379,129227,2,0,P|201:328|212:270,1,90,2|0,0:2|1:2,0:2:0:0:
248,121,129560,6,0,P|170:109|115:191,1,180,2|2,0:2|0:2,0:2:0:0:
50,318,130060,1,2,1:2:0:0:
2,234,130227,1,2,0:2:0:0:
141,301,130393,2,0,P|200:282|247:281,1,90,2|0,3:2|0:2,0:2:0:0:
382,258,130727,1,2,1:2:0:0:
280,185,130893,1,2,0:2:0:0:
314,333,131060,5,2,3:2:0:0:
445,188,131227,1,2,0:2:0:0:
499,359,131393,2,0,P|451:338|400:335,1,90,2|0,1:2|0:2,0:2:0:0:
211,264,131727,2,0,P|255:258|296:239,1,90,2|0,3:2|0:2,0:2:0:0:
409,79,132060,5,0,1:2:0:0:
487,178,132227,2,0,P|399:157|282:142,1,180,2|0,0:2|0:2,0:2:0:0:
126,123,132727,1,0,1:2:0:0:
213,182,132893,2,0,P|217:137|224:93,1,90,2|0,0:2|3:2,0:2:0:0:
207,14,133227,5,0,1:2:0:0:
320,153,133393,2,0,P|379:142|417:137,1,90,0|0,1:2|0:2,0:2:0:0:
166,251,133727,6,0,P|78:277|2:223,1,180,6|2,3:2|1:2,0:2:0:0:
102,96,134227,2,0,P|90:139|86:184,1,90,2|0,0:2|3:2,0:2:0:0:
263,321,134560,1,2,0:2:0:0:
169,362,134727,6,0,P|181:272|199:184,1,180,2|2,1:2|3:2,0:2:0:0:
301,105,135227,2,0,P|316:147|324:192,1,90,2|0,0:2|1:2,0:2:0:0:
271,328,135560,5,2,0:2:0:0:
271,328,135643,1,2,0:0:0:0:
271,328,135727,2,0,P|312:311|357:304,1,90,2|8,3:2|0:3,0:2:0:0:
418,216,136060,1,2,1:2:0:0:
418,216,136227,1,0,0:2:0:0:
511,384,136393,6,0,P|524:315|485:249,1,144,4|0,3:2|0:2,0:2:0:0:
335,170,136893,1,0,3:2:0:0:
410,128,137060,1,0,1:2:0:0:
418,216,137227,2,0,P|402:286|397:357,1,144,0|2,0:2|3:2,0:2:0:0:
291,362,137727,6,0,P|293:319|298:290,1,72,2|2,1:2|3:2,0:2:0:0:
218,157,138060,2,0,P|216:192|210:228,1,72,2|2,0:2|3:2,0:2:0:0:
127,307,138393,5,0,1:2:0:0:
288,278,138560,1,0,3:2:0:0:
121,318,138727,1,0,1:2:0:0:
106,125,138893,1,0,0:2:0:0:
0,242,139060,6,0,P|107:206|132:216,1,144,6|2,3:2|0:2,0:2:0:0:
234,146,139560,2,0,P|226:106|204:52,1,72,2|0,3:2|1:2,0:2:0:0:
317,5,139893,2,0,P|319:34|327:92,1,72,2|0,0:2|3:2,0:2:0:0:
429,137,140227,6,0,P|467:196|460:266,1,144,2|2,3:2|1:2,0:2:0:0:
322,316,140727,1,2,3:2:0:0:
365,216,140893,1,2,0:2:0:0:
309,323,141060,2,0,P|275:316|223:310,1,72,2|0,3:2|3:2,0:2:0:0:
65,255,141393,6,0,P|113:229|169:236,1,108,0|0,1:2|0:2,0:2:0:0:
180,251,141727,6,0,P|185:202|196:175,1,72,2|0,3:2|0:2,0:2:0:0:
78,28,142060,2,0,P|44:73|64:146,1,108,2|0,0:2|0:0,0:2:0:0:
68,136,142393,2,0,P|102:126|137:118,1,72,2|2,1:2|0:2,0:0:0:0:
217,62,142727,1,2,0:2:0:0:
303,189,142893,6,0,P|370:225|448:207,1,144,2|2,3:2|1:2,0:2:0:0:
394,68,143393,2,0,P|382:101|380:138,1,72,2|0,3:2|0:2,0:2:0:0:
502,262,143727,1,2,1:2:0:0:
502,262,143893,1,8,0:3:0:0:
411,302,144060,2,0,P|367:294|329:288,1,72,8|0,0:3|3:2,0:2:0:0:
218,301,144393,6,0,P|231:333|232:371,1,72,4|2,3:2|0:0,0:2:0:0:
117,277,144727,2,0,P|114:206|157:150,1,144,2|2,0:2|1:2,0:0:0:0:
263,88,145227,2,0,P|258:123|250:177,1,72,2|0,0:2|3:2,0:0:0:0:
328,222,145560,1,2,3:2:0:0:
392,153,145727,6,0,P|427:160|461:171,2,72,2|0|2,0:0|1:2|0:0,0:0:0:0:
240,244,146227,1,2,3:2:0:0:
240,244,146393,2,0,P|244:275|253:343,1,72,0|0,1:2|0:2,0:0:0:0:
159,275,146727,1,0,3:2:0:0:
159,275,146893,1,2,0:2:0:0:
341,309,147060,6,0,P|392:324|444:306,1,108,6|0,3:2|0:2,0:2:0:0:
454,286,147393,2,0,P|433:225|433:189,1,72,2|2,0:2|3:2,0:2:0:0:
287,144,147727,2,0,P|323:130|382:126,1,72,2|2,0:2|3:2,0:2:0:0:
479,60,148060,2,0,P|443:54|410:41,1,72,2|2,1:2|3:2,0:2:0:0:
281,157,148393,1,4,3:2:0:0:
161,13,148560,5,0,1:2:0:0:
62,162,148727,1,0,1:2:0:0:
34,44,148893,1,0,1:2:0:0:
191,133,149060,1,0,1:2:0:0:
191,133,149727,6,0,P|187:158|183:193,1,53.9999983520508,4|0,3:2|0:2,1:2:0:0:
139,264,150060,1,0,1:2:0:0:
139,264,150393,6,0,P|110:265|85:268,1,53.9999983520508,0|0,1:2|1:2,0:2:0:0:
203,320,150727,2,0,P|231:318|256:315,1,53.9999983520508,0|0,1:2|1:2,0:2:0:0:
350,372,151060,6,0,L|359:308,1,53.9999983520508,4|0,3:2|0:2,0:2:0:0:
444,215,151393,2,0,P|437:164|423:97,2,107.999996704102,0|0|0,1:2|3:2|1:2,0:2:0:0:
364,238,152227,1,0,1:2:0:0:
364,238,152393,2,0,P|332:221|297:216,1,53.9999983520508,4|0,3:2|1:2,0:2:0:0:
239,232,152727,1,0,1:2:0:0:
98,87,153060,6,0,L|87:17,1,53.9999983520508,0|0,1:2|1:2,0:2:0:0:
166,23,153394,2,0,L|174:76,1,53.9999983520508,0|0,1:2|1:2,0:2:0:0:
71,173,153727,6,0,P|50:210|78:285,1,107.999996704102,4|0,3:2|1:2,0:2:0:0:
63,271,154393,2,0,P|89:265|116:262,1,53.9999983520508,0|0,1:2|1:2,0:2:0:0:
176,325,154727,2,0,P|202:327|229:333,1,53.9999983520508,0|0,1:2|1:2,0:2:0:0:
315,253,155060,6,0,P|318:226|322:199,1,53.9999983520508,4|0,3:2|0:2,0:2:0:0:
281,120,155393,1,0,1:2:0:0:
281,120,155726,6,0,P|279:91|276:66,1,53.9999983520508,0|0,1:2|1:2,0:2:0:0:
371,74,156060,2,0,P|374:100|375:127,1,53.9999983520508,0|0,1:2|1:2,0:2:0:0:
247,192,156393,6,0,L|183:183,1,53.9999983520508,4|0,3:2|0:2,0:2:0:0:
90,127,156726,2,0,P|101:180|109:234,2,107.999996704102,0|0|0,1:2|3:2|1:2,0:2:0:0:
38,58,157560,1,0,1:2:0:0:
38,58,157726,2,0,P|70:41|105:36,1,53.9999983520508,4|0,3:2|0:2,0:2:0:0:
166,90,158060,1,0,1:2:0:0:
166,90,158393,2,0,L|229:80,1,53.9999983520508,0|0,1:2|1:2,0:2:0:0:
307,60,158727,2,0,L|297:130,1,53.9999983520508,0|0,3:2|0:2,0:2:0:0:
287,195,159060,5,2,1:2:0:0:
489,88,159393,5,2,1:2:0:0:
501,305,159727,5,2,1:2:0:0:
420,190,160060,6,0,L|406:263,1,53.9999983520508,2|0,1:2|0:2,0:2:0:0:
341,336,160393,6,0,P|261:322|172:320,1,161.999995056153,6|2,3:2|1:2,0:2:0:0:
44,219,160893,2,0,P|9:253|1:289,1,80.9999975280763,2|0,3:2|0:2,0:2:0:0:
99,380,161227,2,0,P|87:323|91:278,1,80.9999975280763,2|0,3:2|1:2,0:2:0:0:
188,185,161560,6,0,P|186:144|176:105,1,80.9999975280763,0|0,0:2|3:2,0:2:0:0:
122,23,161893,1,2,0:2:0:0:
77,134,162060,1,2,1:2:0:0:
245,53,162227,2,0,B|339:39|310:87|404:73,1,161.999995056153,2|0,3:2|3:2,0:2:0:0:
452,195,162727,5,2,1:2:0:0:
512,120,162893,2,0,P|437:107|355:167,1,161.999995056153,2|0,0:2|0:2,0:2:0:0:
237,282,163393,1,2,1:2:0:0:
177,207,163559,2,0,P|252:194|334:254,1,161.999995056153,2|0,3:2|3:2,0:2:0:0:
431,363,164060,5,2,1:2:0:0:
442,275,164227,2,0,L|452:188,1,80.9999975280763,2|0,0:2|3:2,0:2:0:0:
328,41,164560,5,2,0:2:0:0:
428,83,164727,1,2,1:2:0:0:
317,157,164893,1,2,3:2:0:0:
437,74,165060,2,0,P|488:65|523:64,1,80.9999975280763,2|0,0:2|3:2,0:2:0:0:
302,157,165393,2,0,P|261:154|221:146,1,80.9999975280763,2|0,1:2|0:2,0:2:0:0:
45,43,165727,6,0,P|-3:80|6:181,1,161.999995056153,6|2,3:2|1:2,0:2:0:0:
139,96,166227,2,0,P|151:42|168:6,1,80.9999975280763,2|0,3:2|0:2,0:2:0:0:
232,155,166560,2,0,P|217:192|209:232,1,80.9999975280763,2|0,3:2|1:2,0:2:0:0:
296,376,166893,6,0,P|243:317|165:320,1,161.999995056153,2|2,0:2|0:2,0:2:0:0:
26,315,167393,1,2,1:2:0:0:
98,229,167560,1,2,3:2:0:0:
124,384,167727,2,0,P|133:337|144:306,1,80.9999975280763,2|0,0:2|3:2,0:2:0:0:
107,134,168060,1,2,1:2:0:0:
6,204,168227,1,2,0:2:0:0:
202,158,168393,5,0,1:2:0:0:
301,306,168560,2,0,P|334:335|453:322,2,161.999995056153,0|0|0,3:2|3:2|3:2,0:2:0:0:
337,141,169393,1,2,1:2:0:0:
379,253,169560,1,2,3:2:0:0:
202,364,169727,6,0,P|216:251|238:130,2,215.999993408203,0|2|4,1:2|0:2|3:2,0:2:0:0:
256,192,171143,12,0,172393,0:2:0:0:
43,64,180393,6,0,P|53:87|64:123,1,45,0|0,1:2|0:2,0:2:0:0:
237,138,180727,6,0,P|227:161|216:197,1,45,0|0,1:2|0:2,0:2:0:0:
108,252,181060,6,0,P|118:275|129:311,1,45,0|0,1:2|0:2,0:2:0:0:
193,376,181727,6,0,P|200:355|210:335,1,45,0|0,1:2|0:2,0:2:0:0:
26,276,182060,6,0,P|18:254|9:234,1,45,0|0,1:2|0:2,0:2:0:0:
147,138,182393,6,0,P|159:66|171:21,1,108,0|0,1:2|0:2,0:2:0:0:
176,38,182977,1,0,0:2:0:0:
176,38,183060,6,0,P|101:16|55:124,1,180,6|2,3:2|1:2,0:2:0:0:
160,248,183560,2,0,P|215:236|265:235,1,90,2|0,0:2|3:2,0:2:0:0:
117,166,183893,2,0,P|62:178|12:179,1,90,2|0,0:2|1:2,0:2:0:0:
191,332,184227,6,0,P|205:242|223:155,1,180,2|2,0:2|0:2,0:2:0:0:
331,0,184727,2,0,P|360:75|340:111,1,90,2|2,1:2|0:2,0:2:0:0:
183,66,185060,2,0,P|240:60|277:60,1,90,2|0,3:2|0:2,0:2:0:0:
506,184,185393,2,0,P|443:206|382:183,1,135,2|0,1:2|0:2,0:2:0:0:
381,182,185726,5,2,3:2:0:0:
218,244,185893,1,2,0:2:0:0:
272,113,186060,2,0,P|285:155|292:200,1,90,2|0,1:2|0:2,0:2:0:0:
399,346,186393,1,2,3:2:0:0:
236,384,186560,1,2,0:2:0:0:
355,266,186726,1,2,1:2:0:0:
489,384,186893,5,2,0:2:0:0:
489,384,186976,1,2,0:2:0:0:
489,384,187060,2,0,P|389:367|309:356,1,180,2|0,3:2|1:2,0:2:0:0:
118,249,187560,1,2,0:2:0:0:
238,235,187726,1,2,3:2:0:0:
198,347,187893,5,0,1:2:0:0:
129,154,188060,2,0,P|116:197|107:241,1,90,0|0,1:2|0:2,0:2:0:0:
42,368,188393,6,0,P|-13:300|0:214,1,180,6|2,3:2|1:2,0:2:0:0:
178,85,188893,2,0,P|170:29|141:9,1,90,2|0,0:2|3:2,0:2:0:0:
86,120,189227,2,0,P|99:163|108:207,1,90,2|0,0:2|1:2,0:2:0:0:
283,328,189560,6,0,P|368:346|441:297,1,180,2|2,0:2|0:2,0:2:0:0:
411,166,190060,1,2,1:2:0:0:
350,247,190227,1,2,0:2:0:0:
512,193,190393,2,0,P|501:150|491:93,1,90,2|0,3:2|0:2,0:2:0:0:
292,31,190727,2,0,P|303:74|313:131,1,90,0|2,1:2|0:2,0:2:0:0:
310,147,190977,1,2,0:2:0:0:
310,147,191060,5,2,3:2:0:0:
208,115,191227,1,2,3:2:0:0:
238,227,191393,1,2,3:2:0:0:
71,207,191560,2,0,P|117:196|174:180,1,90,2|0,3:2|1:0,0:2:0:0:
332,252,191893,5,2,1:2:0:0:
181,378,192060,1,2,1:2:0:0:
146,175,192227,1,2,1:2:0:0:
310,373,192393,6,0,P|314:346|319:329,1,45,0|0,1:2|0:2,0:2:0:0:
198,299,192727,6,0,P|194:272|188:255,1,45,0|0,1:2|0:2,0:2:0:0:
269,182,193060,5,0,1:2:0:0:
269,182,193143,1,0,1:1:0:0:
269,182,193227,1,0,1:3:0:0:
269,182,193310,1,0,1:1:0:0:
269,182,193393,2,0,P|273:156|280:131,1,45,0|0,1:3|1:0,0:0:0:0:
204,98,193560,2,0,P|200:72|193:47,1,45,0|0,1:2|1:0,0:0:0:0:
275,0,193727,6,0,B|380:-15|338:49|455:31,1,180,6|2,3:2|1:2,0:2:0:0:
512,122,194227,2,0,P|460:145|415:126,1,90,2|0,0:2|3:2,0:2:0:0:
292,84,194560,2,0,P|309:143|316:191,1,90,2|0,0:2|1:2,0:2:0:0:
316,337,194893,6,0,P|368:346|451:258,1,180,2|2,0:2|0:2,0:2:0:0:
319,165,195393,1,2,1:2:0:0:
359,257,195560,1,2,0:2:0:0:
231,292,195727,2,0,P|185:280|143:273,1,90,2|0,3:2|0:2,0:2:0:0:
12,215,196060,1,2,1:2:0:0:
167,156,196227,1,2,0:2:0:0:
63,106,196393,5,2,3:2:0:0:
132,255,196560,1,2,0:2:0:0:
57,90,196727,2,0,P|70:37|74:-14,1,90,2|0,1:2|0:2,0:2:0:0:
179,162,197060,2,0,P|179:214|132:254,1,90,2|0,3:2|0:2,0:2:0:0:
28,304,197393,1,2,1:2:0:0:
155,384,197560,6,0,P|231:363|344:352,1,180,2|0,0:2|0:2,0:2:0:0:
418,219,198060,1,0,1:2:0:0:
498,332,198227,2,0,P|441:314|389:294,1,90,2|0,0:2|3:2,0:2:0:0:
299,142,198560,5,0,1:2:0:0:
252,258,198727,2,0,P|240:309|235:348,1,90,0|0,1:2|0:2,0:2:0:0:
439,211,199060,6,0,P|461:143|395:36,1,180,6|2,3:2|1:2,0:2:0:0:
271,0,199560,2,0,P|282:56|288:103,1,90,2|0,0:2|3:2,0:2:0:0:
216,210,199893,1,2,0:2:0:0:
366,135,200060,6,0,P|276:114|170:113,1,180,2|2,1:2|3:2,0:2:0:0:
50,39,200560,2,0,P|76:113|81:138,1,90,2|0,0:2|1:2,0:2:0:0:
53,273,200893,1,2,0:2:0:0:
175,183,201060,2,0,P|201:242|193:271,1,90,2|0,3:2|0:2,0:2:0:0:
60,371,201393,2,0,P|34:312|42:283,1,90,2|0,1:2|0:2,0:2:0:0:
177,171,201727,6,0,P|265:187|353:208,1,180,6|0,3:2|1:0,0:2:0:0:
501,119,202227,1,0,0:2:0:0:
334,62,202393,1,0,3:2:0:0:
441,12,202560,2,0,P|418:85|412:123,1,90,0|0,0:2|1:0,0:2:0:0:
470,244,202893,5,2,0:0:0:0:
373,313,203060,1,2,1:2:0:0:
376,195,203227,1,2,3:2:0:0:
478,342,203393,1,6,1:2:0:0:
301,375,203560,1,2,3:2:0:0:
219,253,203727,5,0,1:2:0:0:
219,253,203810,1,0,1:0:0:0:
219,253,203893,1,0,1:2:0:0:
219,253,203977,1,0,1:0:0:0:
219,253,204060,2,0,P|233:195|244:143,1,90,0|0,1:2|1:2,0:0:0:0:
156,1,204393,6,0,P|120:108|130:133,1,144,6|2,3:2|0:2,0:2:0:0:
84,209,204893,2,0,P|49:197|14:190,1,72,2|0,3:2|1:2,0:2:0:0:
207,83,205226,2,0,P|236:85|294:93,1,72,2|0,0:2|3:2,0:2:0:0:
400,18,205560,6,0,P|438:77|431:147,1,144,2|2,3:2|1:2,0:2:0:0:
396,239,206060,1,2,3:2:0:0:
308,198,206226,1,2,0:2:0:0:
408,245,206393,2,0,P|442:238|494:232,1,72,2|0,1:2|0:2,0:2:0:0:
243,132,206726,6,0,P|217:180|224:236,1,108,2|0,0:1|0:2,0:2:0:0:
208,250,207060,6,0,P|159:255|132:266,1,72,2|0,3:2|0:2,0:2:0:0:
13,151,207393,2,0,P|84:161|102:171,1,72,2|0,0:2|0:0,0:2:0:0:
163,76,207727,2,0,P|153:30|142:-5,2,72,2|2|2,1:2|0:2|0:2,0:0:0:0:
272,177,208226,6,0,P|308:244|281:308,1,144,2|2,3:2|1:2,0:2:0:0:
208,358,208726,2,0,P|174:347|139:350,1,72,2|0,3:2|0:2,0:2:0:0:
25,262,209060,1,2,1:2:0:0:
25,262,209226,1,0,3:2:0:0:
86,192,209393,6,0,P|89:156|97:120,1,72,2|0,1:1|0:2,0:2:0:0:
260,239,209726,6,0,P|281:305|245:365,1,144,6|2,3:2|0:2,0:2:0:0:
111,301,210227,1,2,3:2:0:0:
168,222,210393,2,0,P|182:151|185:129,1,72,0|2,1:0|0:2,0:0:0:0:
350,94,210726,5,2,3:2:0:0:
307,15,210893,2,0,P|259:66|267:135,1,144,0|2,3:2|1:2,0:2:0:0:
388,263,211393,2,0,P|440:255|469:252,1,72,2|0,3:2|0:2,0:2:0:0:
484,157,211726,2,0,P|432:165|403:168,1,72,2|0,1:2|0:2,0:2:0:0:
295,291,212060,1,2,3:2:0:0:
295,291,212226,1,2,0:2:0:0:
161,204,212393,6,0,P|146:153|164:101,1,108,6|0,3:2|0:2,0:2:0:0:
182,98,212726,2,0,P|243:119|279:119,1,72,2|2,0:2|3:2,0:2:0:0:
341,189,213060,2,0,P|306:194|273:208,1,72,2|2,0:2|3:2,0:2:0:0:
185,295,213393,2,0,P|179:259|166:226,1,72,2|2,1:2|3:2,0:2:0:0:
114,161,213726,1,6,3:2:0:0:
257,3,213893,5,0,1:2:0:0:
346,160,214060,1,0,1:2:0:0:
228,132,214226,1,0,1:2:0:0:
377,33,214393,1,0,1:2:0:0:
377,33,214893,5,2,0:2:0:0:
468,147,215060,2,0,P|456:232|439:334,1,161.999995056153,6|0,3:2|1:2,0:2:0:0:
282,332,215560,1,2,0:2:0:0:
210,279,215727,2,0,P|161:283|117:292,1,80.9999975280763,2|0,3:2|3:2,0:2:0:0:
367,376,216060,2,0,P|367:319|357:268,1,80.9999975280763,0|2,1:2|0:2,0:2:0:0:
241,140,216393,6,0,P|228:95|246:51,1,80.9999975280763,2|0,3:2|0:2,0:2:0:0:
433,126,216727,2,0,P|388:105|314:98,1,121.499996292114,2|0,1:2|0:2,0:2:0:0:
317,97,217060,1,2,3:2:0:0:
232,36,217227,1,2,3:2:0:0:
157,169,217393,2,0,P|171:206|177:246,1,80.9999975280763,2|0,1:2|0:2,0:2:0:0:
8,136,217727,5,2,1:2:0:0:
121,66,217893,2,0,P|105:153|93:246,1,161.999995056153,0|0,3:2|3:2,0:2:0:0:
9,351,218393,2,0,P|69:332|104:326,1,80.9999975280763,2|0,0:2|3:2,0:2:0:0:
252,356,218727,1,2,1:2:0:0:
113,237,218894,1,0,3:2:0:0:
271,176,219060,5,2,1:2:0:0:
271,176,219893,5,0,3:2:0:0:
158,326,220060,2,0,P|148:286|132:249,1,80.9999975280763,0|0,1:2|0:2,0:2:0:0:
52,52,220393,5,6,3:2:0:0:
152,120,220560,1,2,0:2:0:0:
29,177,220727,1,2,1:2:0:0:
182,32,220893,2,0,P|166:84|161:117,1,80.9999975280763,2|0,3:2|0:2,0:2:0:0:
275,244,221227,2,0,P|313:231|353:223,1,80.9999975280763,2|0,1:2|0:2,0:2:0:0:
129,309,221560,5,2,1:2:0:0:
467,162,222060,5,6,3:2:0:0:
256,192,222143,12,0,225393,0:2:0:0:
