osu file format v14

[General]
AudioFilename: audio.mp3
AudioLeadIn: 0
PreviewTime: 45661
Countdown: 0
SampleSet: Soft
StackLeniency: 0.7
Mode: 0
LetterboxInBreaks: 0
WidescreenStoryboard: 1

[Editor]
DistanceSpacing: 1.4
BeatDivisor: 4
GridSize: 32
TimelineZoom: 2

[Metadata]
Title:Pyramid Dai Gyakuten (TV Size)
TitleUnicode:ピラミッド大逆転 (TV Size)
Artist:Spira Spica
ArtistUnicode:スピラ・スピカ
Creator:mrforse
Version:Tachi's Hard
Source:俺だけ入れる隠しダンジョン
Tags:j-pop jpop pop japanese female vocals vocalist anime opening op Ryxliee Tachibana_ Baack FlyzyStyle The Hidden Dungeon Only I Can Enter Ore dake Haireru Kakushi Daigyakuten Pyramid Great Reversal
BeatmapID:3404836
BeatmapSetID:1629577

[Difficulty]
HPDrainRate:4
CircleSize:3.5
OverallDifficulty:6.5
ApproachRate:8
SliderMultiplier:1.2
SliderTickRate:1

[Events]
//Background and Video events
0,0,"bg.jpg",0,0
//Break Periods
//Storyboard Layer 0 (Background)
//Storyboard Layer 1 (Fail)
//Storyboard Layer 2 (Pass)
//Storyboard Layer 3 (Foreground)
//Storyboard Layer 4 (Overlay)
//Storyboard Sound Samples

[TimingPoints]
412,333.333333333333,4,2,1,65,1,0
412,-121.951219512195,4,2,1,65,0,0
995,-121.951219512195,4,2,1,5,0,0
1078,-121.951219512195,4,2,1,65,0,0
5745,-98.0392156862745,4,2,1,75,0,0
7328,-98.0392156862745,4,2,1,5,0,0
7411,-98.0392156862745,4,2,1,75,0,0
9745,-121.951219512195,4,2,1,75,0,0
10245,-121.951219512195,4,2,1,25,0,0
11078,-108.695652173913,4,2,1,60,0,0
11327,-108.695652173913,4,2,1,5,0,0
11411,-108.695652173913,4,2,1,60,0,0
12327,-108.695652173913,4,2,1,5,0,0
12411,-108.695652173913,4,2,1,60,0,0
13660,-108.695652173913,4,2,1,5,0,0
13745,-108.695652173913,4,2,1,60,0,0
14994,-108.695652173913,4,2,1,5,0,0
15078,-108.695652173913,4,2,1,60,0,0
20411,-108.695652173913,4,2,1,70,0,0
21660,-108.695652173913,4,2,1,5,0,0
21745,-108.695652173913,4,2,1,60,0,0
21994,-108.695652173913,4,2,1,5,0,0
22078,-108.695652173913,4,2,1,60,0,0
22994,-108.695652173913,4,2,1,5,0,0
23078,-108.695652173913,4,2,1,60,0,0
25994,-108.695652173913,4,2,1,5,0,0
26078,-108.695652173913,4,2,1,60,0,0
32411,-98.0392156862745,4,2,1,55,0,0
34495,-98.0392156862745,4,2,1,5,0,0
34578,-98.0392156862745,4,2,1,55,0,0
37661,-98.0392156862745,4,2,1,5,0,0
37745,-98.0392156862745,4,2,1,55,0,0
39829,-98.0392156862745,4,2,1,5,0,0
39912,-98.0392156862745,4,2,1,55,0,0
42995,-98.0392156862745,4,2,1,5,0,0
43078,-98.0392156862745,4,2,1,70,0,0
45745,-81.9672131147541,4,2,1,80,0,1
48327,-81.9672131147541,4,2,1,5,0,1
48411,-81.9672131147541,4,2,1,80,0,1
48994,-81.9672131147541,4,2,1,5,0,1
49078,-81.9672131147541,4,2,1,80,0,1
51327,-81.9672131147541,4,2,1,5,0,1
51411,-81.9672131147541,4,2,1,80,0,1
55078,-81.9672131147541,4,2,1,80,0,0
56411,-81.9672131147541,4,2,1,80,0,1
61994,-81.9672131147541,4,2,1,5,0,1
62077,-81.9672131147541,4,2,1,80,0,1
64411,-98.0392156862744,4,2,1,70,0,0
65078,-121.951219512195,4,2,1,70,0,0
69328,-121.951219512195,4,2,1,5,0,0
69411,-121.951219512195,4,2,1,70,0,0
71995,-121.951219512195,4,2,1,5,0,0
72078,-121.951219512195,4,2,1,70,0,0
74328,-121.951219512195,4,2,1,5,0,0
74411,-121.951219512195,4,2,1,70,0,0
77745,-98.0392156862744,4,2,1,75,0,0
78661,-98.0392156862744,4,2,1,5,0,0
78745,-98.0392156862744,4,2,1,75,0,0
79328,-98.0392156862744,4,2,1,5,0,0
79411,-98.0392156862744,4,2,1,75,0,0
82995,-98.0392156862744,4,2,1,5,0,0
83078,-98.0392156862744,4,2,1,75,0,0
84578,-98.0392156862744,4,2,1,45,0,0
84745,-98.0392156862744,4,2,1,75,0,0
88411,-98.0392156862744,4,2,1,5,0,0

[Colours]
Combo1 : 92,189,226
Combo2 : 247,218,117
Combo3 : 242,142,140

[HitObjects]
85,192,412,6,0,L|74:123,1,49.2000007507324,6|0,3:2|0:0,0:0:0:0:
98,67,745,2,0,P|130:36|159:35,1,73.8000011260987,10|0,0:0|0:0,0:0:0:0:
191,55,1078,1,2,3:2:0:0:
254,102,1245,1,0,3:0:0:0:
324,68,1411,2,0,L|333:19,1,49.2000007507324,10|8,0:0|0:0,0:0:0:0:
408,92,1745,6,0,L|417:140,1,49.2000007507324,4|0,3:1|3:0,0:0:0:0:
393,215,2078,1,10,0:0:0:0:
510,319,2411,1,2,3:2:0:0:
363,377,2745,1,10,0:0:0:0:
363,377,2911,1,8,0:0:0:0:
299,320,3078,6,0,B|214:334|232:281|147:300,1,147.600002252197,4|0,3:2|0:0,0:0:0:0:
80,266,3745,2,0,P|63:190|37:115,1,147.600002252197,4|0,3:1|0:0,0:0:0:0:
82,54,4411,2,0,P|129:29|163:133,1,196.80000300293,4|0,3:2|0:0,0:0:0:0:
152,213,5245,1,0,3:0:0:0:
152,213,5411,2,0,L|212:202,1,49.2000007507324,8|2,0:0|0:0,0:0:0:0:
265,147,5745,6,0,B|300:177|300:177|274:253,1,122.40000074707,4|8,3:1|0:0,0:0:0:0:
220,315,6245,1,2,3:2:0:0:
220,315,6411,2,0,P|174:306|72:291,1,122.40000074707,2|8,0:0|0:0,0:0:0:0:
34,247,6911,1,2,0:0:0:0:
34,247,7078,6,0,P|21:199|54:167,1,91.8000005603027,2|0,3:2|0:0,0:0:0:0:
55,127,7411,2,0,P|84:120|114:115,1,61.2000003735352,10|0,0:0|3:0,0:0:0:0:
182,169,7745,1,2,0:0:0:0:
243,110,7911,1,2,3:2:0:0:
318,151,8078,2,0,L|325:214,1,61.2000003735352,10|0,0:0|0:0,0:0:0:0:
399,112,8411,6,0,L|406:49,1,61.2000003735352,14|0,0:0|3:0,0:0:0:0:
337,7,8745,1,2,0:0:0:0:
337,7,8911,1,0,3:0:0:0:
273,64,9078,2,0,P|244:75|210:71,1,61.2000003735352,2|0,0:0|3:0,0:0:0:0:
152,13,9411,2,0,P|123:2|93:4,1,61.2000003735352,10|0,0:0|3:0,0:0:0:0:
18,60,9745,6,0,B|27:126|27:126|24:137|24:137|36:208,1,147.600002252197,10|0,3:2|0:0,0:0:0:0:
35,205,11078,6,0,B|67:189|67:189|71:182|71:182|110:165,1,82.7999972204591,4|0,3:1|0:0,0:0:0:0:
137,143,11411,2,0,P|177:152|204:159,1,55.1999981469727,8|2,0:0|3:2,0:0:0:0:
242,220,11745,1,2,0:0:0:0:
242,220,11911,1,0,3:0:0:0:
223,295,12078,2,0,P|261:314|311:300,1,82.7999972204591,10|0,0:0|0:0,0:0:0:0:
337,315,12411,5,2,3:2:0:0:
379,250,12578,1,2,0:0:0:0:
458,270,12745,1,10,0:0:0:0:
458,270,12911,2,0,P|473:213|487:162,1,110.399996293945,2|2,3:2|3:2,0:0:0:0:
461,90,13411,2,0,P|417:86|391:114,1,82.7999972204591,8|0,0:0|0:0,0:0:0:0:
365,140,13745,6,0,L|375:194,1,55.1999981469727,2|0,3:2|0:0,0:0:0:0:
338,264,14078,1,10,0:0:0:0:
338,264,14245,2,0,P|282:277|242:241,1,110.399996293945,2|2,3:2|3:2,0:0:0:0:
171,219,14745,2,0,P|185:165|197:121,1,82.7999972204591,8|0,0:0|0:0,0:0:0:0:
222,115,15078,6,0,L|212:61,1,55.1999981469727,2|0,3:2|0:0,0:0:0:0:
157,9,15411,1,8,0:0:0:0:
157,9,15578,1,0,3:0:0:0:
88,45,15745,2,0,L|78:99,1,55.1999981469727,0|0,0:0|3:0,0:0:0:0:
24,154,16078,2,0,L|34:208,1,55.1999981469727,8|2,0:0|0:0,0:0:0:0:
55,282,16411,6,0,P|114:296|160:265,1,110.399996293945,2|10,3:2|0:0,0:0:0:0:
205,214,16911,1,2,3:2:0:0:
205,214,17078,2,0,P|239:204|272:189,1,55.1999981469727,2|2,0:0|3:2,0:0:0:0:
281,269,17411,2,0,P|307:276|333:286,1,55.1999981469727,8|2,0:0|0:0,0:0:0:0:
410,298,17745,6,0,B|420:241|380:249|392:187,1,110.399996293945,2|8,3:2|0:0,0:0:0:0:
458,153,18245,2,0,P|461:116|400:83,1,110.399996293945,2|0,3:2|3:0,0:0:0:0:
337,43,18745,2,0,L|265:60,1,55.1999981469727,8|2,0:0|0:0,0:0:0:0:
245,123,19078,6,0,L|136:99,1,110.399996293945,2|10,3:2|0:0,0:0:0:0:
66,122,19578,1,2,3:2:0:0:
66,122,19745,2,0,P|48:150|47:181,1,55.1999981469727,2|2,0:0|3:2,0:0:0:0:
102,223,20078,2,0,P|120:251|121:282,1,55.1999981469727,8|0,0:0|0:0,0:0:0:0:
81,338,20411,5,14,0:0:0:0:
144,381,20578,1,2,3:0:0:0:
215,351,20745,2,0,P|246:343|275:335,1,55.1999981469727,2|0,0:3|3:0,0:0:0:0:
329,288,21078,2,0,P|355:295|382:302,1,55.1999981469727,2|0,0:3|3:0,0:0:0:0:
443,349,21411,2,0,P|461:313|448:262,1,82.7999972204591,12|0,0:0|0:0,0:0:0:0:
471,237,21745,6,0,B|439:221|439:221|435:214|435:214|399:198,1,82.7999972204591,4|0,3:1|0:0,0:0:0:0:
380,164,22078,2,0,L|303:179,1,55.1999981469727,8|2,0:0|3:2,0:0:0:0:
252,165,22412,1,2,0:0:0:0:
252,165,22578,1,0,3:0:0:0:
239,88,22745,2,0,P|198:54|156:75,1,82.7999972204591,10|0,0:0|0:0,0:0:0:0:
134,58,23078,5,2,3:2:0:0:
55,39,23245,1,2,0:0:0:0:
12,104,23412,1,10,0:0:0:0:
12,104,23578,2,0,P|27:161|41:212,1,110.399996293945,2|2,3:2|3:2,0:0:0:0:
117,221,24078,2,0,P|106:261|99:289,1,55.1999981469727,8|2,0:0|0:0,0:0:0:0:
32,308,24412,6,0,L|42:362,1,55.1999981469727,2|0,3:2|0:0,0:0:0:0:
122,383,24745,1,10,0:0:0:0:
122,383,24911,1,0,3:0:0:0:
176,328,25078,2,0,P|204:319|236:298,1,55.1999981469727,2|2,0:0|3:2,0:0:0:0:
293,343,25411,2,0,P|319:351|343:364,1,55.1999981469727,10|2,0:0|0:0,0:0:0:0:
410,324,25745,6,0,P|421:281|435:226,1,82.7999972204591,0|0,3:0|0:0,0:0:0:0:
465,226,26078,1,8,0:0:0:0:
425,159,26245,1,0,3:0:0:0:
477,101,26412,2,0,L|487:47,1,55.1999981469727,0|0,0:0|3:0,0:0:0:0:
385,8,26745,2,0,L|395:62,1,55.1999981469727,8|2,0:0|0:0,0:0:0:0:
350,125,27078,6,0,P|317:132|287:139,1,55.1999981469727,2|2,3:2|0:0,0:0:0:0:
261,67,27411,2,0,P|230:60|204:54,1,55.1999981469727,10|2,0:0|3:2,0:0:0:0:
143,97,27745,1,2,0:0:0:0:
143,97,27911,1,2,3:2:0:0:
97,34,28078,2,0,P|63:28|28:21,1,55.1999981469727,8|2,0:0|0:0,0:0:0:0:
2,90,28411,6,0,P|14:144|25:207,1,110.399996293945,0|8,3:0|0:0,0:0:0:0:
75,263,28911,1,2,3:2:0:0:
75,263,29078,2,0,L|128:276,1,55.1999981469727,2|0,0:0|3:0,0:0:0:0:
181,219,29412,2,0,L|234:206,1,55.1999981469727,8|0,0:0|0:0,0:0:0:0:
297,160,29745,6,0,L|404:183,1,110.399996293945,2|10,3:2|0:0,0:0:0:0:
469,138,30245,1,2,3:2:0:0:
469,138,30412,2,0,P|485:170|485:193,1,55.1999981469727,2|0,0:0|3:0,0:0:0:0:
445,255,30745,2,0,P|431:278|428:305,1,55.1999981469727,10|0,0:0|0:0,0:0:0:0:
457,382,31078,5,14,0:0:0:0:
457,382,31245,2,0,P|398:381|356:344,1,110.399996293945,0|8,3:0|0:0,0:0:0:0:
314,287,31745,2,0,L|260:299,1,55.1999981469727,0|0,0:0|3:0,0:0:0:0:
190,353,32078,2,0,L|136:340,1,55.1999981469727,12|2,0:0|0:0,0:0:0:0:
63,291,32411,6,0,P|63:243|129:220,1,122.40000074707,4|0,3:1|3:0,0:0:0:0:
296,213,33078,2,0,P|289:177|278:150,1,61.2000003735352,2|2,3:2|0:0,0:0:0:0:
208,106,33411,1,2,3:2:0:0:
222,21,33578,2,0,B|290:7|273:55|346:37,1,122.40000074707,10|2,0:0|0:0,0:0:0:0:
507,4,34245,2,0,P|495:48|483:92,1,91.8000005603027,2|0,0:0|0:0,0:0:0:0:
443,105,34578,2,0,P|455:149|460:173,1,61.2000003735352,2|0,0:0|3:0,0:0:0:0:
474,248,34911,1,8,0:0:0:0:
416,312,35078,6,0,P|358:297|282:282,1,122.40000074707,2|2,3:2|3:2,0:0:0:0:
128,320,35745,2,0,P|79:283|90:221,1,122.40000074707,2|0,3:2|3:0,0:0:0:0:
131,155,36245,1,10,0:0:0:0:
109,72,36411,2,0,P|168:57|228:45,1,122.40000074707,2|0,3:2|3:0,0:0:0:0:
302,98,36911,1,2,0:0:0:0:
302,98,37078,2,0,P|331:104|360:113,1,61.2000003735352,2|8,3:2|0:0,0:0:0:0:
415,47,37411,2,0,P|466:72|473:109,1,91.8000005603027,12|0,3:2|0:0,0:0:0:0:
509,127,37745,6,0,P|493:186|480:246,1,122.40000074707,4|0,3:1|3:0,0:0:0:0:
380,383,38412,2,0,P|374:352|369:323,1,61.2000003735352,2|2,3:2|0:0,0:0:0:0:
338,242,38745,1,2,3:2:0:0:
277,301,38911,2,0,B|210:317|227:269|159:283,1,122.40000074707,10|2,0:0|0:0,0:0:0:0:
10,369,39578,2,0,P|22:324|34:280,1,91.8000005603027,2|0,0:0|0:0,0:0:0:0:
69,255,39912,2,0,P|63:225|54:195,1,61.2000003735352,2|12,0:0|3:2,0:0:0:0:
8,123,40245,1,2,0:0:0:0:
31,41,40411,6,0,P|91:51|151:63,1,122.40000074707,4|2,3:1|0:0,0:0:0:0:
228,113,40912,1,0,3:0:0:0:
228,113,41079,2,0,B|279:104|279:104|296:83|296:83|349:74,1,122.40000074707,8|0,0:0|0:0,0:0:0:0:
400,16,41579,1,10,0:0:0:0:
444,89,41745,2,0,P|427:150|417:208,1,122.40000074707,2|2,3:2|0:0,0:0:0:0:
340,243,42245,1,2,3:2:0:0:
340,243,42412,2,0,P|349:272|355:301,1,61.2000003735352,10|2,0:0|0:0,0:0:0:0:
288,356,42745,2,0,P|243:362|210:332,1,91.8000005603027,0|0,3:0|0:0,0:0:0:0:
168,326,43078,5,14,0:0:0:0:
200,246,43245,1,0,3:0:0:0:
147,178,43411,2,0,L|83:161,1,61.2000003735352,2|2,0:0|3:2,0:0:0:0:
177,95,43745,2,0,L|241:78,1,61.2000003735352,2|0,0:0|3:0,0:0:0:0:
309,34,44078,1,2,0:0:0:0:
375,88,44245,1,2,3:2:0:0:
444,39,44411,6,0,P|455:68|461:103,1,61.2000003735352,14|2,0:0|3:2,0:0:0:0:
511,167,44745,2,0,P|500:196|494:231,1,61.2000003735352,10|0,0:0|3:0,0:0:0:0:
430,282,45078,2,0,L|435:312,3,30.6000001867676,2|0|0|0,2:0|0:0|0:0|0:0,0:0:0:0:
409,259,45411,1,0,0:0:0:0:
394,245,45495,1,0,0:0:0:0:
378,236,45578,1,0,0:0:0:0:
357,231,45661,1,0,0:0:0:0:
337,233,45745,6,0,B|280:252|280:252|266:281|266:281|213:302,1,146.399993968506,4|10,3:1|3:2,0:0:0:0:
147,356,46245,2,0,P|129:318|131:284,1,73.199996984253,2|0,0:0|3:0,0:0:0:0:
188,221,46578,2,0,P|204:188|204:152,1,73.199996984253,2|8,0:0|3:2,0:0:0:0:
145,86,46911,6,0,P|169:30|251:42,1,146.399993968506,2|2,0:0|0:0,0:0:0:0:
310,101,47411,1,10,3:2:0:0:
310,101,47578,1,2,0:0:0:0:
378,46,47745,2,0,B|393:121,1,73.199996984253,2|0,3:2|0:0,0:0:0:0:
478,137,48078,2,0,B|464:192|464:192|466:197|466:197|454:253,1,109.79999547638,10|0,3:2|0:0,0:0:0:0:
463,286,48411,5,2,3:2:0:0:
385,327,48578,1,2,0:0:0:0:
332,256,48745,2,0,P|287:243|247:289,1,109.79999547638,10|0,3:2|0:0,0:0:0:0:
242,328,49078,5,2,3:2:0:0:
161,293,49245,1,2,0:0:0:0:
88,341,49411,2,0,P|77:306|65:271,1,73.199996984253,10|2,3:2|0:0,0:0:0:0:
30,189,49745,2,0,B|124:182|65:141|164:123,1,146.399993968506,0|8,3:0|3:2,0:0:0:0:
238,167,50245,1,2,0:0:0:0:
238,167,50411,2,0,P|271:187|321:183,1,73.199996984253,2|8,3:2|0:0,0:0:0:0:
380,141,50745,2,0,P|388:105|397:70,1,73.199996984253,8|0,3:2|0:0,0:0:0:0:
336,6,51078,6,0,B|289:13|289:13|275:28|275:28|232:34,1,109.79999547638,6|0,3:2|0:0,0:0:0:0:
193,15,51411,1,10,3:2:0:0:
111,48,51578,2,0,P|103:87|94:130,1,73.199996984253,2|0,0:0|3:0,0:0:0:0:
158,181,51911,2,0,P|166:220|175:263,1,73.199996984253,2|8,0:0|3:2,0:0:0:0:
133,331,52245,6,0,P|166:283|255:310,1,146.399993968506,2|2,0:0|0:0,0:0:0:0:
304,367,52745,1,10,3:2:0:0:
304,367,52912,1,2,0:0:0:0:
381,326,53078,2,0,P|391:290|410:258,1,73.199996984253,2|0,3:2|0:0,0:0:0:0:
360,185,53411,2,0,P|350:149|313:102,1,73.199996984253,8|2,3:2|0:0,0:0:0:0:
287,41,53745,5,2,3:2:0:0:
210,83,53911,1,2,0:0:0:0:
150,18,54078,2,0,P|108:15|78:32,1,73.199996984253,8|2,3:2|0:0,0:0:0:0:
13,84,54411,2,0,P|19:119|27:155,1,73.199996984253,0|2,3:0|0:0,0:0:0:0:
89,218,54745,1,10,3:2:0:0:
39,290,54911,1,2,0:0:0:0:
96,356,55078,6,0,B|173:369|139:305|232:321,2,146.399993968506,4|8|0,3:2|3:2|3:0,0:0:0:0:
39,290,55911,1,8,0:0:0:0:
89,218,56078,2,0,P|124:202|160:208,1,73.199996984253,2|2,3:2|0:0,0:0:0:0:
237,243,56411,6,0,B|266:195|266:195|222:92,1,146.399993968506,4|10,3:1|3:2,0:0:0:0:
167,50,56911,2,0,P|201:38|235:24,1,73.199996984253,2|0,0:0|3:0,0:0:0:0:
320,0,57245,2,0,P|354:10|388:24,1,73.199996984253,2|8,0:0|3:2,0:0:0:0:
458,77,57577,6,0,P|411:129|431:196,1,146.399993968506,2|2,0:0|0:0,0:0:0:0:
501,257,58077,1,10,3:2:0:0:
501,257,58244,1,2,0:0:0:0:
457,333,58411,2,0,P|421:337|388:321,1,73.199996984253,2|0,3:2|0:0,0:0:0:0:
334,251,58745,2,0,P|301:235|265:239,1,73.199996984253,10|2,3:2|0:0,0:0:0:0:
193,290,59078,5,2,3:2:0:0:
120,338,59244,1,2,0:0:0:0:
43,295,59411,2,0,P|36:255|28:223,1,73.199996984253,10|0,3:2|0:0,0:0:0:0:
16,136,59744,5,2,3:2:0:0:
62,61,59911,1,2,0:0:0:0:
144,90,60078,2,0,P|176:105|212:101,1,73.199996984253,10|2,3:2|0:0,0:0:0:0:
300,94,60411,2,0,B|283:147|283:147|297:178|297:178|279:239,1,146.399993968506,0|8,3:0|3:2,0:0:0:0:
305,321,60911,1,2,0:0:0:0:
305,321,61078,2,0,P|252:329|229:335,1,73.199996984253,0|8,3:0|0:0,0:0:0:0:
156,290,61411,2,0,P|151:254|166:221,1,73.199996984253,8|0,3:2|0:0,0:0:0:0:
239,171,61745,6,0,B|286:164|286:164|300:149|300:149|343:143,1,109.79999547638,4|0,3:2|0:0,0:0:0:0:
376,118,62077,1,10,3:2:0:0:
460,143,62244,2,0,P|467:107|474:71,1,73.199996984253,2|0,0:0|3:0,0:0:0:0:
404,200,62578,1,2,0:0:0:0:
404,200,62745,2,0,P|411:236|419:272,1,73.199996984253,10|0,3:2|0:0,0:0:0:0:
378,351,63078,1,2,3:2:0:0:
378,351,63245,2,0,B|307:344|307:344|301:338|301:338|222:330,1,146.399993968506,2|2,0:0|0:0,0:0:0:0:
154,295,63745,2,0,P|161:221|229:216,1,146.399993968506,2|10,3:2|3:2,0:0:0:0:
301,260,64245,1,0,0:0:0:0:
301,260,64411,6,0,P|320:197|359:77,1,183.600001120605,4|0,3:1|3:0,0:0:0:0:
433,58,65078,2,0,P|375:9|301:26,1,147.600002252197,8|10,0:0|0:0,0:0:0:0:
267,88,65745,6,0,L|202:101,1,49.2000007507324,2|10,3:2|0:0,0:0:0:0:
166,38,66078,2,0,L|117:28,1,49.2000007507324,2|2,3:2|3:2,0:0:0:0:
47,60,66411,1,8,0:0:0:0:
47,60,66578,1,0,3:0:0:0:
5,127,66745,2,0,L|14:175,1,49.2000007507324,8|0,0:0|0:0,0:0:0:0:
87,201,67078,6,0,L|73:302,1,98.4000015014649,4|2,3:1|0:0,0:0:0:0:
130,352,67578,2,0,P|162:322|215:337,1,98.4000015014649,2|2,3:2|0:0,0:0:0:0:
278,384,68078,1,0,3:0:0:0:
278,384,68245,6,0,L|378:360,1,98.4000015014649,2|10,3:2|0:0,0:0:0:0:
455,376,68745,1,2,3:2:0:0:
455,376,68911,1,2,0:0:0:0:
493,307,69078,2,0,P|479:260|466:221,1,73.8000011260987,10|0,0:0|0:0,0:0:0:0:
439,216,69411,2,0,P|449:180|458:153,1,49.2000007507324,4|0,3:2|0:0,0:0:0:0:
509,112,69745,6,0,P|495:65|477:13,1,98.4000015014649,4|2,3:1|0:0,0:0:0:0:
405,6,70245,1,0,3:0:0:0:
405,6,70411,2,0,P|376:5|356:16,1,49.2000007507324,10|2,0:0|0:0,0:0:0:0:
342,94,70745,1,2,3:2:0:0:
342,94,70911,6,0,P|294:81|246:72,1,98.4000015014649,2|10,3:2|0:0,0:0:0:0:
186,29,71411,1,10,0:0:0:0:
186,29,71578,1,0,3:0:0:0:
121,74,71745,2,0,P|106:109|117:159,1,73.8000011260987,10|0,0:0|0:0,0:0:0:0:
143,165,72078,2,0,P|151:199|143:221,1,49.2000007507324,12|0,0:0|0:0,0:0:0:0:
102,276,72411,6,0,P|149:262|201:244,1,98.4000015014649,4|2,3:1|0:0,0:0:0:0:
268,211,72911,1,2,3:2:0:0:
268,211,73078,2,0,P|315:225|331:229,1,49.2000007507324,8|2,0:0|0:0,0:0:0:0:
346,302,73411,1,2,3:2:0:0:
346,302,73578,2,0,P|393:288|460:277,1,98.4000015014649,0|10,3:0|0:0,0:0:0:0:
501,227,74078,6,0,P|501:181|480:147,1,73.8000011260987,2|0,3:2|0:0,0:0:0:0:
452,141,74411,2,0,P|451:117|459:87,1,49.2000007507324,10|2,0:0|0:0,0:0:0:0:
501,28,74745,1,2,3:2:0:0:
501,28,74911,1,2,0:0:0:0:
426,1,75078,6,0,L|375:11,1,49.2000007507324,14|0,0:0|3:0,0:0:0:0:
344,81,75411,2,0,L|295:71,1,49.2000007507324,2|2,0:0|3:2,0:0:0:0:
238,24,75745,1,2,0:0:0:0:
238,24,75911,1,2,3:2:0:0:
177,75,76078,1,10,0:0:0:0:
190,152,76245,1,0,3:0:0:0:
261,184,76411,2,0,L|314:173,1,49.2000007507324,10|2,0:0|3:2,0:0:0:0:
227,257,76745,2,0,L|174:246,1,49.2000007507324,10|2,0:0|3:2,0:0:0:0:
263,327,77078,5,10,0:0:0:0:
464,193,77578,1,2,0:0:0:0:
406,113,77745,6,0,B|343:125|350:84|277:95,1,122.40000074707,4|8,3:1|0:0,0:0:0:0:
243,182,78245,1,2,3:2:0:0:
243,182,78411,2,0,P|197:173|141:160,1,91.8000005603027,2|0,0:0|0:0,0:0:0:0:
149,121,78745,2,0,P|119:128|89:133,1,61.2000003735352,8|2,0:0|0:0,0:0:0:0:
2,88,79078,6,0,P|-13:131|2:179,1,91.8000005603027,2|0,3:2|0:0,0:0:0:0:
37,196,79411,2,0,P|50:229|44:260,1,61.2000003735352,10|0,0:0|3:0,0:0:0:0:
0,326,79745,1,2,0:0:0:0:
75,364,79911,1,2,3:2:0:0:
138,305,80078,2,0,P|168:292|202:296,1,61.2000003735352,10|0,0:0|0:0,0:0:0:0:
268,350,80411,6,0,P|298:363|332:359,1,61.2000003735352,12|0,0:0|0:0,0:0:0:0:
409,322,80745,2,0,P|418:281|427:256,1,61.2000003735352,2|0,0:0|3:0,0:0:0:0:
350,198,81078,2,0,P|341:156|332:131,1,61.2000003735352,2|0,0:0|3:0,0:0:0:0:
406,62,81411,2,0,P|447:70|472:79,1,61.2000003735352,12|0,0:3|3:0,0:0:0:0:
313,8,81745,6,0,B|211:-6|165:39|122:104|204:187|266:136,1,306.000001867676,14|0,0:0|3:0,0:0:0:0:
342,96,82745,2,0,P|360:134|340:194,1,91.8000005603027,8|0,0:0|0:0,0:0:0:0:
349,225,83078,5,6,3:2:0:0:
319,305,83245,2,0,P|288:310|259:319,1,61.2000003735352,2|2,0:0|3:2,0:0:0:0:
177,342,83578,1,10,0:0:0:0:
18,292,83911,1,10,0:0:0:0:
18,292,84078,1,2,0:0:0:0:
64,219,84245,2,0,P|52:158|40:98,1,122.40000074707,10|0,0:0|0:0,0:0:0:0:
22,14,84745,5,4,3:1:0:0:
256,192,84911,12,0,88411,0:0:0:0:
