osu file format v14

[General]
AudioFilename: audio.mp3
AudioLeadIn: 0
PreviewTime: 45661
Countdown: 0
SampleSet: Soft
StackLeniency: 0.7
Mode: 0
LetterboxInBreaks: 0
WidescreenStoryboard: 1

[Editor]
DistanceSpacing: 0.9
BeatDivisor: 2
GridSize: 16
TimelineZoom: 1.3

[Metadata]
Title:Pyramid Dai Gyakuten (TV Size)
TitleUnicode:ピラミッド大逆転 (TV Size)
Artist:Spira Spica
ArtistUnicode:スピラ・スピカ
Creator:mrforse
Version:Ryxliee's Normal
Source:俺だけ入れる隠しダンジョン
Tags:j-pop jpop pop japanese female vocals vocalist anime opening op Ryxliee Tachibana_ Baack FlyzyStyle The Hidden Dungeon Only I Can Enter Ore dake Haireru Kakushi Daigyakuten Pyramid Great Reversal
BeatmapID:3404835
BeatmapSetID:1629577

[Difficulty]
HPDrainRate:3
CircleSize:3
OverallDifficulty:4.5
ApproachRate:5.5
SliderMultiplier:0.999999999999999
SliderTickRate:1

[Events]
//Background and Video events
0,0,"bg.jpg",0,0
//Break Periods
//Storyboard Layer 0 (Background)
//Storyboard Layer 1 (Fail)
//Storyboard Layer 2 (Pass)
//Storyboard Layer 3 (Foreground)
//Storyboard Layer 4 (Overlay)
//Storyboard Sound Samples

[TimingPoints]
412,333.333333333333,4,2,1,65,1,0
412,-100,4,2,1,65,0,0
1078,-111.111111111111,4,2,1,65,0,0
5745,-95.2380952380952,4,2,1,75,0,0
11078,-100,4,2,1,60,0,0
20411,-100,4,2,1,70,0,0
21745,-100,4,2,1,60,0,0
32411,-105.263157894737,4,2,1,55,0,0
43078,-95.2380952380952,4,2,1,70,0,0
45745,-90.9090909090909,4,2,1,80,0,1
55078,-90.9090909090909,4,2,1,80,0,0
56411,-90.9090909090909,4,2,1,80,0,1
64411,-100,4,2,1,70,0,0
67078,-105.263157894737,4,2,1,70,0,0
77745,-95.2380952380952,4,2,1,75,0,0
84578,-95.2380952380952,4,2,1,75,0,0
84745,-95.2380952380952,4,2,1,75,0,0
88411,-95.2380952380952,4,2,1,5,0,0

[Colours]
Combo1 : 92,189,226
Combo2 : 247,218,117
Combo3 : 242,142,140

[HitObjects]
11,264,412,5,6,3:2:0:0:
73,212,745,1,10,0:0:0:0:
151,232,1078,2,0,P|162:251|170:272,1,44.999998626709,2|0,3:2|3:0,0:0:0:0:
174,312,1411,2,0,P|192:323|214:328,1,44.999998626709,10|8,0:0|0:0,0:0:0:0:
249,351,1745,2,0,P|263:308|280:266,1,89.999997253418,4|10,3:1|0:0,0:0:0:0:
355,237,2411,1,2,3:2:0:0:
354,155,2745,2,0,P|333:145|312:137,1,44.999998626709,10|8,0:0|0:0,0:0:0:0:
294,101,3078,6,0,B|196:145|273:184|179:228,2,179.999994506836,4|4|4,3:2|3:1|3:2,0:0:0:0:
480,21,5245,2,0,P|492:39|495:61,1,44.999998626709,0|8,3:0|0:0,0:0:0:0:
479,154,5745,6,0,P|428:139|377:127,1,104.999996795654,4|8,3:1|0:0,0:0:0:0:
354,92,6245,1,2,3:2:0:0:
354,92,6411,2,0,P|307:113|293:161,1,104.999996795654,2|8,0:0|0:0,0:0:0:0:
320,207,6911,1,2,0:0:0:0:
320,207,7078,1,2,3:2:0:0:
262,281,7411,1,10,0:0:0:0:
170,255,7745,2,0,P|147:242|123:231,2,52.4999983978271,2|2|10,0:0|3:2|0:0,0:0:0:0:
160,348,8411,6,0,P|141:365|115:368,1,52.4999983978271,14|0,0:0|3:0,0:0:0:0:
70,383,8745,2,0,P|55:332|36:283,1,104.999996795654,2|2,0:0|0:0,0:0:0:0:
5,255,9245,1,0,3:0:0:0:
5,255,9411,2,0,P|10:229|17:204,1,52.4999983978271,10|0,0:0|3:0,0:0:0:0:
51,171,9745,1,10,3:2:0:0:
51,170,11078,6,0,P|99:166|138:196,1,99.9999999999999,4|8,3:1|0:0,0:0:0:0:
162,240,11578,1,2,3:2:0:0:
162,240,11745,1,2,0:0:0:0:
205,318,12078,1,10,0:0:0:0:
289,287,12411,2,0,P|338:295|387:305,1,99.9999999999999,2|10,3:2|0:0,0:0:0:0:
422,334,12911,1,2,3:2:0:0:
501,288,13245,1,2,3:2:0:0:
501,288,13411,1,8,0:0:0:0:
480,200,13745,6,0,P|430:190|381:181,1,99.9999999999999,2|10,3:2|0:0,0:0:0:0:
344,205,14245,2,0,P|295:201|264:164,1,99.9999999999999,2|2,3:2|3:2,0:0:0:0:
276,120,14745,1,8,0:0:0:0:
240,36,15078,2,0,P|199:10|150:15,1,99.9999999999999,2|8,3:2|0:0,0:0:0:0:
111,31,15578,1,0,3:0:0:0:
111,31,15745,2,0,P|96:78|81:126,1,99.9999999999999,0|8,0:0|0:0,0:0:0:0:
18,190,16411,6,0,B|67:213|43:230|94:253,1,99.9999999999999,2|10,3:2|0:0,0:0:0:0:
123,286,16911,1,2,3:2:0:0:
123,286,17078,2,0,P|146:276|170:269,1,50,2|2,0:0|3:2,0:0:0:0:
214,261,17411,1,8,0:0:0:0:
243,175,17745,2,0,P|263:131|310:118,1,99.9999999999999,2|8,3:2|0:0,0:0:0:0:
348,94,18245,1,2,3:2:0:0:
426,49,18578,1,0,3:0:0:0:
426,49,18745,1,8,0:0:0:0:
495,106,19078,6,0,P|479:153|463:200,1,99.9999999999999,2|10,3:2|0:0,0:0:0:0:
488,244,19578,1,2,3:2:0:0:
488,244,19745,2,0,P|466:290|400:292,1,99.9999999999999,2|8,0:0|0:0,0:0:0:0:
347,248,20411,1,14,0:0:0:0:
347,248,20578,2,0,B|300:265|300:265|298:269|298:269|256:287,1,99.9999999999999,2|0,3:0|3:0,0:0:0:0:
237,328,21078,2,0,B|213:324|213:324|209:325|209:325|187:322,1,50,2|0,0:3|3:0,0:0:0:0:
142,323,21411,1,12,0:0:0:0:
81,255,21745,6,0,P|68:206|53:158,1,99.9999999999999,4|8,3:1|0:0,0:0:0:0:
48,118,22245,1,2,3:2:0:0:
48,118,22412,1,2,0:0:0:0:
116,59,22745,1,10,0:0:0:0:
203,80,23078,2,0,P|230:119|213:177,1,99.9999999999999,2|10,3:2|0:0,0:0:0:0:
186,197,23578,1,2,3:2:0:0:
153,283,23911,1,2,3:2:0:0:
153,283,24078,1,8,0:0:0:0:
214,348,24412,6,0,P|262:332|310:319,1,99.9999999999999,2|10,3:2|0:0,0:0:0:0:
351,339,24911,2,0,P|385:304|380:256,1,99.9999999999999,0|2,3:0|3:2,0:0:0:0:
352,221,25412,1,10,0:0:0:0:
274,176,25745,2,0,P|257:130|281:88,1,99.9999999999999,0|8,3:0|0:0,0:0:0:0:
314,57,26245,1,0,3:0:0:0:
314,57,26412,2,0,P|301:35|288:14,2,50,0|0|8,0:0|3:0|0:0,0:0:0:0:
395,95,27078,6,0,B|444:118|420:135|471:158,1,99.9999999999999,2|10,3:2|0:0,0:0:0:0:
507,192,27578,1,2,3:2:0:0:
507,192,27745,2,0,P|512:216|507:240,1,50,2|2,0:0|3:2,0:0:0:0:
503,285,28078,1,8,0:0:0:0:
431,339,28412,2,0,P|384:321|335:309,1,99.9999999999999,0|8,3:0|0:0,0:0:0:0:
298,283,28912,1,2,3:2:0:0:
229,340,29245,1,0,3:0:0:0:
229,340,29412,1,8,0:0:0:0:
141,318,29745,6,0,P|114:275|85:234,1,99.9999999999999,2|10,3:2|0:0,0:0:0:0:
49,219,30245,1,2,3:2:0:0:
49,219,30411,2,0,P|47:170|82:137,1,99.9999999999999,2|10,0:0|0:0,0:0:0:0:
149,76,31078,1,14,0:0:0:0:
149,76,31245,1,0,3:0:0:0:
229,127,31578,1,8,0:0:0:0:
229,127,31745,2,0,B|220:174|220:174|216:179|216:179|207:223,1,99.9999999999999,0|12,0:0|0:0,0:0:0:0:
133,264,32411,6,0,P|141:310|179:336,1,94.9999974632263,4|0,3:1|3:0,0:0:0:0:
255,376,33078,1,2,3:2:0:0:
331,335,33411,1,2,3:2:0:0:
331,335,33578,2,0,P|339:288|352:242,1,94.9999974632263,10|2,0:0|0:0,0:0:0:0:
425,196,34245,1,2,0:0:0:0:
477,128,34578,2,0,P|465:104|452:81,1,47.4999987316131,2|0,0:0|3:0,0:0:0:0:
444,49,34911,1,8,0:0:0:0:
444,49,35078,6,0,B|388:55|405:82|359:88,1,94.9999974632263,2|2,3:2|3:2,0:0:0:0:
287,41,35745,2,0,P|264:49|249:66,1,47.4999987316131,2|2,3:2|0:0,0:0:0:0:
226,152,36245,1,10,0:0:0:0:
226,152,36411,2,0,P|247:194|256:240,1,94.9999974632263,2|0,3:2|3:0,0:0:0:0:
320,297,37078,2,0,P|307:317|300:339,1,47.4999987316131,2|8,3:2|0:0,0:0:0:0:
281,378,37411,1,12,3:2:0:0:
206,336,37745,6,0,P|163:315|117:303,1,94.9999974632263,4|0,3:1|3:0,0:0:0:0:
32,310,38411,1,2,3:2:0:0:
5,234,38744,1,2,3:2:0:0:
5,234,38911,2,0,P|14:188|53:165,1,94.9999974632263,10|2,0:0|0:0,0:0:0:0:
134,195,39578,1,2,0:0:0:0:
208,155,39911,2,0,P|215:132|223:109,1,47.4999987316131,2|12,0:0|3:2,0:0:0:0:
255,81,40244,1,2,0:0:0:0:
255,81,40411,6,0,P|300:68|346:56,1,94.9999974632263,4|2,3:1|0:0,0:0:0:0:
388,39,40911,1,0,3:0:0:0:
388,39,41078,1,8,0:0:0:0:
478,137,41578,1,10,0:0:0:0:
478,137,41745,2,0,P|459:151|451:173,1,47.4999987316131,2|10,3:2|0:0,0:0:0:0:
461,215,42078,2,0,P|439:224|419:237,1,47.4999987316131,2|2,0:0|3:2,0:0:0:0:
404,277,42411,2,0,P|356:282|310:290,1,94.9999974632263,10|0,0:0|3:0,0:0:0:0:
216,303,43078,6,0,B|207:287|194:273|194:273|211:245|226:206,1,104.999996795654,14|2,0:0|0:0,0:0:0:0:
268,192,43578,1,2,3:2:0:0:
268,192,43745,2,0,B|276:176|289:162|289:162|272:134|257:95,1,104.999996795654,2|2,0:0|0:0,0:0:0:0:
185,41,44411,2,0,P|158:46|131:52,1,52.4999983978271,14|2,0:0|3:2,0:0:0:0:
102,87,44745,1,10,0:0:0:0:
17,44,45078,1,2,2:0:0:0:
10,241,45745,6,0,B|25:271|52:277|52:277|74:258|100:259,1,110.000003356934,4|10,3:1|3:2,0:0:0:0:
137,226,46245,2,0,B|159:237|159:237|163:242|163:242|187:255,1,55.0000016784668,2|0,0:0|3:0,0:0:0:0:
213,293,46578,1,2,0:0:0:0:
288,356,46911,2,0,P|341:344|396:333,1,110.000003356934,2|2,0:0|0:0,0:0:0:0:
439,355,47411,2,0,B|464:343|464:343|476:318,1,55.0000016784668,10|2,3:2|0:0,0:0:0:0:
502,276,47745,1,2,3:2:0:0:
451,190,48078,1,10,3:2:0:0:
365,239,48411,6,0,P|337:244|311:249,1,55.0000016784668,2|2,3:2|0:0,0:0:0:0:
270,279,48745,1,10,3:2:0:0:
171,273,49078,2,0,B|148:256|148:256|144:229,1,55.0000016784668,2|2,3:2|0:0,0:0:0:0:
100,207,49411,2,0,B|103:178|103:178|124:162,1,55.0000016784668,10|2,3:2|0:0,0:0:0:0:
139,115,49745,2,0,B|190:122|190:122|199:120|199:120|250:127,1,110.000003356934,0|8,3:0|3:2,0:0:0:0:
292,159,50245,1,2,0:0:0:0:
292,159,50411,2,0,L|310:210,2,55.0000016784668,2|8|8,3:2|0:0|3:2,0:0:0:0:
339,72,51078,6,0,B|363:52|395:56|395:56|405:88|423:95,1,110.000003356934,6|10,3:2|3:2,0:0:0:0:
459,128,51578,2,0,P|452:154|445:181,1,55.0000016784668,2|0,0:0|3:0,0:0:0:0:
408,213,51911,1,2,0:0:0:0:
472,288,52245,2,0,B|460:307|452:331|452:331|415:336|392:348,1,110.000003356934,2|2,0:0|0:0,0:0:0:0:
354,380,52745,2,0,B|330:372|330:372|324:372|324:372|298:365,1,55.0000016784668,10|2,3:2|0:0,0:0:0:0:
252,376,53078,1,2,3:2:0:0:
209,286,53411,1,8,3:2:0:0:
239,192,53745,6,0,P|260:175|287:171,1,55.0000016784668,2|2,3:2|0:0,0:0:0:0:
340,191,54078,1,8,3:2:0:0:
340,191,54245,2,0,P|387:167|399:115,1,110.000003356934,2|2,0:0|0:0,0:0:0:0:
406,65,54745,1,10,3:2:0:0:
314,26,55078,1,4,3:2:0:0:
232,82,55411,1,8,3:2:0:0:
139,47,55745,2,0,P|112:50|90:67,1,55.0000016784668,0|8,3:0|0:0,0:0:0:0:
52,99,56078,1,2,3:2:0:0:
38,196,56411,6,0,B|69:193|88:221|68:247|136:258,1,110.000003356934,4|10,3:1|3:2,0:0:0:0:
148,298,56911,2,0,P|174:292|201:287,1,55.0000016784668,2|0,0:0|3:0,0:0:0:0:
249,302,57244,1,2,0:0:0:0:
326,241,57577,2,0,B|331:226|343:209|343:209|324:175|311:142,1,110.000003356934,2|2,0:0|0:0,0:0:0:0:
272,112,58078,2,0,B|281:86|281:86|286:82|286:82|293:61,1,55.0000016784668,10|2,3:2|0:0,0:0:0:0:
314,16,58411,1,2,3:2:0:0:
411,0,58744,1,10,3:2:0:0:
473,76,59078,6,0,B|472:104|472:104|454:124,1,55.0000016784668,2|2,3:2|0:0,0:0:0:0:
439,171,59412,1,10,3:2:0:0:
352,219,59745,2,0,P|327:206|301:196,1,55.0000016784668,2|2,3:2|0:0,0:0:0:0:
271,157,60078,2,0,P|244:162|217:171,1,55.0000016784668,10|2,3:2|0:0,0:0:0:0:
168,163,60412,2,0,B|147:213|147:213|165:264,1,110.000003356934,0|8,3:0|3:2,0:0:0:0:
198,309,60912,1,2,0:0:0:0:
198,309,61078,2,0,B|225:313|225:313|229:317|229:317|251:320,2,55.0000016784668,0|8|8,3:0|0:0|3:2,0:0:0:0:
111,356,61745,6,0,P|58:356|29:312,1,110.000003356934,4|10,3:2|3:2,0:0:0:0:
2,271,62245,2,0,B|20:222|20:222|18:214|18:214|34:167,1,110.000003356934,2|2,0:0|0:0,0:0:0:0:
37,117,62745,1,10,3:2:0:0:
123,66,63078,1,2,3:2:0:0:
123,66,63245,2,0,B|150:63|173:82|173:82|177:79|177:79|195:100|220:103,1,110.000003356934,2|2,0:0|0:0,0:0:0:0:
270,100,63745,1,2,3:2:0:0:
331,177,64078,1,10,3:2:0:0:
287,255,64411,6,0,B|247:267|211:227|234:231|200:195|153:208,1,150,4|0,3:1|3:0,0:0:0:0:
114,229,65078,1,8,0:0:0:0:
162,360,65578,1,10,0:0:0:0:
162,360,65745,2,0,P|184:369|210:365,1,50,2|10,3:2|0:0,0:0:0:0:
258,369,66078,1,2,3:2:0:0:
258,368,66245,2,0,P|295:338|344:340,1,99.9999999999999,2|0,3:2|3:0,0:0:0:0:
384,362,66745,1,8,0:0:0:0:
465,337,67078,6,0,B|481:328|489:302|489:302|468:286|459:260,1,94.9999974632263,4|2,3:1|0:0,0:0:0:0:
440,222,67578,1,2,3:2:0:0:
492,154,67911,1,2,0:0:0:0:
447,80,68245,2,0,P|399:85|355:100,1,94.9999974632263,2|10,3:2|0:0,0:0:0:0:
323,129,68745,2,0,P|327:152|340:171,2,47.4999987316131,2|2|10,3:2|0:0|0:0,0:0:0:0:
264,67,69411,1,4,3:2:0:0:
193,115,69745,6,0,P|148:99|101:94,1,94.9999974632263,4|2,3:1|0:0,0:0:0:0:
22,128,70411,2,0,P|9:147|11:171,1,47.4999987316131,10|2,0:0|0:0,0:0:0:0:
33,214,70745,1,2,3:2:0:0:
33,214,70911,1,2,3:2:0:0:
98,277,71245,1,10,0:0:0:0:
98,277,71411,2,0,P|88:298|81:321,2,47.4999987316131,10|0|10,0:0|3:0|0:0,0:0:0:0:
173,235,72078,1,12,0:0:0:0:
225,300,72411,6,0,P|270:313|310:290,1,94.9999974632263,4|2,3:1|0:0,0:0:0:0:
353,291,72911,2,0,P|393:267|437:280,1,94.9999974632263,2|2,3:2|0:0,0:0:0:0:
484,285,73410,1,2,3:2:0:0:
484,285,73578,1,0,3:0:0:0:
506,205,73911,1,10,0:0:0:0:
506,205,74078,2,0,B|455:187|472:167|429:151,1,94.9999974632263,2|10,3:2|0:0,0:0:0:0:
358,104,74744,1,2,3:2:0:0:
287,152,75078,6,0,P|300:197|310:244,1,94.9999974632263,14|2,0:0|0:0,0:0:0:0:
336,284,75578,1,2,3:2:0:0:
336,283,75745,2,0,P|327:306|309:321,1,47.4999987316131,2|2,0:0|3:2,0:0:0:0:
285,357,76078,1,10,0:0:0:0:
285,357,76245,1,0,3:0:0:0:
215,307,76578,2,0,P|192:299|169:292,1,47.4999987316131,2|10,3:2|0:0,0:0:0:0:
135,319,76911,2,0,P|112:325|89:333,1,47.4999987316131,2|10,3:2|0:0,0:0:0:0:
15,158,77745,6,0,P|36:111|85:96,1,104.999996795654,4|8,3:1|0:0,0:0:0:0:
124,68,78245,1,2,3:2:0:0:
124,68,78411,2,0,P|174:80|225:95,1,104.999996795654,2|8,0:0|0:0,0:0:0:0:
257,137,78911,1,2,0:0:0:0:
257,137,79078,1,2,3:2:0:0:
344,101,79411,1,10,0:0:0:0:
429,141,79745,2,0,P|454:134|480:130,2,52.4999983978271,2|2|10,0:0|3:2|0:0,0:0:0:0:
367,212,80411,6,0,P|357:236|359:261,1,52.4999983978271,12|0,0:0|0:0,0:0:0:0:
393,295,80745,2,0,P|375:342|327:361,1,104.999996795654,2|2,0:0|0:0,0:0:0:0:
287,381,81245,1,0,3:0:0:0:
287,381,81411,2,0,P|261:373|236:367,1,52.4999983978271,12|0,0:3|3:0,0:0:0:0:
191,351,81745,1,14,0:0:0:0:
60,161,82578,1,0,3:0:0:0:
60,161,82745,1,8,0:0:0:0:
141,113,83078,6,0,P|166:119|185:136,1,52.4999983978271,6|2,3:2|0:0,0:0:0:0:
218,178,83411,1,2,3:2:0:0:
218,178,83578,1,10,0:0:0:0:
291,236,83911,2,0,P|316:231|342:226,1,52.4999983978271,10|2,0:0|0:0,0:0:0:0:
372,189,84245,2,0,P|422:195|453:236,1,104.999996795654,10|0,0:0|0:0,0:0:0:0:
473,279,84745,1,4,3:1:0:0:
256,192,84911,12,0,88411,0:0:0:0:
