osu file format v14

[General]
AudioFilename: audio.mp3
AudioLeadIn: 0
PreviewTime: 45661
Countdown: 0
SampleSet: Soft
StackLeniency: 0.7
Mode: 0
LetterboxInBreaks: 0
WidescreenStoryboard: 1

[Editor]
DistanceSpacing: 3
BeatDivisor: 4
GridSize: 32
TimelineZoom: 4.787998

[Metadata]
Title:Pyramid Dai Gyakuten (TV Size)
TitleUnicode:ピラミッド大逆転 (TV Size)
Artist:Spira Spica
ArtistUnicode:スピラ・スピカ
Creator:mrforse
Version:Flyzy's Insane
Source:俺だけ入れる隠しダンジョン
Tags:j-pop jpop pop japanese female vocals vocalist anime opening op Ryxliee Tachibana_ Baack FlyzyStyle The Hidden Dungeon Only I Can Enter Ore dake Haireru Kakushi Daigyakuten Pyramid Great Reversal
BeatmapID:3404834
BeatmapSetID:1629577

[Difficulty]
HPDrainRate:5
CircleSize:4
OverallDifficulty:7.5
ApproachRate:9
SliderMultiplier:1.68
SliderTickRate:1

[Events]
//Background and Video events
0,0,"bg.jpg",0,0
//Break Periods
//Storyboard Layer 0 (Background)
//Storyboard Layer 1 (Fail)
//Storyboard Layer 2 (Pass)
//Storyboard Layer 3 (Foreground)
//Storyboard Layer 4 (Overlay)
//Storyboard Sound Samples

[TimingPoints]
412,333.333333333333,4,2,1,65,1,0
412,-95.2380952380952,4,2,1,65,0,0
661,-95.2380952380952,4,2,1,5,0,0
745,-133.333333333333,4,2,1,65,0,0
1745,-86.9565217391304,4,2,1,65,0,0
1995,-86.9565217391304,4,2,1,5,0,0
2078,-133.333333333333,4,2,1,65,0,0
2661,-133.333333333333,4,2,1,5,0,0
2745,-133.333333333333,4,2,1,65,0,0
3078,-95.2380952380952,4,2,1,65,0,0
5245,-86.9565217391304,4,2,1,65,0,0
5661,-86.9565217391304,4,2,1,5,0,0
5745,-105.263157894737,4,2,1,75,0,0
10745,-181.818181818182,4,2,1,45,0,0
10995,-181.818181818182,4,2,1,5,0,0
11078,-133.333333333333,4,2,1,60,0,0
13995,-133.333333333333,4,2,1,5,0,0
14078,-133.333333333333,4,2,1,60,0,0
16661,-133.333333333333,4,2,1,5,0,0
16745,-133.333333333333,4,2,1,60,0,0
19328,-133.333333333333,4,2,1,5,0,0
19411,-133.333333333333,4,2,1,60,0,0
20078,-86.9565217391303,4,2,1,60,0,0
20328,-86.9565217391303,4,2,1,5,0,0
20411,-86.9565217391303,4,2,1,70,0,0
21411,-86.9565217391306,4,2,1,70,0,0
21661,-86.9565217391306,4,2,1,5,0,0
21745,-133.333333333333,4,2,1,60,0,0
23328,-133.333333333333,4,2,1,5,0,0
23411,-133.333333333333,4,2,1,60,0,0
24661,-133.333333333333,4,2,1,5,0,0
24745,-133.333333333333,4,2,1,60,0,0
25995,-133.333333333333,4,2,1,5,0,0
26078,-133.333333333333,4,2,1,60,0,0
26995,-133.333333333333,4,2,1,5,0,0
27078,-133.333333333333,4,2,1,60,0,0
28495,-133.333333333333,4,2,1,5,0,0
28578,-133.333333333333,4,2,1,60,0,0
29995,-133.333333333333,4,2,1,5,0,0
30078,-133.333333333333,4,2,1,60,0,0
31245,-117.647058823529,4,2,1,60,0,0
32078,-86.9565217391302,4,2,1,60,0,0
32328,-86.9565217391302,4,2,1,5,0,0
32411,-117.647058823529,4,2,1,55,0,0
35328,-117.647058823529,4,2,1,5,0,0
35411,-117.647058823529,4,2,1,55,0,0
43078,-105.263157894737,4,2,1,70,0,0
43327,-105.263157894737,4,2,1,5,0,0
43411,-105.263157894737,4,2,1,70,0,0
43994,-105.263157894737,4,2,1,5,0,0
44078,-105.263157894737,4,2,1,70,0,0
45078,-181.818181818182,4,2,1,70,0,0
45745,-95.2380952380953,4,2,1,80,0,1
45994,-95.2380952380953,4,2,1,5,0,1
46078,-95.2380952380953,4,2,1,80,0,1
50578,-80,4,2,1,80,0,1
50661,-80,4,2,1,5,0,1
50745,-80,4,2,1,80,0,1
50995,-80,4,2,1,5,0,1
51078,-95.2380952380952,4,2,1,80,0,1
55078,-80,4,2,1,80,0,0
55161,-80,4,2,1,5,0,0
55411,-80,4,2,1,80,0,0
55495,-80,4,2,1,5,0,0
55745,-80,4,2,1,80,0,0
55828,-80,4,2,1,5,0,0
55911,-80,4,2,1,80,0,0
56411,-95.2380952380952,4,2,1,80,0,1
56660,-95.2380952380952,4,2,1,5,0,1
56745,-95.2380952380952,4,2,1,80,0,1
57827,-95.2380952380952,4,2,1,5,0,1
57911,-95.2380952380952,4,2,1,80,0,1
59660,-95.2380952380952,4,2,1,5,0,1
59745,-95.2380952380952,4,2,1,80,0,1
61245,-80,4,2,1,80,0,1
61328,-80,4,2,1,5,0,1
61411,-80,4,2,1,80,0,1
61661,-80,4,2,1,5,0,1
61745,-95.2380952380952,4,2,1,80,0,1
63494,-95.2380952380952,4,2,1,5,0,1
63578,-95.2380952380952,4,2,1,80,0,1
64411,-117.647058823529,4,2,1,70,0,0
69411,-86.9565217391302,4,2,1,70,0,0
69661,-86.9565217391302,4,2,1,5,0,0
69745,-117.647058823529,4,2,1,70,0,0
72078,-86.9565217391302,4,2,1,70,0,0
72328,-86.9565217391302,4,2,1,5,0,0
72411,-117.647058823529,4,2,1,70,0,0
75078,-86.9565217391302,4,2,1,70,0,0
75328,-86.9565217391302,4,2,1,5,0,0
75411,-117.647058823529,4,2,1,70,0,0
77745,-105.263157894737,4,2,1,75,0,0
80411,-105.263157894737,4,2,1,75,0,0
81660,-105.263157894737,4,2,1,5,0,0
81745,-105.263157894737,4,2,1,75,0,0
83078,-86.9565217391306,4,2,1,75,0,0
83328,-86.9565217391306,4,2,1,5,0,0
83411,-86.9565217391306,4,2,1,75,0,0
83911,-86.9565217391306,4,2,1,75,0,0
84245,-133.333333333333,4,2,1,75,0,0
84661,-133.333333333333,4,2,1,5,0,0
84745,-133.333333333333,4,2,1,75,0,0
88411,-86.9565217391306,4,2,1,5,0,0

[Colours]
Combo1 : 92,189,226
Combo2 : 247,218,117
Combo3 : 242,142,140

[HitObjects]
40,26,412,6,0,P|93:42|105:119,1,132.299995962525,6|0,3:2|0:0,0:0:0:0:
108,110,745,2,0,L|99:177,1,63.0000024032594,10|0,0:0|0:0,0:0:0:0:
13,247,1078,1,2,3:2:0:0:
20,237,1245,1,0,3:0:0:0:
140,295,1411,1,10,0:0:0:0:
133,285,1578,1,8,0:0:0:0:
0,374,1745,6,0,B|32:342|74:354|74:354|95:390|138:381,1,144.900002763748,4|0,3:1|0:0,0:0:0:0:
127,382,2078,2,0,P|165:371|195:364,1,63.0000024032594,10|0,0:0|0:0,0:0:0:0:
314,293,2411,2,0,P|285:264|225:282,1,94.500003604889,2|0,3:2|0:0,0:0:0:0:
235,271,2745,1,10,0:0:0:0:
178,194,2911,1,8,0:0:0:0:
291,46,3078,6,0,B|341:30|375:70|342:79|384:124|442:107|442:107|389:105|372:50,1,264.599991925049,4|0,3:2|0:0,0:0:0:0:
461,248,3745,6,0,B|444:225|445:184|445:184|370:194|321:146|321:146|299:179|255:190,1,264.599991925049,4|0,3:1|0:0,0:0:0:0:
289,366,4411,6,0,B|345:374|381:341|384:271|329:243|329:243|345:284|323:312,1,264.599991925049,4|0,3:2|0:0,0:0:0:0:
323,312,5245,5,0,3:0:0:0:
170,233,5411,2,0,B|124:245|124:245|112:281|112:281|52:298,1,144.900002763748,8|0,0:0|0:0,0:0:0:0:
14,369,5745,6,0,P|42:317|8:222,1,159.59999573822,4|8,3:1|0:0,0:0:0:0:
108,151,6245,1,2,3:2:0:0:
10,27,6411,2,0,P|96:44|173:59,1,159.59999573822,2|8,0:0|0:0,0:0:0:0:
249,152,6911,1,2,0:0:0:0:
347,36,7078,6,0,P|356:78|368:127,1,79.7999978691102,2|0,3:2|0:0,0:0:0:0:
482,224,7411,2,0,P|491:185|499:146,1,79.7999978691102,10|0,0:0|3:0,0:0:0:0:
310,305,7745,1,2,0:0:0:0:
391,185,7911,1,2,3:2:0:0:
461,344,8078,1,10,0:0:0:0:
457,335,8411,5,14,0:0:0:0:
394,191,8578,1,0,3:0:0:0:
321,299,8745,2,0,P|286:321|244:317,1,79.7999978691102,2|0,0:0|3:0,0:0:0:0:
165,179,9078,2,0,P|179:226|190:263,1,79.7999978691102,2|0,0:0|3:0,0:0:0:0:
59,176,9411,1,10,0:0:0:0:
227,97,9578,1,0,3:0:0:0:
62,7,9745,5,10,3:2:0:0:
62,7,10745,2,0,P|78:43|62:80,1,69.3000021148682,2|0,0:0|0:0,0:0:0:0:
0,55,11078,6,0,P|63:63|126:73,1,126.000004806519,4|8,3:1|0:0,0:0:0:0:
205,15,11578,1,2,3:2:0:0:
283,114,11745,2,0,P|275:153|267:193,1,63.0000024032594,2|0,0:0|3:0,0:0:0:0:
353,70,12078,2,0,P|346:39|340:8,1,63.0000024032594,10|0,0:0|0:0,0:0:0:0:
452,94,12411,5,2,3:2:0:0:
452,94,12578,1,2,0:0:0:0:
392,164,12745,1,10,0:0:0:0:
469,223,12911,2,0,P|488:257|480:295,1,63.0000024032594,2|0,3:2|0:0,0:0:0:0:
396,375,13245,1,2,3:2:0:0:
332,266,13411,2,0,P|372:277|406:285,1,63.0000024032594,8|0,0:0|0:0,0:0:0:0:
259,369,13745,6,0,P|220:373|180:326,1,94.500003604889,2|0,3:2|0:0,0:0:0:0:
183,337,14078,1,10,0:0:0:0:
68,384,14245,2,0,L|82:318,1,63.0000024032594,2|0,3:2|0:0,0:0:0:0:
11,218,14578,1,2,3:2:0:0:
115,173,14745,2,0,L|101:234,1,63.0000024032594,8|0,0:0|0:0,0:0:0:0:
2,69,15078,6,0,B|42:76|64:53|53:45|77:18|121:27,1,126.000004806519,2|8,3:2|0:0,0:0:0:0:
213,92,15578,2,0,P|181:109|150:104,1,63.0000024032594,0|0,3:0|0:0,0:0:0:0:
254,6,15911,1,0,3:0:0:0:
316,111,16078,1,8,0:0:0:0:
316,111,16245,1,2,0:0:0:0:
431,20,16411,6,0,P|441:77|451:131,1,94.500003604889,2|0,3:2|0:0,0:0:0:0:
447,113,16745,1,10,0:0:0:0:
507,184,16911,1,2,3:2:0:0:
431,274,17078,1,2,0:0:0:0:
473,354,17245,2,0,P|436:362|407:370,1,63.0000024032594,2|8,3:2|0:0,0:0:0:0:
341,305,17578,1,2,0:0:0:0:
232,378,17745,5,2,3:2:0:0:
232,378,17911,2,0,P|220:349|231:317,1,63.0000024032594,2|8,0:0|0:0,0:0:0:0:
146,226,18245,2,0,B|105:236|105:236|90:261|90:261|33:278,1,126.000004806519,2|0,3:2|3:0,0:0:0:0:
82,159,18745,1,8,0:0:0:0:
6,60,18911,5,2,0:0:0:0:
6,60,18995,1,0,0:0:0:0:
6,60,19078,2,0,P|49:53|105:34,1,94.500003604889,2|0,3:2|0:0,0:0:0:0:
97,37,19411,1,10,0:0:0:0:
171,91,19578,1,2,3:2:0:0:
249,30,19745,1,2,0:0:0:0:
335,183,19911,1,2,3:2:0:0:
450,26,20078,2,0,B|402:25|384:59|404:61|379:106|321:96,1,144.900002763748,8|0,0:0|0:0,0:0:0:0:
335,98,20411,5,14,0:0:0:0:
259,208,20578,1,2,3:0:0:0:
306,290,20745,1,2,0:3:0:0:
196,367,20911,5,0,3:0:0:0:
295,296,21078,1,2,0:3:0:0:
374,356,21245,1,0,3:0:0:0:
471,253,21411,6,0,B|521:237|504:184|504:184|498:224|454:238,1,144.900002763748,12|0,0:0|0:0,0:0:0:0:
431,166,21745,6,0,B|391:170|372:140|383:137|357:105|314:119,1,126.000004806519,4|8,3:1|0:0,0:0:0:0:
254,183,22245,1,2,3:2:0:0:
177,85,22411,2,0,P|182:54|187:17,1,63.0000024032594,2|0,0:0|3:0,0:0:0:0:
67,60,22745,2,0,P|62:91|57:128,1,63.0000024032594,10|0,0:0|0:0,0:0:0:0:
154,207,23078,6,0,P|114:202|70:244,1,94.500003604889,2|0,3:2|0:0,0:0:0:0:
74,235,23411,1,10,0:0:0:0:
8,351,23578,2,0,P|42:341|71:333,1,63.0000024032594,2|0,3:2|0:0,0:0:0:0:
191,367,23911,2,0,P|221:375|251:384,1,63.0000024032594,2|8,3:2|0:0,0:0:0:0:
317,313,24245,1,2,0:0:0:0:
468,384,24411,6,0,B|443:342|443:342|468:297,1,94.500003604889,2|0,3:2|0:0,0:0:0:0:
465,302,24745,2,0,P|457:266|450:234,1,63.0000024032594,10|0,0:0|3:0,0:0:0:0:
381,180,25078,1,2,0:0:0:0:
442,111,25245,1,2,3:2:0:0:
357,10,25411,1,10,0:0:0:0:
334,100,25578,1,2,0:0:0:0:
234,10,25745,6,0,P|181:25|135:38,1,94.500003604889,0|0,3:0|0:0,0:0:0:0:
143,35,26078,2,0,P|108:25|74:15,1,63.0000024032594,8|0,0:0|3:0,0:0:0:0:
10,94,26411,1,0,0:0:0:0:
79,146,26578,1,0,3:0:0:0:
1,231,26745,2,0,P|10:282|19:339,1,94.500003604889,8|0,0:0|0:0,0:0:0:0:
16,324,27078,6,0,P|49:333|77:343,1,63.0000024032594,2|2,3:2|0:0,0:0:0:0:
140,281,27411,1,10,0:0:0:0:
217,368,27578,1,2,3:2:0:0:
279,301,27745,1,2,0:0:0:0:
365,382,27911,2,0,P|371:339|377:298,1,63.0000024032594,2|8,3:2|0:0,0:0:0:0:
505,195,28245,6,0,P|460:230|417:224,1,94.500003604889,2|0,0:0|0:0,0:0:0:0:
425,227,28578,2,0,P|419:184|413:143,1,63.0000024032594,2|8,0:0|0:0,0:0:0:0:
350,99,28911,1,2,3:2:0:0:
461,9,29078,2,0,P|480:45|475:71,1,63.0000024032594,2|0,0:0|3:0,0:0:0:0:
331,0,29411,1,8,0:0:0:0:
331,0,29745,6,0,B|282:5|293:18|240:24,1,94.500003604889,2|0,3:2|0:0,0:0:0:0:
240,23,30078,1,10,0:0:0:0:
152,118,30245,1,2,3:2:0:0:
82,61,30411,2,0,P|69:22|89:-10,1,63.0000024032594,2|0,0:0|3:0,0:0:0:0:
239,108,30745,2,0,L|222:180,1,63.0000024032594,10|0,0:0|0:0,0:0:0:0:
68,284,31078,5,14,0:0:0:0:
188,381,31245,2,0,P|249:378|277:286,1,142.800002723694,0|8,3:0|0:0,0:0:0:0:
190,238,31745,2,0,P|201:279|210:318,1,71.4000013618469,0|0,0:0|3:0,0:0:0:0:
341,232,32078,6,0,B|382:222|414:253|395:262|426:298|474:286,1,144.900002763748,12|0,0:0|0:0,0:0:0:0:
465,287,32411,6,0,P|486:258|481:217,1,71.4000013618469,4|0,3:1|0:0,0:0:0:0:
372,120,32745,2,0,P|387:152|425:169,1,71.4000013618469,0|0,3:0|0:0,0:0:0:0:
489,78,33078,1,2,3:2:0:0:
489,78,33245,1,2,0:0:0:0:
414,13,33411,1,2,3:2:0:0:
302,96,33578,6,0,P|270:117|230:113,1,71.4000013618469,10|0,0:0|3:0,0:0:0:0:
152,0,33911,2,0,P|186:17|202:53,1,71.4000013618469,2|0,0:0|3:0,0:0:0:0:
143,177,34245,2,0,P|140:138|164:106,1,71.4000013618469,2|0,0:0|3:0,0:0:0:0:
269,198,34578,2,0,P|261:246|254:285,1,71.4000013618469,2|0,0:0|3:0,0:0:0:0:
176,369,34911,1,8,0:0:0:0:
6,290,35078,6,0,P|58:285|98:339,1,107.10000204277,2|0,3:2|0:0,0:0:0:0:
94,321,35411,2,0,P|102:273|109:234,1,71.4000013618469,2|0,3:2|0:0,0:0:0:0:
5,146,35745,1,2,3:2:0:0:
89,52,35911,2,0,B|97:83|127:98|127:98|92:176,1,142.800002723694,2|10,0:0|0:0,0:0:0:0:
163,25,36411,6,0,P|237:37|317:50,1,142.800002723694,2|0,3:2|3:0,0:0:0:0:
384,127,36911,1,2,0:0:0:0:
469,43,37078,2,0,P|476:85|483:127,1,71.4000013618469,2|8,3:2|0:0,0:0:0:0:
356,212,37411,2,0,P|360:183|368:137,1,71.4000013618469,12|0,3:2|0:0,0:0:0:0:
498,262,37745,6,0,P|464:284|423:279,1,71.4000013618469,4|0,3:1|0:0,0:0:0:0:
327,358,38078,2,0,P|362:358|390:379,1,71.4000013618469,0|0,3:0|0:0,0:0:0:0:
278,275,38411,1,2,3:2:0:0:
278,275,38578,1,2,0:0:0:0:
229,369,38745,1,2,3:2:0:0:
139,267,38911,6,0,P|146:225|154:177,1,71.4000013618469,10|0,0:0|3:0,0:0:0:0:
14,118,39245,2,0,P|18:146|25:188,1,71.4000013618469,2|0,0:0|3:0,0:0:0:0:
129,38,39578,2,0,P|99:13|60:14,1,71.4000013618469,2|0,0:0|3:0,0:0:0:0:
182,119,39911,2,0,P|216:115|243:92,1,71.4000013618469,2|12,0:0|3:2,0:0:0:0:
324,7,40245,1,2,0:0:0:0:
465,93,40411,6,0,P|415:82|354:145,1,142.800002723694,4|2,3:1|0:0,0:0:0:0:
390,261,40911,1,0,3:0:0:0:
473,181,41078,2,0,B|429:172|401:200|420:211|381:240|342:223,1,142.800002723694,8|0,0:0|0:0,0:0:0:0:
283,307,41578,1,10,0:0:0:0:
188,191,41745,6,0,L|173:119,1,71.4000013618469,2|10,3:2|0:0,0:0:0:0:
29,29,42078,1,2,0:0:0:0:
104,161,42245,1,2,3:2:0:0:
152,27,42411,1,10,0:0:0:0:
47,108,42578,2,0,L|76:251,1,142.800002723694,2|0,0:0|0:0,0:0:0:0:
186,364,43078,6,0,B|253:340|253:340|274:357|307:365,1,119.699996803665,14|0,0:0|0:0,0:0:0:0:
295,362,43411,1,2,0:0:0:0:
420,273,43578,1,2,3:2:0:0:
303,182,43745,2,0,P|273:137|291:77,1,119.699996803665,2|0,0:0|0:0,0:0:0:0:
290,77,44078,1,2,0:0:0:0:
194,5,44245,1,2,3:2:0:0:
119,187,44411,5,14,0:0:0:0:
202,16,44578,1,2,3:2:0:0:
223,242,44745,5,10,0:0:0:0:
118,65,44911,1,0,3:0:0:0:
6,306,45078,6,0,L|11:328,3,23.1000007049561,2|0|0|0,2:0|0:0|0:0|0:0,0:0:0:0:
73,275,45411,6,0,L|78:252,3,23.1000007049561
114,341,45745,6,0,B|148:323|182:344|165:355|200:383|239:358,1,132.299995962525,4|0,3:1|0:0,0:0:0:0:
235,360,46078,1,10,3:2:0:0:
266,193,46245,2,0,P|227:212|212:262,1,88.1999973083497,2|0,0:0|3:0,0:0:0:0:
369,384,46578,2,0,L|346:294,1,88.1999973083497,2|8,0:0|3:2,0:0:0:0:
512,187,46911,6,0,L|422:210,1,88.1999973083497,2|0,0:0|3:0,0:0:0:0:
293,113,47245,1,2,0:0:0:0:
434,7,47411,2,0,P|463:45|456:94,1,88.1999973083497,10|2,3:2|0:0,0:0:0:0:
275,200,47745,2,0,P|286:146|295:105,1,88.1999973083497,2|0,3:2|0:0,0:0:0:0:
133,0,48078,2,0,P|142:43|151:86,1,88.1999973083497,10|0,3:2|0:0,0:0:0:0:
34,188,48411,5,2,3:2:0:0:
203,280,48578,1,2,0:0:0:0:
42,367,48745,2,0,P|27:328|46:286,1,88.1999973083497,10|0,3:2|0:0,0:0:0:0:
199,183,49078,2,0,P|189:236|179:288,1,88.1999973083497,2|2,3:2|0:0,0:0:0:0:
283,384,49411,1,10,3:2:0:0:
442,283,49578,6,0,B|348:262|348:262|350:215|305:190,1,176.399994616699,2|0,0:0|0:0,0:0:0:0:
440,98,50078,1,8,3:2:0:0:
440,98,50245,1,2,0:0:0:0:
318,0,50411,1,2,3:2:0:0:
187,184,50578,6,0,B|185:216|185:216|193:204|201:198,1,52.5,8|0,0:0|0:0,0:0:0:0:
103,146,50745,6,0,P|175:155|224:84,1,157.5,8|0,3:2|0:0,0:0:0:0:
223,93,51078,6,0,P|181:83|131:70,1,88.1999973083497,6|0,3:2|0:0,0:0:0:0:
7,162,51411,1,10,3:2:0:0:
122,267,51578,2,0,P|111:313|99:365,1,88.1999973083497,2|0,0:0|3:0,0:0:0:0:
290,224,51911,2,0,P|253:192|211:193,1,88.1999973083497,2|8,0:0|3:2,0:0:0:0:
362,339,52245,6,0,P|405:336|436:306,1,88.1999973083497,2|0,0:0|3:0,0:0:0:0:
329,126,52578,1,2,0:0:0:0:
256,299,52745,1,10,3:2:0:0:
426,217,52911,1,2,0:0:0:0:
245,116,53078,2,0,P|235:72|259:30,1,88.1999973083497,2|0,3:2|0:0,0:0:0:0:
101,137,53411,2,0,P|114:194|124:241,1,88.1999973083497,8|2,3:2|0:0,0:0:0:0:
23,378,53745,5,2,3:2:0:0:
184,297,53911,1,2,0:0:0:0:
13,216,54078,1,8,3:2:0:0:
174,131,54245,2,0,P|227:141|288:153,1,88.1999973083497,2|0,0:0|3:0,0:0:0:0:
174,308,54578,1,2,0:0:0:0:
66,138,54745,1,10,3:2:0:0:
66,138,54911,1,2,0:0:0:0:
72,306,55078,6,0,L|58:365,1,52.5,4|0,3:2|0:0,0:0:0:0:
287,213,55411,6,0,L|228:201,1,52.5,8|0,3:2|0:0,0:0:0:0:
428,372,55745,6,0,L|369:386,1,52.5,0|0,3:0|0:0,0:0:0:0:
437,364,55911,5,8,0:0:0:0:
495,241,56078,1,2,3:2:0:0:
495,241,56245,1,2,0:0:0:0:
445,54,56411,6,0,B|403:55|386:91|403:93|374:127|329:121,1,132.299995962525,4|0,3:1|0:0,0:0:0:0:
339,121,56745,1,10,3:2:0:0:
196,0,56911,2,0,P|205:51|215:107,1,88.1999973083497,2|0,0:0|3:0,0:0:0:0:
43,211,57245,2,0,P|11:171|19:127,1,88.1999973083497,2|8,0:0|3:2,0:0:0:0:
171,232,57578,6,0,P|154:311|140:374,1,132.299995962525,2|0,0:0|0:0,0:0:0:0:
142,361,57911,1,2,0:0:0:0:
263,262,58078,1,10,3:2:0:0:
347,374,58245,1,2,0:0:0:0:
452,227,58411,2,0,P|402:238|354:250,1,88.1999973083497,2|0,3:2|0:0,0:0:0:0:
243,134,58745,1,10,3:2:0:0:
243,134,58911,1,2,0:0:0:0:
383,23,59078,6,0,P|394:73|406:120,1,88.1999973083497,2|2,3:2|0:0,0:0:0:0:
216,10,59411,2,0,B|171:20|171:20|156:51|156:51|103:67,1,132.299995962525,10|0,3:2|0:0,0:0:0:0:
106,65,59745,2,0,P|95:117|77:189,1,88.1999973083497,2|2,3:2|0:0,0:0:0:0:
196,260,60078,1,10,3:2:0:0:
65,380,60245,6,0,P|29:336|86:231,1,176.399994616699,2|0,0:0|0:0,0:0:0:0:
220,360,60745,2,0,P|176:344|126:331,1,88.1999973083497,8|2,3:2|0:0,0:0:0:0:
268,209,61078,1,0,3:0:0:0:
470,335,61245,6,0,L|453:388,1,52.5,8|0,0:0|0:0,0:0:0:0:
392,290,61411,6,0,P|378:229|446:166,1,157.5,8|0,3:2|0:0,0:0:0:0:
439,166,61745,6,0,P|467:215|453:252,1,88.1999973083497,4|0,3:2|0:0,0:0:0:0:
324,141,62078,1,10,3:2:0:0:
427,44,62245,2,0,P|482:58|533:71,1,88.1999973083497,2|0,0:0|3:0,0:0:0:0:
376,217,62578,1,2,0:0:0:0:
282,69,62745,2,0,P|227:83|176:96,1,88.1999973083497,10|0,3:2|0:0,0:0:0:0:
101,210,63078,5,2,3:2:0:0:
234,311,63245,2,0,B|261:239|261:239|233:228|218:198,1,132.299995962525,2|0,0:0|0:0,0:0:0:0:
221,203,63578,1,2,0:0:0:0:
112,357,63745,2,0,P|151:385|192:384,1,88.1999973083497,2|0,3:2|0:0,0:0:0:0:
93,200,64078,2,0,P|49:201|15:227,1,88.1999973083497,10|0,3:2|0:0,0:0:0:0:
146,48,64411,6,0,P|226:59|316:71,1,142.800002723694,4|0,3:1|0:0,0:0:0:0:
356,2,64911,1,0,3:0:0:0:
469,106,65078,2,0,P|420:98|368:173,1,142.800002723694,8|0,0:0|0:0,0:0:0:0:
453,242,65578,1,10,0:0:0:0:
357,369,65745,5,2,3:2:0:0:
357,369,65911,1,10,0:0:0:0:
282,268,66078,1,2,3:2:0:0:
282,268,66245,1,2,3:2:0:0:
133,378,66411,5,8,0:0:0:0:
50,212,66578,1,0,3:0:0:0:
208,305,66745,1,8,0:0:0:0:
32,382,66911,1,0,0:0:0:0:
130,249,67078,6,0,P|143:178|157:102,1,142.800002723694,4|2,3:1|0:0,0:0:0:0:
102,19,67578,2,0,P|74:48|71:87,1,71.4000013618469,2|8,3:2|0:0,0:0:0:0:
193,16,67911,2,0,P|239:25|291:35,1,71.4000013618469,2|0,0:0|3:0,0:0:0:0:
394,126,68245,6,0,P|356:99|378:4,1,142.800002723694,2|10,3:2|0:0,0:0:0:0:
472,94,68745,1,2,3:2:0:0:
472,94,68911,1,2,0:0:0:0:
383,203,69078,2,0,P|392:249|401:292,1,71.4000013618469,10|0,0:0|0:0,0:0:0:0:
468,376,69411,6,0,B|432:346|387:354|387:354|370:382|337:382,1,144.900002763748,4|0,3:2|0:0,0:0:0:0:
339,381,69745,6,0,P|321:350|328:309,1,71.4000013618469,4|0,3:1|0:0,0:0:0:0:
227,193,70078,2,0,P|238:246|248:289,1,71.4000013618469,2|0,0:0|3:0,0:0:0:0:
139,375,70411,2,0,P|146:340|153:305,1,71.4000013618469,10|2,0:0|0:0,0:0:0:0:
45,205,70745,1,2,3:2:0:0:
181,113,70911,6,0,B|233:122|233:122|251:155|251:155|319:167,1,142.800002723694,2|10,3:2|0:0,0:0:0:0:
455,86,71411,1,10,0:0:0:0:
306,20,71578,1,0,3:0:0:0:
399,175,71745,1,10,0:0:0:0:
481,6,71911,1,0,3:0:0:0:
302,164,72078,6,0,B|251:155|251:155|233:122|233:122|175:112,1,144.900002763748,12|0,0:0|0:0,0:0:0:0:
178,112,72411,6,0,P|136:138|149:243,1,142.800002723694,4|2,3:1|0:0,0:0:0:0:
22,329,72911,2,0,P|32:292|42:252,1,71.4000013618469,2|8,3:2|0:0,0:0:0:0:
120,384,73245,1,2,0:0:0:0:
199,287,73411,6,0,B|242:274|274:310|253:310|281:355|334:334,1,142.800002723694,2|0,3:2|0:0,0:0:0:0:
430,243,73911,1,10,0:0:0:0:
313,192,74078,2,0,P|323:239|333:280,1,71.4000013618469,2|0,3:2|0:0,0:0:0:0:
400,134,74411,2,0,P|408:99|415:64,1,71.4000013618469,10|2,0:0|0:0,0:0:0:0:
312,4,74745,1,2,3:2:0:0:
312,4,74911,1,2,0:0:0:0:
207,139,75078,6,0,B|174:159|132:143|127:106|127:106|149:135|184:124,1,144.900002763748,14|0,0:0|0:0,0:0:0:0:
162,127,75411,6,0,P|179:172|165:203,1,71.4000013618469,2|2,0:0|3:2,0:0:0:0:
33,252,75745,2,0,P|63:215|96:211,1,71.4000013618469,2|2,0:0|3:2,0:0:0:0:
169,367,76078,2,0,P|161:325|151:277,1,71.4000013618469,10|0,0:0|3:0,0:0:0:0:
306,181,76411,2,0,P|298:215|292:251,1,71.4000013618469,10|2,0:0|3:2,0:0:0:0:
478,368,76745,1,10,0:0:0:0:
402,202,76911,1,2,3:2:0:0:
322,366,77078,1,10,0:0:0:0:
322,366,77578,5,2,0:0:0:0:
398,211,77745,2,0,P|407:146|420:44,1,159.59999573822,4|8,3:1|0:0,0:0:0:0:
321,127,78245,1,2,3:2:0:0:
234,4,78411,2,0,P|201:53|89:47,1,159.59999573822,2|8,0:0|0:0,0:0:0:0:
19,130,78911,1,2,0:0:0:0:
173,228,79078,6,0,P|166:185|158:137,1,79.7999978691102,2|0,3:2|0:0,0:0:0:0:
14,289,79411,2,0,P|21:246|29:198,1,79.7999978691102,10|0,0:0|3:0,0:0:0:0:
111,364,79745,1,2,0:0:0:0:
182,219,79911,1,2,3:2:0:0:
270,359,80078,1,10,0:0:0:0:
276,365,80411,5,12,0:0:0:0:
188,225,80578,1,0,0:0:0:0:
290,127,80745,2,0,P|282:171|272:227,1,79.7999978691102,2|0,0:0|3:0,0:0:0:0:
397,303,81078,2,0,P|389:263|382:224,1,79.7999978691102,2|0,0:0|3:0,0:0:0:0:
497,94,81411,2,0,P|469:141|402:142,1,119.699996803665,12|0,0:3|0:0,0:0:0:0:
408,145,81745,5,14,0:0:0:0:
408,145,82578,1,0,3:0:0:0:
336,15,82745,2,0,P|326:67|316:122,1,79.7999978691102,8|0,0:0|0:0,0:0:0:0:
115,166,83078,6,0,B|193:194|193:194|214:161|248:153,1,144.900002763748,6|0,3:2|0:0,0:0:0:0:
239,155,83411,1,2,3:2:0:0:
83,344,83578,2,0,P|62:298|85:247,1,96.6000018424988,10|0,0:0|0:0,0:0:0:0:
214,384,83911,1,10,0:0:0:0:
214,384,84078,1,2,0:0:0:0:
350,230,84245,2,0,B|301:218|269:252|286:257|251:294|207:278,1,157.500006008148,10|0,0:0|0:0,0:0:0:0:
210,279,84745,5,4,3:1:0:0:
256,192,84828,12,0,88411,0:0:0:0:
