osu file format v14

[General]
AudioFilename: audio.mp3
AudioLeadIn: 0
PreviewTime: 28414
Countdown: 0
SampleSet: Soft
StackLeniency: 0.7
Mode: 2
LetterboxInBreaks: 0
WidescreenStoryboard: 0

[Editor]
DistanceSpacing: 1
BeatDivisor: 4
GridSize: 4
TimelineZoom: 2.1

[Metadata]
Title:Koi wa Miracle (TV Size)
TitleUnicode:恋はミラクル (TV Size)
Artist:Spira Spica
ArtistUnicode:スピラ・スピカ
Creator:bigh
Version:Homework
Source:みだらな青ちゃんは勉強ができない
Tags:ao-chan can't study japanese anime ending ed jpop j-pop j pop midarana wa ha benkyou ga dekinai love bighzonda
BeatmapID:3279553
BeatmapSetID:1606086

[Difficulty]
HPDrainRate:6
CircleSize:4
OverallDifficulty:8.8
ApproachRate:8.8
SliderMultiplier:1.8
SliderTickRate:2

[Events]
//Background and Video events
0,0,"bg.jpg",0,0
Video,300,"video.mp4"
//Break Periods
//Storyboard Layer 0 (Background)
//Storyboard Layer 1 (Fail)
//Storyboard Layer 2 (Pass)
//Storyboard Layer 3 (Foreground)
//Storyboard Layer 4 (Overlay)
//Storyboard Sound Samples

[TimingPoints]
-300,342.857142857143,4,2,1,60,1,0
28414,-100,4,2,1,10,0,0
28500,-100,4,2,1,75,0,1
50442,-100,4,2,1,75,0,0

[Colours]
Combo1 : 121,187,236
Combo2 : 170,87,219
Combo3 : 236,128,227
Combo4 : 232,200,140

[HitObjects]
220,272,385,5,8,0:0:0:0:
172,240,471,1,0,3:0:0:0:
172,176,557,1,0,3:0:0:0:
220,144,642,1,0,3:0:0:0:
364,121,728,2,0,P|413:155|363:177,1,135,10|0,0:0|0:0,0:0:0:0:
212,56,1071,6,0,P|148:108|212:160,1,180,6|0,1:2|1:2,0:0:0:0:
294,160,1585,1,0,0:0:0:0:
204,157,1757,1,0,1:2:0:0:
114,155,1928,2,0,L|114:268,1,90,0|0,0:0|1:2,0:0:0:0:
204,246,2271,1,0,0:0:0:0:
433,250,2442,6,0,P|497:202|433:166,1,180,2|0,1:2|1:2,0:0:0:0:
344,173,2957,1,0,0:0:0:0:
254,170,3128,2,0,L|254:65,1,90,0|0,1:2|0:0,0:0:0:0:
344,48,3471,2,0,L|344:138,1,90,0|0,1:2|0:0,0:0:0:0:
114,136,3814,6,0,P|50:184|114:220,1,180,2|0,1:2|1:2,0:0:0:0:
202,230,4328,1,0,0:0:0:0:
112,225,4500,1,0,1:2:0:0:
22,203,4671,2,0,L|22:100,1,90,0|0,0:0|1:2,0:0:0:0:
112,110,5014,1,0,0:0:0:0:
343,59,5185,6,0,P|407:107|343:143,1,180,2|4,1:2|1:2,0:0:0:0:
254,127,5700,1,0,0:0:0:0:
344,131,5871,1,0,3:0:0:0:
389,134,5957,1,0,3:0:0:0:
344,131,6042,1,0,3:0:0:0:
114,130,6214,2,0,L|114:227,1,90,8|0,0:0|1:2,0:0:0:0:
344,273,6557,6,0,P|412:246|344:216,1,180,6|2,1:2|1:2,0:0:0:0:
260,218,7071,1,0,0:0:0:0:
170,193,7242,2,0,P|102:166|170:136,1,180,2|2,1:2|1:2,0:0:0:0:
255,123,7757,1,2,0:0:0:0:
299,129,7842,1,2,0:0:0:0:
484,145,7928,6,0,L|484:328,1,180,2|2,1:2|1:2,0:0:0:0:
394,327,8442,1,0,0:0:0:0:
304,328,8614,2,0,L|304:236,1,90,2|0,1:2|0:0,0:0:0:0:
394,327,8957,2,0,L|394:235,1,90,2|2,1:2|0:0,0:0:0:0:
349,227,9214,1,2,0:0:0:0:
164,176,9300,6,0,P|96:149|164:120,1,180,2|2,1:2|1:2,0:0:0:0:
249,74,9814,1,2,0:0:0:0:
159,63,9985,1,0,1:2:0:0:
69,53,10157,1,0,0:0:0:0:
159,63,10328,2,0,L|159:162,1,90,2|2,1:2|0:0,0:0:0:0:
345,160,10671,6,0,L|345:273,1,90,2|0,1:2|0:0,0:0:0:0:
159,259,11014,2,0,L|159:157,1,90,2|0,1:2|0:0,0:0:0:0:
389,202,11357,1,10,0:0:0:0:
254,156,11528,1,2,1:2:0:0:
389,100,11700,1,10,0:0:0:0:
160,60,11871,6,0,P|96:108|160:144,1,180,6|0,1:2|1:2,0:0:0:0:
344,126,12385,2,0,L|249:126,1,90,10|0,0:0|0:0,0:0:0:0:
164,168,12728,2,0,L|254:168,1,90,0|2,1:2|1:2,0:0:0:0:
440,176,13071,1,8,0:0:0:0:
211,114,13242,6,0,L|-5:114,1,180,2|2,1:2|1:2,0:0:0:0:
218,192,13757,1,8,0:0:0:0:
308,192,13928,1,0,1:2:0:0:
398,192,14100,1,0,1:2:0:0:
308,254,14271,1,2,1:2:0:0:
122,239,14442,1,8,0:0:0:0:
352,324,14614,6,0,P|416:276|352:240,1,180,6|0,1:2|1:2,0:0:0:0:
168,213,15128,1,8,0:0:0:0:
104,172,15300,1,0,1:2:0:0:
166,128,15471,1,0,1:2:0:0:
256,134,15642,1,0,1:2:0:0:
69,144,15814,1,10,0:0:0:0:
298,53,15985,5,2,1:2:0:0:
364,104,16157,1,2,0:0:0:0:
300,152,16328,1,0,1:2:0:0:
117,225,16500,2,0,L|117:133,1,90,8|2,0:0|0:0,0:0:0:0:
303,116,16842,2,0,L|303:214,1,90,0|2,1:2|1:2,0:0:0:0:
116,222,17185,2,0,L|225:223,1,90,8|0,0:0|1:2,0:0:0:0:
436,136,17528,6,0,L|248:136,1,180,6|0,1:2|0:0,0:0:0:0:
166,135,18042,1,2,0:0:0:0:
352,68,18214,2,0,P|416:108|352:144,1,180,10|0,0:0|0:0,0:0:0:0:
261,117,18728,1,0,0:0:0:0:
171,72,18900,6,0,L|361:72,1,180,2|0,1:2|1:2,0:0:0:0:
396,71,19328,1,0,0:0:0:0:
441,71,19414,1,2,0:0:0:0:
255,152,19585,2,0,L|70:152,1,180,10|2,0:0|0:0,0:0:0:0:
166,97,20100,1,2,0:0:0:0:
352,52,20271,6,0,P|416:96|352:136,1,180,2|2,1:2|1:2,0:0:0:0:
263,112,20785,1,0,0:0:0:0:
76,64,20957,2,0,L|76:244,1,180,10|2,0:0|1:2,0:0:0:0:
166,256,21471,1,0,0:0:0:0:
76,244,21642,5,2,1:2:0:0:
263,268,21814,1,0,0:0:0:0:
173,209,21985,2,0,L|173:103,1,90,0|0,1:2|0:0,0:0:0:0:
218,107,22242,1,8,0:0:0:0:
362,121,22328,2,0,L|362:229,1,90,10|2,0:0|1:2,0:0:0:0:
272,257,22671,1,2,1:2:0:0:
362,214,22842,1,0,1:2:0:0:
132,212,23014,6,0,P|68:176|136:140,1,180,6|8,1:2|0:0,0:0:0:0:
224,148,23528,1,8,0:0:0:0:
410,108,23700,2,0,L|314:108,1,90,8|8,0:0|0:0,0:0:0:0:
133,62,24042,2,0,L|229:62,1,90,10|8,0:0|0:0,0:0:0:0:
453,66,24385,6,0,L|453:174,1,90,8|8,0:0|0:0,0:0:0:0:
223,296,24728,2,0,L|162:296,1,45,8|8,0:0|0:0,0:0:0:0:
178,296,24900,2,0,L|223:296,1,45,10|8,0:0|0:0,0:0:0:0:
367,201,25071,2,0,L|415:201,1,45,10|8,0:0|0:0,0:0:0:0:
268,122,25242,2,0,L|216:122,1,45,10|8,0:0|0:0,0:0:0:0:
369,42,25414,2,0,P|396:76|369:104,1,90,10|10,0:0|0:0,0:0:0:0:
138,108,25757,6,0,L|31:108,2,90,2|2|2,0:0|0:0|0:0,0:0:0:0:
228,108,26271,2,0,P|288:164|224:216,1,180,2|2,0:0|0:0,0:0:0:0:
140,208,26785,2,0,L|140:104,1,90,2|2,0:0|0:0,0:0:0:0:
370,74,27128,6,0,L|257:74,1,90,14|2,0:0|1:2,0:0:0:0:
50,46,27471,2,0,L|163:46,1,90,14|2,0:0|1:2,0:0:0:0:
370,95,27814,1,14,0:0:0:0:
141,82,27985,1,14,0:0:0:0:
371,135,28157,2,0,P|416:176|368:216,1,135,0|0,0:0|0:0,0:0:0:0:
218,219,28500,6,0,P|154:183|222:147,1,180,6|8,1:2|0:0,0:0:0:0:
309,156,29014,1,0,0:0:0:0:
123,165,29185,2,0,L|123:261,1,90,2|0,1:2|1:2,0:0:0:0:
353,336,29528,2,0,L|353:240,1,90,8|0,0:0|0:0,0:0:0:0:
123,119,29871,6,0,L|311:118,1,180,2|8,1:2|0:0,0:0:0:0:
214,119,30385,1,0,0:0:0:0:
27,70,30557,2,0,L|27:170,1,90,2|0,1:2|1:2,0:0:0:0:
257,255,30900,2,0,L|157:255,1,90,10|0,0:0|0:0,0:0:0:0:
396,193,31242,6,0,L|305:193,1,90,2|0,1:2|0:0,0:0:0:0:
76,178,31585,2,0,L|76:82,1,90,14|0,0:0|0:0,0:0:0:0:
166,93,31928,1,2,1:2:0:0:
76,88,32100,1,0,1:2:0:0:
305,127,32271,2,0,L|398:127,1,90,14|0,0:0|0:0,0:0:0:0:
165,161,32614,6,0,L|66:159,1,90,2|0,1:2|1:2,0:0:0:0:
305,169,32957,2,0,L|305:266,1,90,12|0,0:0|0:0,0:0:0:0:
119,310,33300,2,0,L|7:310,1,90,2|0,1:2|1:2,0:0:0:0:
74,271,33557,1,8,0:0:0:0:
227,213,33642,2,0,L|339:213,1,90,10|8,0:0|0:0,0:0:0:0:
272,174,33899,1,8,0:0:0:0:
117,90,33985,6,0,P|49:121|109:166,1,180,6|8,1:2|0:0,0:0:0:0:
200,155,34500,1,0,0:0:0:0:
386,133,34671,2,0,L|386:223,1,90,2|0,1:2|1:2,0:0:0:0:
156,295,35014,2,0,L|66:295,1,90,10|0,0:0|0:0,0:0:0:0:
296,148,35357,6,0,L|113:149,1,180,2|10,1:2|0:0,0:0:0:0:
302,88,35871,1,2,0:0:0:0:
394,88,36042,2,0,L|394:196,1,90,0|0,1:2|1:2,0:0:0:0:
164,276,36385,2,0,L|164:172,1,90,10|0,0:0|0:0,0:0:0:0:
394,88,36728,6,0,P|456:136|392:176,1,180,2|10,1:2|0:0,0:0:0:0:
302,160,37242,1,0,0:0:0:0:
116,182,37414,2,0,L|116:279,1,90,0|0,1:2|1:2,0:0:0:0:
346,313,37757,2,0,L|437:313,1,90,10|0,0:0|0:0,0:0:0:0:
206,245,38100,6,0,P|146:195|209:147,1,180,2|8,1:2|0:0,0:0:0:0:
299,104,38614,1,2,0:0:0:0:
254,99,38700,1,10,0:0:0:0:
210,92,38785,1,2,1:2:0:0:
440,64,38957,1,8,0:0:0:0:
211,152,39128,2,0,P|166:193|214:233,1,135,8|0,0:0|0:0,0:0:0:0:
364,224,39471,6,0,P|448:188|448:100,1,180,6|8,1:2|0:0,0:0:0:0:
364,136,39985,1,0,0:0:0:0:
179,147,40156,2,0,L|179:243,1,90,2|0,1:2|1:2,0:0:0:0:
409,318,40499,2,0,L|409:222,1,90,8|0,0:0|0:0,0:0:0:0:
178,120,40842,6,0,L|366:119,1,180,2|8,1:2|0:0,0:0:0:0:
358,120,41356,1,0,0:0:0:0:
313,119,41442,1,0,0:0:0:0:
196,60,41528,2,0,L|106:60,1,90,2|0,1:2|1:2,0:0:0:0:
336,312,41871,2,0,L|336:222,1,90,10|0,0:0|0:0,0:0:0:0:
152,184,42213,6,0,L|56:184,1,90,2|0,1:2|1:2,0:0:0:0:
295,167,42556,2,0,L|389:166,1,90,14|0,0:0|0:0,0:0:0:0:
153,85,42899,1,2,1:2:0:0:
320,81,43071,1,0,1:2:0:0:
90,127,43242,2,0,L|91:224,1,90,12|0,0:0|0:0,0:0:0:0:
321,160,43585,6,0,L|118:160,1,180,2|14,1:2|0:0,0:0:0:0:
232,159,44100,1,2,0:0:0:0:
461,215,44271,1,10,0:0:0:0:
483,249,44357,1,8,0:0:0:0:
458,268,44442,1,8,0:0:0:0:
393,269,44528,1,8,0:0:0:0:
221,211,44613,2,0,L|109:211,1,90,8|8,0:0|0:0,0:0:0:0:
176,172,44870,1,8,0:0:0:0:
332,296,44957,6,0,P|380:256|304:200,1,180,6|10,1:2|0:0,0:0:0:0:
216,224,45471,1,0,0:0:0:0:
30,246,45642,2,0,L|30:156,1,90,2|0,1:2|1:2,0:0:0:0:
260,84,45985,2,0,L|350:84,1,90,10|0,0:0|0:0,0:0:0:0:
120,254,46328,6,0,L|120:64,1,180,2|10,1:2|0:0,0:0:0:0:
211,122,46842,1,0,0:0:0:0:
397,137,47014,2,0,L|397:245,1,90,2|0,1:2|1:2,0:0:0:0:
167,230,47357,2,0,L|71:230,1,90,10|0,0:0|0:0,0:0:0:0:
307,55,47700,6,0,P|369:103|305:143,1,180,2|10,1:2|0:0,0:0:0:0:
119,215,48214,2,0,L|314:213,1,180,2|0,0:0|1:2,0:0:0:0:
69,174,48728,2,0,L|69:73,1,90,10|0,0:0|0:0,0:0:0:0:
299,148,49071,6,0,P|359:198|296:246,1,180,2|10,1:2|0:0,0:0:0:0:
206,289,49585,1,0,1:2:0:0:
251,294,49671,1,0,1:0:0:0:
295,301,49756,1,2,1:2:0:0:
65,329,49928,1,0,1:2:0:0:
294,241,50099,2,0,B|384:241|384:241|340:241,1,135,10|0,0:0|0:0,0:0:0:0:
184,164,50442,6,0,L|84:164,1,90,6|0,1:2|0:0,0:0:0:0:
248,104,50785,1,8,0:0:0:0:
18,62,50957,2,0,L|228:62,1,180,0|0,1:2|1:2,0:0:0:0:
44,140,51471,1,8,0:0:0:0:
273,92,51642,6,0,L|460:92,1,180,2|0,1:2|1:2,0:0:0:0:
266,184,52157,2,0,L|163:183,1,90,8|0,0:0|0:0,0:0:0:0:
266,262,52500,2,0,L|266:353,1,90,0|0,1:2|1:2,0:0:0:0:
81,238,52842,2,0,L|189:239,1,90,8|0,0:0|0:0,0:0:0:0:
401,232,53185,5,6,1:2:0:0:
468,196,53357,1,0,1:2:0:0:
401,166,53528,1,2,1:2:0:0:
169,116,53700,2,0,L|352:113,1,180,6|2,1:2|1:2,0:0:0:0:
119,59,54214,6,0,P|24:128|120:184,1,270,6|8,1:2|0:0,0:0:0:0:
305,135,54900,1,8,0:0:0:0:
158,116,55071,1,8,0:0:0:0:
387,64,55242,2,0,L|388:171,1,90,8|0,0:0|1:2,0:0:0:0:
342,174,55500,1,0,1:2:0:0:
200,211,55585,2,0,L|100:211,1,90,10|0,0:0|0:0,0:0:0:0:
340,60,55928,6,0,P|406:98|342:142,1,180,4|8,1:2|0:0,0:0:0:0:
115,87,56442,2,0,L|295:88,1,180,0|0,1:2|1:2,0:0:0:0:
136,40,56957,1,8,0:0:0:0:
365,50,57128,6,0,L|169:50,1,180,4|0,1:2|1:2,0:0:0:0:
371,153,57642,2,0,P|437:191|373:235,1,180,8|8,0:0|0:0,0:0:0:0:
144,213,58157,1,8,0:0:0:0:
373,118,58328,1,8,0:0:0:0:
83,98,58500,5,14,0:0:0:0:
