osu file format v14

[General]
AudioFilename: Hell Hound.mp3
AudioLeadIn: 0
PreviewTime: -1
Countdown: 0
SampleSet: Soft
StackLeniency: 0.2
Mode: 0
LetterboxInBreaks: 1
WidescreenStoryboard: 0

[Editor]
DistanceSpacing: 1.6
BeatDivisor: 4
GridSize: 4
TimelineZoom: 2

[Metadata]
Title:Hell Hound
TitleUnicode:Hell Hound
Artist:Spinee
ArtistUnicode:Spinee
Creator:przepson
Version:Hell
Source:
Tags:4chan weird 4fun
BeatmapID:892482
BeatmapSetID:411271

[Difficulty]
HPDrainRate:5
CircleSize:4
OverallDifficulty:8
ApproachRate:9.3
SliderMultiplier:1.8
SliderTickRate:2

[Events]
//Background and Video events
0,0,"HELLHOUND.jpg",0,0
//Break Periods
2,40191,47437
//Storyboard Layer 0 (Background)
//Storyboard Layer 1 (Fail)
//Storyboard Layer 2 (Pass)
//Storyboard Layer 3 (Foreground)
//Storyboard Sound Samples

[TimingPoints]
7991,500,4,3,0,70,1,0
23991,-100,4,3,1,100,0,1
31991,-166.666666666667,4,2,0,100,0,0
47991,-100,4,2,0,80,0,0
71991,-100,4,2,1,80,0,1
79991,-100,4,2,0,30,0,0
82616,-100,4,2,0,35,0,0
82866,-100,4,2,0,40,0,0
83116,-100,4,2,0,45,0,0
83366,-100,4,2,0,50,0,0
83616,-100,4,2,0,55,0,0
83991,-100,4,2,0,60,0,0
85991,-100,4,2,0,70,0,0
87241,-100,4,2,0,75,0,0
87991,-100,4,2,0,30,0,1
88991,-100,4,2,0,40,0,1
89991,-100,4,2,0,50,0,1
90991,-100,4,2,0,60,0,1
91991,-100,4,2,0,70,0,1
92991,-100,4,2,0,75,0,1
93991,-100,4,2,0,80,0,1
94991,-100,4,2,0,90,0,1
95991,-100,4,3,0,80,0,0
103991,-83.3333333333333,4,3,0,80,0,0
111991,-100,4,2,0,50,0,0
122866,-125,4,2,0,20,0,0
124866,-125,4,2,0,10,0,0

[Colours]
Combo1 : 240,240,240
Combo2 : 255,255,255
Combo3 : 255,255,255
Combo4 : 240,240,240

[HitObjects]
56,120,7991,6,0,P|96:76|192:48,1,135
164,128,8491,2,0,P|220:88|268:80,1,90
284,156,8866,2,0,P|352:120|380:116,1,90
340,72,9241,5,2,0:0:0:0:
260,52,9366,1,2,0:0:0:0:
180,60,9491,1,2,0:0:0:0:
416,332,9741,1,2,0:0:0:0:
48,248,9991,6,0,P|88:296|168:320,1,135
152,240,10491,2,0,P|216:280|252:284,1,90
264,208,10866,2,0,P|312:244|352:252,1,90
304,324,11241,5,2,3:0:0:0:
224,344,11366,1,2,3:0:0:0:
152,312,11491,1,2,3:0:0:0:
424,76,11741,1,2,3:0:0:0:
52,64,11991,6,0,L|52:212,1,135
52,216,12491,2,0,P|52:260|124:260,1,90
52,216,12866,2,0,P|52:172|124:172,1,90
140,216,13241,5,2,3:0:0:0:
340,216,13366,1,2,3:0:0:0:
140,216,13491,1,2,3:0:0:0:
140,216,13741,1,2,3:0:0:0:
464,64,13991,6,0,L|464:204,1,135
464,216,14491,2,0,P|464:260|392:260,1,90
464,216,14866,2,0,P|464:172|392:172,1,90
376,216,15241,5,2,3:0:0:0:
176,216,15366,1,2,3:0:0:0:
376,216,15491,1,2,3:0:0:0:
376,216,15741,1,2,3:0:0:0:
128,52,15991,5,8,0:0:0:0:
196,304,16241,2,0,L|212:352,1,45
436,76,16741,2,0,L|460:36,1,45
256,96,16991,1,0,0:0:0:0:
256,96,17116,5,0,0:0:0:0:
256,96,17241,1,0,0:0:0:0:
120,276,17491,1,0,0:0:0:0:
120,276,17741,1,0,0:0:0:0:
384,328,17991,5,8,0:0:0:0:
332,72,18241,2,0,L|312:28,1,45
72,288,18741,2,0,L|40:332,1,45
45,324,18991,1,0,0:0:0:0:
124,352,19116,1,8,0:0:0:0:
204,352,19241,1,8,0:0:0:0:
280,328,19366,1,8,0:0:0:0:
344,280,19491,1,8,0:0:0:0:
344,280,19741,1,10,0:0:0:0:
128,52,19991,5,8,0:0:0:0:
224,248,20241,1,0,0:0:0:0:
224,248,20366,1,0,0:0:0:0:
476,44,20741,1,0,0:0:0:0:
476,44,20866,1,0,0:0:0:0:
392,112,20991,1,0,0:0:0:0:
268,216,21116,6,0,L|228:260,1,45
392,112,21491,1,0,0:0:0:0:
392,112,21741,1,0,0:0:0:0:
416,344,21991,5,8,0:0:0:0:
304,160,22241,1,0,0:0:0:0:
304,160,22366,1,0,0:0:0:0:
32,336,22741,1,0,0:0:0:0:
32,336,22866,1,0,0:0:0:0:
32,336,22991,1,0,0:0:0:0:
88,276,23116,6,8,L|104:220,1,45
176,264,23366,2,8,L|240:244,1,45
280,24,23741,1,10,0:0:0:0:
476,192,23991,5,2,0:0:0:0:
208,44,24241,2,0,L|260:80,1,45
136,288,24741,2,0,L|192:256,1,45
136,288,25116,1,0,0:0:0:0:
464,192,25241,5,0,0:0:0:0:
464,192,25366,1,0,0:0:0:0:
392,140,25491,2,0,L|436:172,1,45
344,192,25741,2,0,L|396:192,1,45
44,192,25991,5,2,0:0:0:0:
312,340,26241,2,0,L|244:304,1,45
392,108,26741,2,0,L|328:132,1,45
460,48,26991,1,0,0:0:0:0:
460,48,27116,5,8,0:0:0:0:
460,48,27241,1,8,0:0:0:0:
460,48,27366,1,8,0:0:0:0:
460,48,27491,1,8,0:0:0:0:
352,192,27741,2,10,L|304:192,1,45
256,44,27991,5,10,0:0:0:0:
88,192,28241,1,0,0:0:0:0:
88,192,28366,1,0,0:0:0:0:
88,192,28491,1,0,0:0:0:0:
284,100,28741,1,0,0:0:0:0:
384,300,28866,2,0,L|352:252,1,45
359,262,29116,5,0,0:0:0:0:
360,268,29241,1,0,0:0:0:0:
359,262,29366,1,0,0:0:0:0:
359,262,29491,1,0,0:0:0:0:
256,44,29741,1,0,0:0:0:0:
256,340,29991,5,10,0:0:0:0:
424,192,30241,1,0,0:0:0:0:
424,192,30366,1,0,0:0:0:0:
150,122,30741,1,0,0:0:0:0:
128,84,30866,2,0,L|168:152,1,45
116,232,31116,5,8,0:0:0:0:
180,296,31241,1,8,0:0:0:0:
256,340,31366,1,8,0:0:0:0:
256,340,31491,1,8,0:0:0:0:
218,314,31741,2,10,L|279:356,1,45
204,72,31991,5,12,0:0:0:0:
60,248,32241,2,0,L|36:292,1,26.9999991760254
384,308,32741,6,0,L|412:328,1,26.9999991760254
405,323,33116,1,0,0:0:0:0:
412,84,33241,2,0,L|440:104,3,26.9999991760254
296,280,33741,2,0,L|268:304,1,26.9999991760254
64,112,33991,5,0,0:0:0:0:
136,304,34241,2,0,L|168:328,1,26.9999991760254
416,152,34741,6,2,L|388:120,1,26.9999991760254,2|2,2:2|2:2,2:2:0:0:
288,89,35116,5,0,0:0:0:0:
288,89,35241,1,0,0:0:0:0:
120,208,35491,1,0,0:0:0:0:
120,208,35616,1,0,0:0:0:0:
296,56,35991,5,0,0:0:0:0:
124,144,36241,2,0,L|92:164,1,26.9999991760254
324,344,36741,6,0,L|360:356,1,26.9999991760254
404,168,37241,2,0,L|436:144,4,26.9999991760254
212,336,37866,1,0,0:0:0:0:
212,336,37991,5,0,0:0:0:0:
108,196,38241,2,0,L|76:172,1,26.9999991760254
332,96,38741,6,2,L|364:72,1,26.9999991760254,2|2,2:2|2:2,2:2:0:0:
148,316,39116,5,0,0:0:0:0:
100,244,39241,1,0,0:0:0:0:
156,88,39616,5,8,0:0:0:0:
148,316,39741,2,8,L|172:344,1,26.9999991760254
156,88,39991,5,8,0:0:0:0:
328,60,47991,5,8,0:0:0:0:
328,60,48116,1,0,0:0:0:0:
328,60,48241,1,0,0:0:0:0:
136,156,48491,1,8,0:0:0:0:
136,156,48741,2,0,L|84:232,1,90,0|8,0:0|0:0,0:0:0:0:
152,316,49116,5,0,0:0:0:0:
256,344,49241,1,0,0:0:0:0:
364,336,49366,1,0,0:0:0:0:
152,316,49491,1,8,0:0:0:0:
152,316,49616,1,0,0:0:0:0:
152,316,49741,1,0,0:0:0:0:
440,92,49991,5,8,0:0:0:0:
440,92,50116,1,0,0:0:0:0:
440,92,50241,1,0,0:0:0:0:
232,156,50491,1,8,0:0:0:0:
232,156,50741,2,0,L|144:120,1,90,0|8,0:0|0:0,0:0:0:0:
84,36,51116,5,0,0:0:0:0:
44,136,51241,1,0,0:0:0:0:
76,240,51366,1,0,0:0:0:0:
84,36,51491,1,8,0:0:0:0:
84,36,51616,1,0,0:0:0:0:
440,160,51991,5,8,0:0:0:0:
440,160,52116,1,0,0:0:0:0:
440,160,52241,1,0,0:0:0:0:
248,324,52491,1,8,0:0:0:0:
440,160,52741,2,0,L|468:56,1,90,0|8,0:0|0:0,0:0:0:0:
344,36,53116,5,0,0:0:0:0:
220,40,53241,1,0,0:0:0:0:
120,120,53366,1,0,0:0:0:0:
96,244,53491,1,8,0:0:0:0:
96,244,53616,1,0,0:0:0:0:
72,44,53991,5,8,0:0:0:0:
72,44,54116,1,0,0:0:0:0:
72,44,54241,1,0,0:0:0:0:
308,136,54491,1,8,0:0:0:0:
72,44,54741,2,0,L|32:160,1,90,0|8,0:0|0:0,0:0:0:0:
44,256,55116,5,0,0:0:0:0:
148,324,55241,1,0,0:0:0:0:
272,336,55366,1,0,0:0:0:0:
388,288,55491,1,8,0:0:0:0:
388,288,55616,1,0,0:0:0:0:
256,36,55991,5,10,0:0:0:0:
256,36,56116,1,0,0:0:0:0:
256,36,56241,1,0,0:0:0:0:
40,224,56491,1,8,0:0:0:0:
40,224,56741,2,0,L|88:332,1,90,0|8,0:0|0:0,0:0:0:0:
84,164,57116,5,0,0:0:0:0:
152,292,57241,1,0,0:0:0:0:
288,340,57366,1,0,0:0:0:0:
428,304,57491,1,8,0:0:0:0:
428,304,57616,1,0,0:0:0:0:
256,348,57991,5,10,0:0:0:0:
256,348,58116,1,0,0:0:0:0:
256,348,58241,1,0,0:0:0:0:
460,148,58491,1,8,0:0:0:0:
460,148,58741,2,0,L|424:44,1,90,0|8,0:0|0:0,0:0:0:0:
416,208,59116,5,0,0:0:0:0:
320,100,59241,1,0,0:0:0:0:
180,64,59366,1,0,0:0:0:0:
44,112,59491,1,8,0:0:0:0:
44,112,59616,1,0,0:0:0:0:
476,192,59991,5,10,0:0:0:0:
476,192,60116,1,0,0:0:0:0:
476,192,60241,1,0,0:0:0:0:
180,60,60491,1,10,0:0:0:0:
476,192,60741,2,0,L|432:284,1,90,0|10,0:0|0:0,0:0:0:0:
476,116,61116,5,0,0:0:0:0:
324,60,61241,1,0,0:0:0:0:
164,76,61366,1,0,0:0:0:0:
52,192,61491,1,10,0:0:0:0:
52,192,61616,1,0,0:0:0:0:
32,192,61991,5,10,0:0:0:0:
32,192,62116,1,0,0:0:0:0:
32,192,62241,1,0,0:0:0:0:
324,328,62491,1,10,0:0:0:0:
32,192,62741,2,0,L|92:100,1,90,0|10,0:0|0:0,0:0:0:0:
32,272,63116,5,0,0:0:0:0:
180,340,63241,1,0,0:0:0:0:
340,312,63366,1,0,0:0:0:0:
452,196,63491,1,10,0:0:0:0:
452,196,63616,1,0,0:0:0:0:
256,192,63991,5,10,0:0:0:0:
72,148,64366,1,0,0:0:0:0:
72,148,64491,1,0,0:0:0:0:
308,60,64866,5,0,0:0:0:0:
364,88,64991,1,0,0:0:0:0:
408,132,65116,1,0,0:0:0:0:
440,188,65241,1,0,0:0:0:0:
440,252,65366,1,0,0:0:0:0:
416,308,65491,1,0,0:0:0:0:
380,348,65616,1,0,0:0:0:0:
380,348,65741,1,0,0:0:0:0:
436,104,65991,5,0,0:0:0:0:
64,48,66366,2,0,L|128:60,1,45
100,244,66866,6,0,L|124:284,2,45
188,284,67241,2,0,L|216:236,2,45
272,252,67616,2,0,L|304:296,2,45
84,164,67991,5,0,0:0:0:0:
372,60,68241,1,0,0:0:0:0:
300,92,68366,1,0,0:0:0:0:
32,240,68866,5,0,0:0:0:0:
92,288,68991,1,0,0:0:0:0:
160,324,69116,1,0,0:0:0:0:
232,344,69241,1,0,0:0:0:0:
308,352,69366,1,0,0:0:0:0:
384,348,69491,1,0,0:0:0:0:
452,316,69616,1,0,0:0:0:0:
452,316,69741,1,0,0:0:0:0:
304,48,69991,5,0,0:0:0:0:
348,352,70241,2,0,L|336:288,1,45
76,156,70866,6,0,P|76:120|84:112,1,45
156,124,71116,2,0,P|176:88|192:84,1,45
252,104,71366,2,0,P|288:84|300:96,1,45
360,104,71616,2,0,P|400:96|412:104,1,45
401,96,71866,1,0,0:0:0:0:
276,336,71991,5,10,2:0:0:0:
104,176,72241,2,0,P|100:152|76:136,1,45
236,48,72741,6,0,P|272:32|300:44,2,45
196,92,73116,2,0,P|180:108|168:148,1,45
170,128,73366,1,0,0:0:0:0:
170,128,73491,1,0,0:0:0:0:
170,128,73741,1,0,0:0:0:0:
460,196,73991,5,10,0:0:0:0:
264,320,74241,2,0,L|208:340,1,45
104,204,74741,5,0,0:0:0:0:
104,204,74866,1,0,0:0:0:0:
104,204,74991,2,0,P|92:168|112:128,1,45
104,204,75241,1,0,0:0:0:0:
104,204,75366,1,0,0:0:0:0:
104,204,75491,2,0,P|124:244|144:256,2,45
360,52,75991,5,10,0:0:0:0:
380,284,76241,2,0,L|372:204,1,45
212,300,76741,6,0,P|192:312|168:300,1,45
128,268,76991,1,0,0:0:0:0:
96,220,77116,1,0,0:0:0:0:
80,164,77241,1,0,0:0:0:0:
80,104,77366,2,0,P|84:76|112:48,1,45
44,292,77741,1,0,0:0:0:0:
456,240,77991,5,10,0:0:0:0:
292,72,78241,1,0,0:0:0:0:
332,116,78366,1,0,0:0:0:0:
280,284,78741,5,0,0:0:0:0:
280,284,78866,1,0,0:0:0:0:
208,332,78991,1,0,0:0:0:0:
208,332,79116,1,0,0:0:0:0:
140,284,79241,1,0,0:0:0:0:
140,284,79366,1,0,0:0:0:0:
68,332,79491,1,0,0:0:0:0:
68,332,79616,1,0,0:0:0:0:
68,248,79741,1,0,0:0:0:0:
80,64,79991,6,0,L|252:32,1,135,8|0,0:0|0:0,0:0:0:0:
292,112,80866,6,0,B|236:80|236:80|176:120,3,135
108,160,82366,6,2,L|72:192,1,45
92,212,82616,2,2,L|64:264,1,45
92,268,82866,2,2,L|80:328,1,45
112,308,83116,2,2,L|112:364,1,45
140,348,83366,6,2,L|144:288,1,45
168,312,83616,2,2,L|196:244,2,45
244,340,83991,6,0,B|280:344|280:344|372:288,1,135
428,184,84741,5,0,0:0:0:0:
424,140,84866,2,0,P|416:104|376:64,1,90
340,44,85241,2,0,P|300:20|196:44,1,135
176,52,85741,1,0,0:0:0:0:
144,84,85866,1,0,0:0:0:0:
120,120,85991,2,0,P|104:184|148:256,1,135
192,288,86491,1,0,0:0:0:0:
264,304,86616,1,0,0:0:0:0:
332,280,86741,1,0,0:0:0:0:
380,228,86866,2,0,P|412:184|388:128,1,90
380,84,87241,2,0,P|364:52|256:32,1,135
152,48,87991,5,8,0:1:0:0:
84,104,88116,1,0,0:0:0:0:
60,192,88241,1,0,0:0:0:0:
84,280,88366,1,0,0:0:0:0:
172,296,88491,5,8,0:1:0:0:
228,224,88616,1,0,0:0:0:0:
176,152,88741,1,0,0:0:0:0:
196,64,88866,1,0,0:0:0:0:
280,36,88991,1,8,0:1:0:0:
364,72,89116,1,0,0:0:0:0:
400,152,89241,1,0,0:0:0:0:
376,240,89366,1,0,0:0:0:0:
288,236,89491,5,8,0:1:0:0:
256,152,89616,1,0,0:0:0:0:
196,84,89741,1,0,0:0:0:0:
108,96,89866,1,0,0:0:0:0:
44,160,89991,1,8,0:1:0:0:
44,248,90116,1,0,0:0:0:0:
108,308,90241,1,0,0:0:0:0:
192,340,90366,1,0,0:0:0:0:
280,356,90491,1,8,0:1:0:0:
368,344,90616,1,0,0:0:0:0:
452,308,90741,1,0,0:0:0:0:
484,224,90866,1,0,0:0:0:0:
464,136,90991,5,8,0:1:0:0:
400,72,91116,1,0,0:0:0:0:
312,72,91241,1,0,0:0:0:0:
268,148,91366,1,0,0:0:0:0:
288,236,91491,1,8,0:1:0:0:
372,268,91616,1,0,0:0:0:0:
432,200,91741,1,0,0:0:0:0:
380,124,91866,1,0,0:0:0:0:
292,108,91991,6,0,L|236:96,3,45,8|0|0|0,0:1|0:0|0:0|0:0,0:0:0:0:
156,92,92491,2,0,P|132:100|112:120,1,45,8|0,0:1|0:0,0:0:0:0:
64,184,92741,2,0,P|60:208|64:244,1,45
104,316,92991,2,0,P|144:344|168:344,1,45,8|0,0:1|0:0,0:0:0:0:
228,348,93241,2,0,P|272:352|292:348,1,45
364,344,93491,2,0,P|404:332|424:320,3,45,8|0|0|0,0:1|0:0|0:0|0:0,0:0:0:0:
484,256,93991,5,8,0:1:0:0:
392,312,94116,1,0,0:0:0:0:
284,324,94241,1,0,0:0:0:0:
180,296,94366,1,0,0:0:0:0:
112,212,94491,1,8,0:1:0:0:
92,104,94616,1,0,0:0:0:0:
168,28,94741,1,0,0:0:0:0:
276,24,94866,1,0,0:0:0:0:
372,76,94991,1,8,0:1:0:0:
424,172,95116,1,0,0:0:0:0:
404,276,95241,1,0,0:0:0:0:
320,344,95366,1,0,0:0:0:0:
216,324,95491,1,8,0:1:0:0:
204,216,95616,1,0,0:0:0:0:
268,128,95741,1,0,0:0:0:0:
372,76,95866,1,0,0:0:0:0:
480,84,95991,5,8,0:1:0:0:
312,320,96241,2,0,P|292:336|304:360,1,45
295,352,96491,1,8,0:2:0:0:
44,68,96741,6,0,P|52:44|80:56,1,45
80,296,97116,6,0,P|92:284|120:296,1,45
236,72,97491,1,0,0:0:0:0:
352,296,97741,1,2,0:0:0:0:
48,184,97991,5,8,0:1:0:0:
292,340,98241,2,0,P|320:348|332:328,1,45
329,338,98491,1,8,0:2:0:0:
48,84,98741,6,0,P|56:64|80:72,1,45
328,60,99116,6,0,P|360:60|360:84,1,45
344,320,99491,1,2,0:0:0:0:
220,316,99616,1,2,0:0:0:0:
324,248,99741,1,2,0:0:0:0:
200,248,99866,1,2,0:0:0:0:
448,52,99991,5,8,0:1:0:0:
160,56,100241,2,0,B|132:48|132:48|116:80,1,45
124,62,100491,1,8,0:2:0:0:
460,240,100741,6,0,B|464:260|464:260|424:260,1,45
200,344,101116,6,0,B|180:332|180:332|192:304,1,45
92,80,101491,1,0,0:0:0:0:
344,80,101741,1,2,0:0:0:0:
40,340,101991,5,8,0:1:0:0:
324,296,102241,1,0,0:0:0:0:
324,296,102366,1,0,0:0:0:0:
324,296,102491,1,8,0:2:0:0:
28,60,102741,5,0,0:0:0:0:
28,60,102866,1,0,0:0:0:0:
280,32,103116,5,0,0:0:0:0:
344,64,103241,1,0,0:0:0:0:
292,312,103491,2,10,L|248:280,1,45,10|10,0:2|0:2,0:2:0:0:
152,212,103741,2,10,L|212:252,1,45,10|10,0:2|0:2,0:2:0:0:
476,228,103991,5,8,0:1:0:0:
188,36,104241,2,0,P|164:32|132:48,1,53.9999983520508
137,43,104491,1,8,0:2:0:0:
472,348,104741,6,0,P|448:336|436:304,1,53.9999983520508
136,272,105116,6,0,P|144:300|124:328,1,53.9999983520508
292,64,105491,1,0,0:0:0:0:
292,64,105616,1,0,0:0:0:0:
264,236,105741,1,2,0:0:0:0:
36,156,105991,5,8,0:1:0:0:
320,356,106241,2,0,P|360:372|396:364,1,53.9999983520508
370,371,106491,1,8,0:2:0:0:
68,32,106741,6,0,P|32:56|28:96,1,53.9999983520508
176,32,106991,1,0,0:0:0:0:
76,144,107116,6,0,P|48:184|60:220,1,53.9999983520508
112,324,107366,1,0,0:0:0:0:
208,208,107491,1,2,0:0:0:0:
288,336,107616,1,2,0:0:0:0:
208,208,107741,1,2,0:0:0:0:
112,324,107866,1,2,0:0:0:0:
476,228,107991,5,8,0:1:0:0:
188,36,108241,2,0,P|144:28|116:44,1,53.9999983520508
188,36,108491,1,8,0:2:0:0:
500,304,108741,6,0,P|488:336|460:348,1,53.9999983520508
360,64,109116,6,0,P|344:88|312:96,1,53.9999983520508
48,228,109491,1,0,0:0:0:0:
88,304,109616,1,0,0:0:0:0:
168,336,109741,1,2,0:0:0:0:
292,36,109991,5,8,0:1:0:0:
448,344,110241,2,0,P|460:320|448:276,1,53.9999983520508
448,344,110491,1,8,0:2:0:0:
64,68,110741,6,0,P|88:64|120:96,1,53.9999983520508
204,200,110991,1,0,0:0:0:0:
252,56,111116,6,0,P|292:60|308:92,1,53.9999983520508
404,176,111366,1,10,0:0:0:0:
404,176,111491,1,10,0:0:0:0:
336,312,111616,1,10,0:0:0:0:
268,152,111741,1,10,0:0:0:0:
452,264,111866,1,10,0:0:0:0:
356,60,111991,5,10,0:0:0:0:
356,348,112241,1,2,0:0:0:0:
356,276,112366,1,2,0:0:0:0:
356,276,112491,1,2,0:0:0:0:
72,328,112741,6,0,P|56:304|68:268,1,45
100,148,112991,5,0,0:0:0:0:
152,100,113116,1,0,0:0:0:0:
220,76,113241,1,0,0:0:0:0:
292,84,113366,1,0,0:0:0:0:
356,120,113491,1,0,0:0:0:0:
408,172,113616,1,0,0:0:0:0:
440,236,113741,1,0,0:0:0:0:
444,308,113866,1,0,0:0:0:0:
440,236,113991,2,2,P|432:212|400:168,1,45
384,136,114241,2,2,P|360:116|312:96,1,45
280,84,114491,2,2,P|232:76|200:88,1,45
356,340,114866,5,0,0:0:0:0:
396,280,114991,1,0,0:0:0:0:
408,208,115116,1,0,0:0:0:0:
384,140,115241,1,0,0:0:0:0:
344,80,115366,1,0,0:0:0:0:
280,48,115491,1,0,0:0:0:0:
208,44,115616,1,0,0:0:0:0:
144,76,115741,1,0,0:0:0:0:
104,136,115866,1,0,0:0:0:0:
172,108,115991,2,2,P|204:96|236:100,1,45
288,100,116241,2,2,P|316:104|340:120,1,45
388,156,116491,2,2,P|408:168|432:220,1,45
180,344,116866,5,0,0:0:0:0:
128,292,116991,1,0,0:0:0:0:
96,228,117116,1,0,0:0:0:0:
88,156,117241,1,0,0:0:0:0:
156,184,117366,1,0,0:0:0:0:
160,112,117491,1,0,0:0:0:0:
200,52,117616,1,0,0:0:0:0:
268,24,117741,1,0,0:0:0:0:
340,28,117866,1,0,0:0:0:0:
444,128,117991,2,2,P|464:152|456:184,5,45
204,36,118866,6,0,P|176:40|148:56,2,45
56,124,119241,2,0,P|24:140|8:168,2,45
188,116,119616,2,0,P|160:128|140:160,2,45
268,336,119991,5,0,0:0:0:0:
268,336,120116,1,0,0:0:0:0:
268,336,120241,1,0,0:0:0:0:
412,244,120366,2,2,P|428:212|428:176,2,45
168,48,120866,5,0,0:0:0:0:
104,96,120991,1,0,0:0:0:0:
68,172,121116,1,0,0:0:0:0:
72,252,121241,1,0,0:0:0:0:
124,316,121366,1,0,0:0:0:0:
196,356,121491,1,0,0:0:0:0:
276,364,121616,1,0,0:0:0:0:
356,344,121741,1,0,0:0:0:0:
408,280,121866,1,0,0:0:0:0:
356,344,121991,2,2,P|312:360|276:364,1,45
232,364,122241,2,2,P|204:360|168:340,1,45
120,308,122491,2,2,P|88:280|76:248,1,45
308,40,122866,5,0,0:0:0:0:
368,96,122991,1,0,0:0:0:0:
396,172,123116,1,0,0:0:0:0:
396,252,123241,1,0,0:0:0:0:
360,324,123366,1,0,0:0:0:0:
396,252,123491,1,0,0:0:0:0:
396,172,123616,1,0,0:0:0:0:
368,96,123741,1,0,0:0:0:0:
308,40,123866,1,0,0:0:0:0:
104,188,123991,6,0,P|104:216|120:232,1,36
172,320,124241,2,0,P|188:340|220:352,1,36
172,320,124491,2,0,P|188:340|220:352,1,36
412,236,124866,5,0,0:0:0:0:
408,180,124991,1,0,0:0:0:0:
384,128,125116,1,0,0:0:0:0:
352,80,125241,1,0,0:0:0:0:
308,44,125366,1,0,0:0:0:0:
252,24,125491,1,0,0:0:0:0:
196,16,125616,1,0,0:0:0:0:
140,16,125741,1,0,0:0:0:0:
84,32,125866,1,0,0:0:0:0:
256,192,125991,12,14,127991,0:0:0:0:
