osu file format v14

[General]
AudioFilename: audio.mp3
AudioLeadIn: 0
PreviewTime: 1275
Countdown: 0
SampleSet: Soft
StackLeniency: 0.7
Mode: 0
LetterboxInBreaks: 0
WidescreenStoryboard: 0

[Editor]
Bookmarks: 34686,51381
DistanceSpacing: 1.2
BeatDivisor: 4
GridSize: 32
TimelineZoom: 2.6

[Metadata]
Title:Ama no Hane wa Kami no Gotoshi
TitleUnicode:天之羽如神
Artist:Spide
ArtistUnicode:Spide
Creator:tatemae
Version:Normal
Source:
Tags:black man fixxis Riparia Record Lorenotices anishina kodoku loreley EijiKuinbii kjlfaklf 619 short cut ver version
BeatmapID:1936170
BeatmapSetID:926835

[Difficulty]
HPDrainRate:3.5
CircleSize:3
OverallDifficulty:3
ApproachRate:6
SliderMultiplier:1.40000000596046
SliderTickRate:1

[Events]
//Background and Video events
0,0,"65165749_p0.jpg",0,0
//Break Periods
2,51561,62583
//Storyboard Layer 0 (Background)
//Storyboard Layer 1 (Fail)
//Storyboard Layer 2 (Pass)
//Storyboard Layer 3 (Foreground)
//Storyboard Layer 4 (Overlay)
//Storyboard Sound Samples

[TimingPoints]
1275,521.739130434783,4,2,1,60,1,0
15883,-100,4,2,1,65,0,0
17970,-100,4,2,1,60,0,0
32579,-100,4,2,1,65,0,0
34666,-100,4,2,1,65,0,0
49275,-100,4,2,1,65,0,0
51361,-100,4,2,1,70,0,0
65970,-100,4,2,1,70,0,0
68057,-100,4,2,1,50,0,0
74318,-100,4,2,1,65,0,0
74579,-100,4,2,1,70,0,0
76405,-100,4,2,1,60,0,0
93101,-100,4,2,1,70,0,0
105622,-100,4,2,1,70,0,0

[Colours]
Combo1 : 164,179,223
Combo2 : 249,155,239
Combo3 : 166,222,236

[HitObjects]
68,310,1275,6,0,L|116:307,1,35.0000001490115,4|0,0:0|0:0,0:0:0:0:
220,351,1796,1,8,0:0:0:0:
216,267,2057,2,0,P|212:233|206:182,2,70.000000298023,0|2|2,0:0|0:0|0:1,0:0:0:0:
294,297,2840,1,8,0:0:0:0:
351,235,3101,1,0,0:0:0:0:
427,269,3361,6,0,P|435:235|431:200,1,70.000000298023,2|0,0:0|0:0,0:0:0:0:
389,127,3883,1,8,0:0:0:0:
312,91,4144,2,0,L|273:93,1,35.0000001490115,0|2,0:0|0:1,0:0:0:0:
240,113,4405,2,0,L|155:111,2,70.000000298023,2|2|8,0:0|0:1|0:0,0:0:0:0:
269,192,5188,1,8,0:3:0:0:
187,208,5448,6,0,L|191:254,2,35.0000001490115,4|0|0,0:0|0:0|0:0,0:0:0:0:
115,163,5970,1,8,0:0:0:0:
69,233,6231,2,0,P|34:235|-5:236,2,70.000000298023,0|2|2,0:0|0:0|0:1,0:0:0:0:
119,300,7014,1,8,0:0:0:0:
187,250,7275,1,0,0:0:0:0:
242,312,7535,6,0,P|279:307|321:306,2,70.000000298023,2|0|8,0:0|0:0|0:0,0:0:0:0:
206,235,8318,2,0,L|202:188,1,35.0000001490115,0|2,0:0|0:1,0:0:0:0:
232,169,8579,2,0,L|228:85,1,70.000000298023,2|2,0:0|0:1,0:0:0:0:
313,99,9101,2,0,L|309:15,1,70.000000298023,8|2,0:0|0:3,0:0:0:0:
227,13,9622,6,0,L|179:16,1,35.0000001490115,2|0,0:0|0:0,0:0:0:0:
68,38,10143,1,8,0:0:0:0:
98,116,10405,2,0,B|60:128|60:128|20:106,2,70.000000298023,0|2|2,0:0|0:0|0:1,0:0:0:0:
182,110,11188,1,8,0:0:0:0:
168,192,11448,1,0,0:0:0:0:
103,245,11709,6,0,P|95:279|99:314,1,70.000000298023,2|0,0:0|0:0,0:0:0:0:
169,359,12230,1,8,0:0:0:0:
243,320,12491,2,0,L|282:318,1,35.0000001490115,0|2,0:0|0:1,0:0:0:0:
318,331,12753,2,0,L|401:328,2,70.000000298023,2|2|8,0:0|0:1|0:0,0:0:0:0:
323,247,13535,1,8,0:3:0:0:
252,201,13796,6,0,L|248:155,2,35.0000001490115,2|0|0,0:0|0:0|0:0,0:0:0:0:
168,196,14317,1,8,0:0:0:0:
90,150,14579,2,0,P|82:184|86:219,2,70.000000298023,0|2|2,0:0|0:0|0:1,0:0:0:0:
145,86,15361,1,8,0:0:0:0:
225,111,15622,1,0,0:0:0:0:
304,83,15883,6,0,P|301:49|303:13,2,70.000000298023,2|2|8,0:0|0:0|0:0,0:0:0:0:
376,125,16666,2,0,P|379:162|378:206,1,70.000000298023,0|2,0:0|0:0,0:0:0:0:
304,234,17188,1,2,0:1:0:0:
269,310,17448,2,0,L|232:308,1,35.0000001490115,8|8,0:3|0:0,0:0:0:0:
198,329,17709,2,0,L|161:327,1,35.0000001490115,2|0,0:1|0:0,0:0:0:0:
126,308,17970,5,4,0:0:0:0:
61,152,18492,1,8,0:0:0:0:
89,73,18753,2,0,B|54:63|54:63|22:75,2,70.000000298023,0|0|2,0:0|0:0|0:3,0:0:0:0:
159,119,19535,1,8,0:0:0:0:
229,72,19796,1,0,0:0:0:0:
303,110,20057,6,0,L|306:179,1,70.000000298023,2|0,0:0|0:0,0:0:0:0:
370,235,20579,1,8,0:0:0:0:
451,213,20840,2,0,L|451:174,1,35.0000001490115,0|2,0:0|0:3,0:0:0:0:
474,142,21101,2,0,L|470:57,2,70.000000298023,0|2|8,0:0|0:3|0:0,0:0:0:0:
391,122,21884,1,8,0:3:0:0:
322,73,22144,6,0,L|321:38,2,35.0000001490115,2|0|0,0:0|0:0|0:0,0:0:0:0:
267,137,22666,1,8,0:0:0:0:
183,129,22927,2,0,P|148:124|113:119,2,70.000000298023,0|0|2,0:0|0:0|0:3,0:0:0:0:
229,198,23709,1,8,0:0:0:0:
178,265,23971,1,0,0:0:0:0:
234,326,24231,6,0,P|265:321|303:321,2,70.000000298023,2|0|8,0:0|0:0|0:0,0:0:0:0:
154,354,25014,2,0,L|119:358,1,35.0000001490115,0|0,0:0|0:0,0:0:0:0:
98,321,25275,2,0,P|69:294|50:253,1,70.000000298023,2|0,0:0|0:0,0:0:0:0:
115,209,25796,2,0,P|123:171|149:133,1,70.000000298023,8|0,0:0|0:0,0:0:0:0:
217,112,26318,6,0,L|251:114,1,35.0000001490115,2|0,0:0|0:0,0:0:0:0:
334,209,26839,1,8,0:0:0:0:
414,183,27101,2,0,P|418:222|416:260,2,70.000000298023,0|0|2,0:0|0:0|0:3,0:0:0:0:
446,105,27883,1,8,0:0:0:0:
392,40,28144,1,0,0:0:0:0:
310,62,28405,6,0,P|275:62|230:64,1,70.000000298023,2|0,0:0|0:0,0:0:0:0:
167,105,28926,1,8,0:0:0:0:
84,89,29187,2,0,L|82:133,1,35.0000001490115,0|2,0:0|0:3,0:0:0:0:
72,164,29448,2,0,P|67:199|70:245,2,70.000000298023,0|2|8,0:0|0:3|0:0,0:0:0:0:
147,201,30231,1,8,0:3:0:0:
205,261,30492,6,0,L|250:255,2,35.0000001490115,2|0|0,0:0|0:0|0:0,0:0:0:0:
147,322,31013,1,8,0:0:0:0:
224,355,31275,2,0,L|295:355,2,70.000000298023,0|0|2,0:0|0:0|0:3,0:0:0:0:
146,321,32057,1,8,0:0:0:0:
205,261,32318,1,0,0:0:0:0:
226,179,32579,6,0,P|192:180|144:178,2,70.000000298023,2|2|8,0:0|0:0|0:0,0:0:0:0:
308,165,33361,2,0,L|307:124,1,35.0000001490115,0|0,0:0|0:0,0:0:0:0:
343,107,33623,1,2,0:0:0:0:
284,46,33884,1,2,0:0:0:0:
206,76,34144,2,0,L|169:78,1,35.0000001490115,8|0,0:3|0:0,0:0:0:0:
135,58,34405,2,0,L|98:60,1,35.0000001490115,8|0,0:0|0:0,0:0:0:0:
58,51,34666,6,0,L|60:134,1,70.000000298023,4|0,0:0|0:0,0:0:0:0:
27,198,35188,2,0,P|69:203|106:190,1,70.000000298023,8|0,0:0|0:0,0:0:0:0:
134,180,35579,2,0,P|167:172|202:177,1,70.000000298023,8|0,0:0|0:0,0:0:0:0:
234,205,35970,1,8,0:0:0:0:
301,154,36231,2,0,P|316:203|303:253,1,105.000000447034,2|0,0:3|0:0,0:0:0:0:
271,282,36753,5,2,0:0:0:0:
335,335,37014,1,2,0:0:0:0:
413,364,37275,2,0,P|416:321|402:285,1,70.000000298023,8|0,0:0|0:0,0:0:0:0:
424,256,37666,2,0,P|414:223|418:188,1,70.000000298023,8|0,0:0|0:0,0:0:0:0:
436,149,38057,1,8,0:0:0:0:
482,78,38318,2,0,P|431:66|382:83,1,105.000000447034,2|0,0:3|0:0,0:0:0:0:
345,104,38840,6,0,L|268:100,1,70.000000298023,2|0,0:0|0:0,0:0:0:0:
206,51,39361,2,0,P|192:91|197:129,1,70.000000298023,8|0,0:0|0:0,0:0:0:0:
201,159,39753,2,0,P|201:192|189:226,1,70.000000298023,8|0,0:0|0:0,0:0:0:0:
156,252,40143,1,8,0:0:0:0:
192,328,40404,2,0,P|140:332|94:309,1,105.000000447034,2|0,0:3|0:0,0:0:0:0:
70,274,40926,5,2,0:0:0:0:
85,191,41187,1,2,0:0:0:0:
16,142,41448,2,0,P|13:99|27:63,1,70.000000298023,8|0,0:0|0:0,0:0:0:0:
48,41,41840,2,0,P|80:31|116:35,1,70.000000298023,8|0,0:0|0:0,0:0:0:0:
148,61,42230,1,8,0:0:0:0:
213,7,42491,2,0,P|230:55|219:106,1,105.000000447034,2|0,0:3|0:0,0:0:0:0:
208,147,43014,6,0,L|281:144,1,70.000000298023,2|0,0:0|0:0,0:0:0:0:
348,99,43535,2,0,P|359:139|352:178,1,70.000000298023,8|0,0:0|0:0,0:0:0:0:
346,207,43927,2,0,P|343:240|353:274,1,70.000000298023,8|0,0:0|0:0,0:0:0:0:
380,307,44317,1,8,0:0:0:0:
307,350,44578,2,0,L|188:347,1,105.000000447034,2|0,0:3|0:0,0:0:0:0:
182,310,45100,5,2,0:0:0:0:
108,349,45361,1,2,0:0:0:0:
36,305,45622,2,0,P|33:262|47:226,1,70.000000298023,8|0,0:0|0:0,0:0:0:0:
76,213,46014,2,0,P|86:180|82:145,1,70.000000298023,8|0,0:0|0:0,0:0:0:0:
52,115,46404,1,8,0:0:0:0:
98,44,46665,2,0,P|154:40|217:44,1,105.000000447034,2|0,0:3|0:0,0:0:0:0:
243,51,47187,6,0,L|244:131,1,70.000000298023,2|0,0:0|0:0,0:0:0:0:
216,200,47709,2,0,B|250:210|250:210|289:191,1,70.000000298023,8|0,0:0|0:0,0:0:0:0:
321,180,48101,2,0,B|352:164|352:164|386:174,1,70.000000298023,8|0,0:0|0:0,0:0:0:0:
415,204,48492,1,8,0:0:0:0:
387,283,48753,2,0,L|303:293,1,70.000000298023,2|8,0:3|0:0,0:0:0:0:
233,303,49275,1,2,0:0:0:0:
256,192,49340,12,12,51361,0:3:0:0:
256,192,63883,12,10,67014,0:0:0:0:
402,322,68057,6,0,L|407:240,1,70.000000298023,6|0,0:3|0:0,0:0:0:0:
409,167,68579,1,2,0:1:0:0:
319,255,68970,2,0,P|281:259|244:245,1,70.000000298023,2|0,0:3|0:0,0:0:0:0:
216,226,69361,2,0,P|178:222|141:236,2,70.000000298023,2|2|2,0:3|0:0|0:1,0:0:0:0:
264,157,70144,6,0,L|269:75,1,70.000000298023,2|0,0:0|0:0,0:0:0:0:
278,3,70666,1,2,0:1:0:0:
180,82,71057,2,0,P|142:86|105:72,1,70.000000298023,2|0,0:3|0:0,0:0:0:0:
78,51,71448,2,0,P|40:47|3:61,2,70.000000298023,2|2|2,0:3|0:0|0:1,0:0:0:0:
48,130,72231,6,0,L|52:199,1,70.000000298023,2|0,0:0|0:0,0:0:0:0:
78,279,72753,1,2,0:1:0:0:
186,342,73144,2,0,P|194:308|189:274,1,70.000000298023,2|0,0:3|0:0,0:0:0:0:
200,233,73535,2,0,L|281:220,2,70.000000298023,2|2|2,0:3|0:0|0:1,0:0:0:0:
176,152,74318,6,0,L|251:140,1,70.000000298023,2|2,0:0|0:0,0:0:0:0:
328,126,74840,2,0,L|403:114,1,70.000000298023,2|0,0:1|0:0,0:0:0:0:
438,120,75231,1,2,0:3:0:0:
462,153,75361,2,0,P|469:208|448:286,1,105.000000447034,0|0,0:0|0:0,0:0:0:0:
423,275,75883,2,0,L|336:270,1,70.000000298023,8|8,0:3|0:3,0:0:0:0:
268,265,76405,1,4,0:0:0:0:
169,128,76927,6,0,B|155:182|155:182|171:228,2,105.000000447034,8|2|2,0:0|0:3|0:3,0:0:0:0:
208,54,77970,1,8,0:0:0:0:
376,58,78492,6,0,L|372:140,1,70.000000298023,2|2,0:3|0:3,0:0:0:0:
369,212,79014,1,8,0:0:0:0:
475,145,79405,2,0,L|468:249,1,105.000000447034,2|2,0:3|0:3,0:0:0:0:
464,333,80057,1,8,0:0:0:0:
385,302,80318,1,8,0:3:0:0:
313,346,80579,6,0,P|277:351|233:342,1,70.000000298023,2|0,0:0|0:0,0:0:0:0:
168,309,81101,1,8,0:0:0:0:
234,201,81492,2,0,P|186:182|111:205,1,105.000000447034,2|2,0:3|0:3,0:0:0:0:
66,239,82144,1,8,0:0:0:0:
42,72,82666,6,0,L|133:67,1,70.000000298023,2|2,0:3|0:3,0:0:0:0:
196,65,83188,1,8,0:0:0:0:
314,23,83579,2,0,P|314:88|316:154,1,105.000000447034,2|2,0:3|0:3,0:0:0:0:
323,211,84231,1,8,0:0:0:0:
404,230,84492,1,8,0:3:0:0:
460,168,84753,6,0,P|457:133|459:85,1,70.000000298023,2|0,0:0|0:0,0:0:0:0:
484,18,85275,1,8,0:0:0:0:
365,59,85666,2,0,L|251:58,1,105.000000447034,2|2,0:3|0:3,0:0:0:0:
177,44,86318,1,8,0:0:0:0:
35,134,86840,6,0,B|28:171|28:171|39:215,1,70.000000298023,2|2,0:3|0:3,0:0:0:0:
87,268,87361,1,8,0:0:0:0:
166,170,87753,2,0,L|282:177,1,105.000000447034,2|2,0:3|0:3,0:0:0:0:
353,190,88405,1,8,0:0:0:0:
403,256,88666,1,8,0:3:0:0:
443,182,88927,6,0,L|438:89,1,70.000000298023,2|0,0:0|0:0,0:0:0:0:
429,28,89448,1,8,0:0:0:0:
343,121,89840,2,0,P|266:107|214:108,1,105.000000447034,2|2,0:3|0:3,0:0:0:0:
155,116,90492,1,8,0:0:0:0:
59,254,91014,6,0,P|93:260|127:255,1,70.000000298023,2|2,0:3|0:3,0:0:0:0:
203,218,91535,1,8,0:0:0:0:
295,303,91927,2,0,P|365:297|409:300,1,105.000000447034,2|2,0:3|0:3,0:0:0:0:
480,321,92579,1,8,0:0:0:0:
454,240,92840,1,10,0:3:0:0:
455,155,93101,6,0,L|460:60,1,70.000000298023,6|2,0:0|0:3,0:0:0:0:
380,54,93622,2,0,L|372:168,2,105.000000447034,8|2|2,0:0|0:0|0:0,0:0:0:0:
297,35,94666,2,0,P|247:49|175:40,1,105.000000447034,8|0,0:0|0:0,0:0:0:0:
156,63,95188,6,0,L|161:158,1,70.000000298023,2|2,0:0|0:3,0:0:0:0:
81,164,95709,2,0,L|73:50,2,105.000000447034,8|2|2,0:0|0:0|0:0,0:0:0:0:
132,230,96753,2,0,P|184:233|234:219,1,105.000000447034,8|0,0:0|0:0,0:0:0:0:
274,231,97275,6,0,L|269:326,1,70.000000298023,2|2,0:0|0:3,0:0:0:0:
349,332,97796,2,0,L|357:218,2,105.000000447034,8|2|2,0:0|0:0|0:0,0:0:0:0:
427,363,98840,2,0,L|436:237,1,105.000000447034,8|0,0:0|0:0,0:0:0:0:
472,239,99361,6,0,L|477:144,1,70.000000298023,2|2,0:0|0:3,0:0:0:0:
448,89,99883,2,0,P|414:84|368:99,1,70.000000298023,8|2,0:0|0:3,0:0:0:0:
345,118,100275,2,0,P|311:123|265:108,1,70.000000298023,2|0,0:0|0:0,0:0:0:0:
239,94,100666,1,2,0:0:0:0:
173,145,100926,2,0,P|120:149|70:136,1,105.000000447034,8|0,0:0|0:0,0:0:0:0:
38,164,101448,6,0,L|33:259,1,70.000000298023,4|2,0:0|0:3,0:0:0:0:
113,261,101970,2,0,L|245:251,2,105.000000447034,8|2|2,0:0|0:0|0:0,0:0:0:0:
144,339,103013,2,0,L|261:330,1,105.000000447034,8|0,0:0|0:0,0:0:0:0:
282,356,103535,6,0,L|363:353,1,70.000000298023,2|2,0:0|0:3,0:0:0:0:
420,304,104057,2,0,L|428:190,2,105.000000447034,8|2|2,0:0|0:0|0:0,0:0:0:0:
341,272,105100,2,0,L|352:112,1,140.000000596046,8|2,0:0|0:0,0:0:0:0:
256,192,105753,12,12,109796,0:0:0:0:
