osu file format v14

[General]
AudioFilename: audio.mp3
AudioLeadIn: 0
PreviewTime: 1275
Countdown: 0
SampleSet: Soft
StackLeniency: 0.2
Mode: 0
LetterboxInBreaks: 0
WidescreenStoryboard: 0

[Editor]
Bookmarks: 34686,68077,76425,93121
DistanceSpacing: 1.1
BeatDivisor: 8
GridSize: 32
TimelineZoom: 2.6

[Metadata]
Title:Ama no Hane wa Kami no Gotoshi
TitleUnicode:天之羽如神
Artist:Spide
ArtistUnicode:Spide
Creator:tatemae
Version:Intertextuality
Source:
Tags:black man fixxis Riparia Record Lorenotices anishina kodoku loreley EijiKuinbii kjlfaklf 619 short cut ver version
BeatmapID:1935844
BeatmapSetID:926835

[Difficulty]
HPDrainRate:5
CircleSize:4.8
OverallDifficulty:8.5
ApproachRate:9.4
SliderMultiplier:1.41000000596046
SliderTickRate:1

[Events]
//Background and Video events
0,0,"65165749_p0.jpg",0,0
//Break Periods
//Storyboard Layer 0 (Background)
//Storyboard Layer 1 (Fail)
//Storyboard Layer 2 (Pass)
//Storyboard Layer 3 (Foreground)
//Storyboard Layer 4 (Overlay)
//Storyboard Sound Samples

[TimingPoints]
1275,521.739130434783,4,2,1,60,1,0
1275,-500,4,2,1,60,0,0
5188,-250,4,2,1,60,0,0
5448,-500,4,2,1,60,0,0
8579,-250,4,2,1,60,0,0
9101,-66.6666666666667,4,2,1,60,0,0
9622,-500,4,2,1,60,0,0
13535,-250,4,2,1,60,0,0
13796,-500,4,2,1,60,0,0
15883,-133.333333333333,4,2,1,65,0,0
16666,-66.6666666666667,4,2,1,65,0,0
16927,-25,4,2,1,65,0,1
17318,-133.333333333333,4,2,1,65,0,0
17579,-142.857142857143,4,2,1,65,0,0
17970,-500.000000000003,4,2,1,60,0,0
21883,-250,4,2,1,60,0,0
22144,-500.000000000003,4,2,1,60,0,0
25275,-250,4,2,1,60,0,0
25796,-25,4,2,1,60,0,0
26057,-500.000000000003,4,2,1,60,0,0
30231,-250.000000000001,4,2,1,60,0,0
30492,-500.000000000003,4,2,1,60,0,0
32579,-133.333333333333,4,2,1,65,0,0
33361,-66.6666666666667,4,2,1,65,0,0
33622,-25,4,2,1,65,0,1
34014,-133.333333333333,4,2,1,65,0,0
34144,-66.6666666666667,4,2,1,65,0,0
34405,-133.333333333333,4,2,1,65,0,0
34666,-25,4,2,1,65,0,0
50318,-25,4,2,1,65,0,1
50709,-133.333333333333,4,2,1,65,0,0
50840,-133.333333333333,4,2,1,65,0,0
51361,-25,4,2,1,70,0,0
67275,-25,4,2,1,70,0,1
67666,-133.333333333333,4,2,1,70,0,0
68057,-500.000000000003,4,2,1,50,0,0
74318,-500.000000000003,4,2,1,65,0,0
74405,-33.3333333333333,4,2,1,65,0,0
74579,-50,4,2,1,70,0,0
75361,-50,4,2,1,70,0,1
75753,-50,4,2,1,70,0,0
76144,-500,4,2,1,70,0,0
76405,-500.000000000003,4,2,1,60,0,0
93101,-500.000000000003,4,2,1,70,0,0
105622,-500.000000000003,4,2,1,70,0,0
107709,-100,4,2,1,70,0,0
108753,-25,4,2,1,70,0,1
109144,-133.333333333333,4,2,1,70,0,0
109275,-100,4,2,1,70,0,0

[Colours]
Combo1 : 162,162,81
Combo2 : 128,128,255
Combo3 : 255,168,81
Combo4 : 230,56,26
Combo5 : 39,79,216
Combo6 : 172,45,99
Combo7 : 117,71,173
Combo8 : 64,128,128

[HitObjects]
61,126,1275,5,4,0:0:0:0:
103,349,1405,1,0,0:0:0:0:
371,365,1796,6,0,L|375:350,1,14.1000000596046,8|0,0:0|0:0,0:0:0:0:
378,341,2188,1,2,0:1:0:0:
451,360,2318,102,0,L|448:368,1,7.0500000298023,2|0,0:0|0:0,0:0:0:0:
310,320,2579,2,0,L|307:328,1,7.0500000298023,2|0,0:1|0:0,0:0:0:0:
37,265,2840,6,0,L|34:258,1,7.0500000298023,8|0,0:0|0:0,0:0:0:0:
178,222,3101,2,0,L|180:228,1,7.0500000298023,0|0,0:0|0:0,0:0:0:0:
487,220,3361,102,0,L|489:213,1,7.0500000298023,2|0,0:0|0:0,0:0:0:0:
419,193,3622,2,0,L|416:199,1,7.0500000298023,0|0,0:0|0:0,0:0:0:0:
343,184,3883,2,0,L|347:171,1,14.1000000596046,8|0,0:0|0:0,0:0:0:0:
352,160,4275,1,2,0:1:0:0:
22,119,4405,6,0,L|19:112,1,7.0500000298023,2|0,0:0|0:0,0:0:0:0:
161,69,4666,2,0,L|163:75,1,7.0500000298023,2|0,0:1|0:0,0:0:0:0:
92,99,4927,2,0,L|89:93,1,7.0500000298023,8|0,0:0|0:0,0:0:0:0:
494,42,5188,102,0,L|495:34,1,7.0500000298023,8|0,0:3|0:0,0:0:0:0:
425,28,5318,2,0,L|426:20,1,7.0500000298023,2|0,0:1|0:0,0:0:0:0:
351,14,5448,6,0,L|353:5,1,7.0500000298023,4|0,0:0|0:0,0:0:0:0:
214,368,5840,101,0,0:0:0:0:
141,365,5970,2,0,L|137:350,1,14.1000000596046,8|0,0:0|0:0,0:0:0:0:
134,341,6362,1,2,0:1:0:0:
61,360,6492,6,0,L|64:368,1,7.0500000298023,2|0,0:0|0:0,0:0:0:0:
202,320,6753,2,0,L|205:328,1,7.0500000298023,2|0,0:1|0:0,0:0:0:0:
475,265,7014,102,0,L|477:258,1,7.0500000298023,8|0,0:0|0:0,0:0:0:0:
334,222,7275,2,0,L|331:228,1,7.0500000298023,0|0,0:0|0:0,0:0:0:0:
40,184,7535,6,0,L|37:177,1,7.0500000298023,2|0,0:0|0:0,0:0:0:0:
453,59,7796,2,0,L|455:65,1,7.0500000298023,0|0,0:0|0:0,0:0:0:0:
488,129,8057,1,8,0:0:0:0:
129,40,8318,101,0,0:0:0:0:
129,40,8448,1,2,0:1:0:0:
129,40,8579,2,0,L|146:44,1,14.1000000596046,2|0,0:0|0:0,0:0:0:0:
40,28,8840,2,0,L|57:32,1,14.1000000596046,2|0,0:1|0:0,0:0:0:0:
190,104,9101,21,8,0:0:0:0:
112,117,9231,1,0,0:0:0:0:
35,131,9361,1,2,0:3:0:0:
446,145,9622,85,2,0:0:0:0:
409,349,9752,1,0,0:0:0:0:
141,365,10144,6,0,L|137:350,1,14.1000000596046,8|0,0:0|0:0,0:0:0:0:
134,341,10535,1,2,0:1:0:0:
61,360,10665,102,0,L|64:368,1,7.0500000298023,2|0,0:0|0:0,0:0:0:0:
202,320,10926,2,0,L|205:328,1,7.0500000298023,2|0,0:1|0:0,0:0:0:0:
475,265,11187,6,0,L|477:258,1,7.0500000298023,8|0,0:0|0:0,0:0:0:0:
334,222,11448,2,0,L|331:228,1,7.0500000298023,0|0,0:0|0:0,0:0:0:0:
25,220,11709,102,0,L|22:213,1,7.0500000298023,2|0,0:0|0:0,0:0:0:0:
93,193,11970,2,0,L|95:199,1,7.0500000298023,0|0,0:0|0:0,0:0:0:0:
169,184,12231,2,0,L|164:171,1,14.1000000596046,8|0,0:0|0:0,0:0:0:0:
160,160,12622,1,2,0:1:0:0:
490,119,12752,6,0,L|492:112,1,7.0500000298023,2|0,0:0|0:0,0:0:0:0:
351,69,13013,2,0,L|348:75,1,7.0500000298023,2|0,0:1|0:0,0:0:0:0:
420,99,13274,2,0,L|423:93,1,7.0500000298023,8|0,0:0|0:0,0:0:0:0:
18,42,13535,102,0,L|17:34,1,7.0500000298023,8|0,0:3|0:0,0:0:0:0:
87,28,13665,2,0,L|86:20,1,7.0500000298023,2|0,0:1|0:0,0:0:0:0:
159,7,13796,6,0,L|161:14,1,7.0500000298023,2|0,0:0|0:0,0:0:0:0:
298,368,14187,101,0,0:0:0:0:
371,365,14318,2,0,L|375:350,1,14.1000000596046,8|0,0:0|0:0,0:0:0:0:
378,341,14709,1,2,0:1:0:0:
451,360,14839,6,0,L|448:368,1,7.0500000298023,2|0,0:0|0:0,0:0:0:0:
310,320,15100,2,0,L|307:328,1,7.0500000298023,2|0,0:1|0:0,0:0:0:0:
37,265,15361,102,0,L|34:258,1,7.0500000298023,8|0,0:0|0:0,0:0:0:0:
178,222,15622,2,0,L|180:228,1,7.0500000298023,0|0,0:0|0:0,0:0:0:0:
466,215,15883,6,0,L|479:182,1,26.4375011202693,2|0,0:0|0:0,0:0:0:0:
83,145,16144,2,0,L|73:121,1,26.4375011202693,2|0,0:0|0:0,0:0:0:0:
146,35,16404,1,8,0:0:0:0:
248,365,16666,102,0,L|223:371,1,26.4375011202693,0|0,0:0|0:0,0:0:0:0:
347,342,16796,2,0,L|322:348,1,26.4375011202693,2|0,0:1|0:0,0:0:0:0:
423,334,16927,22,0,P|441:305|452:271,1,70.500000298023,2|0,0:0|0:0,0:0:0:0:
473,273,17057,2,0,P|468:239|454:206,1,70.500000298023,0|0,0:0|0:0,0:0:0:0:
476,196,17188,2,0,P|449:173|418:157,1,70.500000298023,2|0,0:1|0:0,0:0:0:0:
406,155,17318,2,0,L|382:162,2,13.2187505601346,0|0|8,0:0|0:0|0:3,0:0:0:0:
307,92,17579,101,8,0:0:0:0:
322,166,17709,2,0,L|329:198,1,24.6749993512868,2|0,0:1|0:0,0:0:0:0:
346,269,17970,101,4,0:0:0:0:
486,116,18101,21,0,0:0:0:0:
489,103,18144,1,0,0:0:0:0:
0,251,18492,102,0,L|14:256,1,14.1000000596046,8|0,0:0|0:0,0:0:0:0:
23,259,18884,1,2,0:3:0:0:
90,220,19014,102,0,L|83:218,1,7.0500000298023,0|0,0:0|0:0,0:0:0:0:
57,335,19275,2,0,L|50:333,1,7.0500000298023,2|0,0:3|0:0,0:0:0:0:
108,30,19535,6,0,L|114:28,1,7.0500000298023,8|0,0:0|0:0,0:0:0:0:
141,145,19796,2,0,L|147:143,1,7.0500000298023,0|0,0:0|0:0,0:0:0:0:
178,362,20057,102,0,L|184:364,1,7.0500000298023,2|0,0:0|0:0,0:0:0:0:
207,299,20318,2,0,L|201:297,1,7.0500000298023,0|0,0:0|0:0,0:0:0:0:
226,231,20579,2,0,L|239:235,1,14.1000000596046,8|0,0:0|0:0,0:0:0:0:
252,241,20971,1,2,0:3:0:0:
280,23,21101,6,0,L|286:20,1,7.0500000298023,0|0,0:0|0:0,0:0:0:0:
304,87,21362,2,0,L|298:88,1,7.0500000298023,2|0,0:3|0:0,0:0:0:0:
321,154,21623,2,0,L|326:152,1,7.0500000298023,8|0,0:0|0:0,0:0:0:0:
371,377,21884,102,0,L|378:378,1,7.0500000298023,8|0,0:3|0:0,0:0:0:0:
387,308,22014,2,0,L|394:309,1,7.0500000298023,0|0,0:0|0:0,0:0:0:0:
412,236,22144,6,0,L|406:235,1,7.0500000298023,2|0,0:0|0:0,0:0:0:0:
7,92,22536,101,0,0:0:0:0:
101,86,22666,2,0,L|85:87,1,14.1000000596046,8|0,0:0|0:0,0:0:0:0:
76,88,23058,1,2,0:3:0:0:
81,163,23188,6,0,L|89:161,1,7.0500000298023,0|0,0:0|0:0,0:0:0:0:
69,18,23449,2,0,L|77:16,1,7.0500000298023,2|0,0:3|0:0,0:0:0:0:
181,370,23709,102,0,L|172:368,1,7.0500000298023,8|0,0:0|0:0,0:0:0:0:
193,225,23970,2,0,L|184:223,1,7.0500000298023,0|0,0:0|0:0,0:0:0:0:
377,29,24231,6,0,L|368:27,1,7.0500000298023,2|0,0:0|0:0,0:0:0:0:
512,358,24492,2,0,L|503:356,1,7.0500000298023,0|0,0:0|0:0,0:0:0:0:
440,337,24753,1,8,0:0:0:0:
27,269,25014,101,0,0:0:0:0:
27,269,25144,1,0,0:0:0:0:
27,269,25275,2,0,L|30:251,1,14.1000000596046,2|0,0:0|0:0,0:0:0:0:
18,358,25536,2,0,L|21:340,1,14.1000000596046,0|0,0:0|0:0,0:0:0:0:
88,205,25797,21,8,0:0:0:0:
104,283,25927,1,0,0:0:0:0:
121,359,26057,1,0,0:0:0:0:
210,65,26318,85,2,0:0:0:0:
175,301,26448,1,0,0:0:0:0:
512,251,26840,6,0,L|498:256,1,14.1000000596046,8|0,0:0|0:0,0:0:0:0:
489,259,27232,1,2,0:3:0:0:
422,220,27361,102,0,L|429:218,1,7.0500000298023,0|0,0:0|0:0,0:0:0:0:
455,335,27623,2,0,L|462:333,1,7.0500000298023,2|0,0:3|0:0,0:0:0:0:
404,30,27883,6,0,L|398:28,1,7.0500000298023,8|0,0:0|0:0,0:0:0:0:
371,145,28144,2,0,L|365:143,1,7.0500000298023,0|0,0:0|0:0,0:0:0:0:
334,362,28405,102,0,L|328:364,1,7.0500000298023,2|0,0:0|0:0,0:0:0:0:
305,299,28666,2,0,L|311:297,1,7.0500000298023,0|0,0:0|0:0,0:0:0:0:
286,231,28927,2,0,L|272:235,1,14.1000000596046,8|0,0:0|0:0,0:0:0:0:
260,241,29319,1,2,0:3:0:0:
232,23,29449,6,0,L|225:20,1,7.0500000298023,0|0,0:0|0:0,0:0:0:0:
208,87,29710,2,0,L|213:88,1,7.0500000298023,2|0,0:3|0:0,0:0:0:0:
191,154,29971,2,0,L|185:152,1,7.0500000298023,8|0,0:0|0:0,0:0:0:0:
141,377,30232,102,0,L|133:378,1,7.0500000298023,8|0,0:3|0:0,0:0:0:0:
125,308,30362,2,0,L|117:309,1,7.0500000298023,0|0,0:0|0:0,0:0:0:0:
106,235,30492,6,0,L|97:237,1,7.0500000298023,2|0,0:0|0:0,0:0:0:0:
505,92,30884,101,0,0:0:0:0:
411,86,31014,2,0,L|426:87,1,14.1000000596046,8|0,0:0|0:0,0:0:0:0:
436,88,31406,1,2,0:3:0:0:
431,163,31536,6,0,L|422:161,1,7.0500000298023,0|0,0:0|0:0,0:0:0:0:
443,18,31797,2,0,L|434:16,1,7.0500000298023,2|0,0:3|0:0,0:0:0:0:
331,370,32057,102,0,L|339:368,1,7.0500000298023,8|0,0:0|0:0,0:0:0:0:
319,225,32318,2,0,L|327:223,1,7.0500000298023,0|0,0:0|0:0,0:0:0:0:
135,29,32579,6,0,L|168:38,1,26.4375011202693,2|0,0:0|0:0,0:0:0:0:
0,358,32840,2,0,L|28:351,1,26.4375011202693,2|0,0:0|0:0,0:0:0:0:
97,332,33101,1,8,0:0:0:0:
473,72,33362,102,0,L|498:75,1,26.4375011202693,0|0,0:0|0:0,0:0:0:0:
372,56,33492,2,0,L|397:59,1,26.4375011202693,0|0,0:0|0:0,0:0:0:0:
299,36,33622,22,0,P|271:56|248:83,1,70.500000298023,2|0,0:0|0:0,0:0:0:0:
229,73,33753,2,0,P|220:106|221:142,1,70.500000298023,0|0,0:0|0:0,0:0:0:0:
198,143,33884,2,0,P|214:174|237:200,1,70.500000298023,2|0,0:0|0:0,0:0:0:0:
247,207,34014,2,0,L|271:209,2,13.2187505601346,0|0|8,0:0|0:0|0:3,0:0:0:0:
316,303,34275,101,0,0:0:0:0:
329,228,34405,2,0,L|337:191,1,26.4375011202693,8|0,0:0|0:0,0:0:0:0:
346,124,34666,21,4,0:0:0:0:
0,383,34927,2,0,B|-19:340|-16:291|4:244,1,141.000000596046
36,97,35188,2,0,B|35:148|48:189|82:239,2,141.000000596046,8|0|0,0:0|0:0|0:0,0:0:0:0:
0,31,35579,2,0,B|46:11|90:15|151:35,1,141.000000596046,8|0,0:0|0:0,0:0:0:0:
212,56,35840,1,0,0:0:0:0:
420,23,35970,2,0,B|383:47|329:45|272:19,1,141.000000596046,8|0,0:0|0:0,0:0:0:0:
490,45,36231,101,2,0:3:0:0:
490,45,36361,1,0,0:0:0:0:
494,119,36492,1,8,0:0:0:0:
494,119,36622,1,0,0:0:0:0:
499,355,36753,5,2,0:0:0:0:
499,355,37014,2,0,B|469:335|386:340|354:358,1,141.000000596046,2|0,0:0|0:0,0:0:0:0:
177,335,37275,2,0,B|225:354|288:337|323:294,2,141.000000596046,8|0|0,0:0|0:0|0:0,0:0:0:0:
123,383,37666,2,0,B|111:372|70:322|-9:319,1,141.000000596046,8|0,0:0|0:0,0:0:0:0:
73,263,37927,1,0,0:0:0:0:
1,112,38057,2,0,B|-9:149|-29:193|10:259,1,141.000000596046,8|0,0:0|0:0,0:0:0:0:
3,30,38318,101,2,0:3:0:0:
3,30,38448,1,0,0:0:0:0:
76,29,38579,1,8,0:0:0:0:
76,29,38709,1,0,0:0:0:0:
297,30,38840,5,2,0:0:0:0:
297,30,39101,2,0,B|377:18|399:26|443:44,1,141.000000596046
506,219,39362,2,0,B|477:148|482:115|492:77,2,141.000000596046,8|0|0,0:0|0:0|0:0,0:0:0:0:
489,376,39753,2,0,B|460:346|445:299|439:237,1,141.000000596046,8|0,0:0|0:0,0:0:0:0:
376,282,40014,1,0,0:0:0:0:
220,351,40144,2,0,B|299:371|316:370|367:348,1,141.000000596046,8|0,0:0|0:0,0:0:0:0:
128,353,40405,101,2,0:3:0:0:
128,353,40535,1,0,0:0:0:0:
43,351,40666,1,8,0:0:0:0:
43,351,40796,1,0,0:0:0:0:
0,203,40927,5,2,0:0:0:0:
0,203,41188,1,2,0:0:0:0:
0,132,41448,101,8,0:0:0:0:
0,132,41579,1,0,0:0:0:0:
0,132,41709,1,0,0:0:0:0:
118,15,41840,6,0,B|71:-5|15:11|-4:67,2,141.000000596046,8|0|0,0:0|0:0|0:0,0:0:0:0:
310,13,42231,2,0,B|292:45|243:69|184:33,1,141.000000596046,8|0,0:0|0:0,0:0:0:0:
398,25,42492,101,2,0:3:0:0:
398,25,42622,1,0,0:0:0:0:
478,25,42753,1,8,0:0:0:0:
478,25,42883,1,0,0:0:0:0:
487,207,43014,5,2,0:0:0:0:
487,207,43275,2,0,B|476:250|472:275|490:357,1,141.000000596046
272,355,43536,2,0,B|356:373|359:366|413:344,2,141.000000596046,8|0|0,0:0|0:0|0:0,0:0:0:0:
192,356,43927,2,0,B|123:344|103:348|46:365,1,141.000000596046,8|0,0:0|0:0,0:0:0:0:
0,317,44188,1,0,0:0:0:0:
37,149,44318,2,0,B|33:196|50:260|61:289,1,141.000000596046,8|0,0:0|0:0,0:0:0:0:
0,87,44579,101,2,0:3:0:0:
0,87,44709,1,0,0:0:0:0:
0,14,44840,1,8,0:0:0:0:
0,14,44970,1,0,0:0:0:0:
237,15,45101,5,2,0:0:0:0:
237,15,45362,2,0,B|277:0|350:6|393:35,1,141.000000596046,2|0,0:0|0:0,0:0:0:0:
499,146,45623,2,0,B|509:75|490:49|455:16,2,141.000000596046,8|0|0,0:0|0:0|0:0,0:0:0:0:
445,212,46014,2,0,B|473:258|486:275|490:360,1,141.000000596046,8|0,0:0|0:0,0:0:0:0:
420,322,46275,1,0,0:0:0:0:
231,365,46405,2,0,B|279:351|328:360|371:368,1,141.000000596046,8|0,0:0|0:0,0:0:0:0:
141,362,46666,101,2,0:3:0:0:
141,362,46796,1,0,0:0:0:0:
60,362,46927,1,8,0:0:0:0:
60,362,47057,1,0,0:0:0:0:
25,154,47188,5,2,0:0:0:0:
25,154,47448,2,0,B|2:102|21:52|68:25,1,141.000000596046
253,11,47709,2,0,B|228:54|179:70|114:11,2,141.000000596046,8|0|0,0:0|0:0|0:0,0:0:0:0:
351,25,48101,2,0,B|384:-9|475:41|441:93,1,141.000000596046,8|0,0:0|0:0,0:0:0:0:
512,101,48361,1,0,0:0:0:0:
506,189,48491,2,0,B|446:168|408:228|443:280,1,141.000000596046,8|0,0:0|0:0,0:0:0:0:
481,351,48753,101,2,0:3:0:0:
481,351,48882,1,0,0:0:0:0:
400,351,49013,1,8,0:0:0:0:
400,351,49143,1,0,0:0:0:0:
166,358,49274,5,2,0:0:0:0:
330,30,49535,1,2,0:0:0:0:
287,287,49796,1,8,0:0:0:0:
287,287,49927,1,0,0:0:0:0:
245,353,50057,1,8,0:0:0:0:
314,356,50188,1,0,0:0:0:0:
362,298,50318,102,0,P|364:264|358:229,1,70.500000298023,2|0,0:0|0:0,0:0:0:0:
379,220,50449,2,0,P|359:192|330:170,1,70.500000298023,0|0,0:0|0:0,0:0:0:0:
345,152,50580,2,0,P|311:145|275:145,1,70.500000298023,8|0,0:3|0:0,0:0:0:0:
264,149,50710,2,0,L|246:166,2,13.2187505601346,0|0|10,0:0|0:0|0:3,0:0:0:0:
149,255,50971,101,0,0:0:0:0:
162,180,51101,2,0,L|170:143,1,26.4375011202693,8|0,0:0|0:0,0:0:0:0:
2,2,51361,22,0,B|75:55|75:55|126:98,1,141.000000596046,12|0,0:3|0:0,0:0:0:0:
158,27,51622,2,0,B|226:106|226:106|254:146,1,141.000000596046
205,238,51883,2,0,B|136:181|136:181|93:151,2,141.000000596046,8|0|0,0:0|0:0|0:0,0:0:0:0:
312,158,52275,2,0,B|351:213|351:213|405:277,1,141.000000596046,8|0,0:0|0:0,0:0:0:0:
445,326,52535,1,0,0:0:0:0:
276,281,52666,2,0,B|334:322|334:322|387:367,1,141.000000596046,8|0,0:0|0:0,0:0:0:0:
399,268,52927,101,10,0:3:0:0:
399,268,53057,1,0,0:0:0:0:
353,212,53188,1,8,0:0:0:0:
353,212,53318,1,0,0:0:0:0:
496,370,53448,5,2,0:0:0:0:
496,370,53709,2,0,L|396:265,1,141.000000596046,2|0,0:0|0:0,0:0:0:0:
282,258,53970,2,0,B|318:308|318:308|375:377,2,141.000000596046,8|0|0,0:0|0:0|0:0,0:0:0:0:
353,212,54361,2,0,B|290:168|290:168|237:124,1,141.000000596046,8|0,0:0|0:0,0:0:0:0:
210,66,54622,1,0,0:0:0:0:
218,203,54753,2,0,B|192:176|192:176|124:92,1,141.000000596046,8|0,0:0|0:0,0:0:0:0:
157,26,55014,101,10,0:3:0:0:
157,26,55144,1,0,0:0:0:0:
127,96,55275,1,8,0:0:0:0:
127,96,55405,1,0,0:0:0:0:
15,9,55535,5,2,0:3:0:0:
15,9,55796,2,0,B|74:51|74:51|135:102,1,141.000000596046
244,138,56057,2,0,B|209:89|209:89|158:27,2,141.000000596046,8|0|0,0:0|0:0|0:0,0:0:0:0:
93,151,56448,2,0,B|152:201|152:201|205:238,1,141.000000596046,8|0,0:0|0:0,0:0:0:0:
281,251,56709,1,0,0:0:0:0:
312,158,56840,2,0,B|338:195|338:195|405:281,1,141.000000596046,8|0,0:0|0:0,0:0:0:0:
329,310,57101,101,10,0:3:0:0:
329,310,57231,1,0,0:0:0:0:
281,251,57361,1,8,0:0:0:0:
281,251,57492,1,0,0:0:0:0:
498,378,57622,5,2,0:0:0:0:
498,378,57883,1,2,0:0:0:0:
424,381,58144,101,8,0:0:0:0:
424,381,58275,1,0,0:0:0:0:
424,381,58405,1,0,0:0:0:0:
446,308,58535,6,0,B|412:282|412:282|321:218,1,141.000000596046,8|0,0:0|0:0,0:0:0:0:
277,178,58796,1,0,0:0:0:0:
291,307,58927,2,0,B|255:257|255:257|197:186,1,141.000000596046,8|0,0:0|0:0,0:0:0:0:
152,142,59188,101,10,0:3:0:0:
152,142,59318,1,0,0:0:0:0:
221,122,59448,1,8,0:0:0:0:
221,122,59579,1,0,0:0:0:0:
16,6,59709,5,2,0:3:0:0:
511,4,59970,2,0,B|458:38|458:38|387:92,1,141.000000596046
310,196,60231,2,0,B|387:172|387:172|442:145,2,141.000000596046,8|0|0,0:0|0:0|0:0,0:0:0:0:
342,48,60622,2,0,B|274:93|274:93|226:129,1,141.000000596046,8|0,0:0|0:0,0:0:0:0:
192,198,60883,1,0,0:0:0:0:
272,255,61014,2,0,B|225:277|225:277|131:309,1,141.000000596046,8|0,0:0|0:0,0:0:0:0:
121,227,61275,101,8,0:3:0:0:
121,227,61405,1,0,0:0:0:0:
192,198,61535,1,8,0:0:0:0:
192,198,61666,1,0,0:0:0:0:
14,368,61796,5,2,0:0:0:0:
14,368,62057,2,0,B|91:325|91:325|153:299,1,141.000000596046,2|0,0:0|0:0,0:0:0:0:
192,198,62318,2,0,B|160:211|160:211|56:242,2,141.000000596046,8|0|0,0:0|0:0|0:0,0:0:0:0:
211,300,62709,2,0,B|274:251|274:251|327:215,1,141.000000596046,8|0,0:0|0:0,0:0:0:0:
377,169,62970,1,0,0:0:0:0:
246,146,63101,2,0,B|268:135|268:135|387:94,1,141.000000596046,8|0,0:0|0:0,0:0:0:0:
443,133,63362,101,10,0:3:0:0:
443,133,63492,1,0,0:0:0:0:
377,169,63622,1,8,0:0:0:0:
377,169,63753,1,0,0:0:0:0:
493,15,63883,5,2,0:3:0:0:
493,15,64144,2,0,B|439:59|439:59|369:103,1,141.000000596046
316,215,64405,2,0,B|358:198|358:198|454:168,2,141.000000596046,8|0|0,0:0|0:0|0:0,0:0:0:0:
310,79,64796,2,0,B|259:133|259:133|208:180,1,141.000000596046,8|0,0:0|0:0,0:0:0:0:
152,243,65057,1,0,0:0:0:0:
281,275,65188,2,0,B|223:297|223:297|147:333,1,141.000000596046,8|0,0:0|0:0,0:0:0:0:
89,288,65449,101,8,0:3:0:0:
89,288,65579,1,0,0:0:0:0:
151,330,65709,1,8,0:0:0:0:
151,330,65840,1,0,0:0:0:0:
0,374,65970,5,2,0:0:0:0:
444,234,66231,1,2,0:0:0:0:
181,95,66492,101,8,0:0:0:0:
181,95,66623,1,0,0:0:0:0:
221,158,66753,5,2,0:3:0:0:
263,94,66883,1,0,0:0:0:0:
227,32,67014,1,10,0:0:0:0:
158,29,67145,1,0,0:0:0:0:
110,87,67275,102,0,P|108:121|114:156,1,70.500000298023,10|0,0:3|0:0,0:0:0:0:
93,165,67406,2,0,P|113:193|142:215,1,70.500000298023,0|0,0:0|0:0,0:0:0:0:
127,233,67535,2,0,P|161:240|197:240,1,70.500000298023,10|0,0:0|0:0,0:0:0:0:
208,236,67666,2,0,L|226:219,2,13.2187505601346,0|0|8,0:0|0:0|0:3,0:0:0:0:
221,158,67927,1,0,0:0:0:0:
481,27,68057,102,0,L|478:48,1,21.1500000894069,6|0,0:3|0:0,0:0:0:0:
445,125,68579,2,0,L|461:129,1,14.1000000596046,2|0,0:1|0:0,0:0:0:0:
384,40,68970,2,0,L|400:41,1,14.1000000596046,2|0,0:3|0:0,0:0:0:0:
477,48,69361,1,2,0:3:0:0:
80,146,69622,5,2,0:0:0:0:
80,31,69753,1,0,0:0:0:0:
179,88,69883,1,2,0:1:0:0:
481,355,70144,102,0,L|478:334,1,21.1500000894069,2|0,0:0|0:0,0:0:0:0:
445,257,70666,2,0,L|461:253,1,14.1000000596046,2|0,0:1|0:0,0:0:0:0:
384,342,71057,2,0,L|400:341,1,14.1000000596046,2|0,0:3|0:0,0:0:0:0:
477,334,71448,1,2,0:3:0:0:
80,236,71709,5,2,0:0:0:0:
80,351,71840,1,0,0:0:0:0:
179,294,71970,1,2,0:1:0:0:
179,294,72101,1,2,0:1:0:0:
166,143,72231,102,0,L|144:141,1,21.1500000894069,2|0,0:0|0:0,0:0:0:0:
67,109,72753,2,0,L|63:123,1,14.1000000596046,2|0,0:1|0:0,0:0:0:0:
157,58,73144,2,0,L|155:73,1,14.1000000596046,2|0,0:3|0:0,0:0:0:0:
144,142,73535,1,2,0:3:0:0:
342,340,73796,5,2,0:0:0:0:
456,342,73927,1,0,0:0:0:0:
401,242,74057,1,2,0:1:0:0:
66,314,74318,5,2,0:0:0:0:
54,314,74405,2,0,L|-2:321,2,35.2500014936923,0|0|0,0:0|0:0|0:0,0:0:0:0:
163,294,74579,102,0,L|199:297,2,35.2500001490115,2|0|0,0:0|0:0|0:0,0:0:0:0:
107,249,74840,5,2,0:1:0:0:
106,241,74970,1,0,0:0:0:0:
105,233,75101,1,0,0:0:0:0:
104,226,75231,1,2,0:3:0:0:
103,218,75361,101,0,0:0:0:0:
86,294,75492,1,0,0:0:0:0:
70,369,75622,1,2,0:3:0:0:
56,75,75753,2,0,L|50:37,2,35.2500001490115,0|0|8,0:0|0:0|0:3,0:0:0:0:
75,141,76014,1,0,0:0:0:0:
382,159,76144,86,0,L|377:159,1,3.52500001490115,8|0,0:3|0:0,0:0:0:0:
418,261,76275,2,0,L|413:261,1,3.52500001490115,2|0,0:1|0:0,0:0:0:0:
343,345,76405,54,0,L|320:346,1,21.1500000894069,4|0,0:0|0:0,0:0:0:0:
419,346,76927,1,8,0:0:0:0:
419,346,77188,5,0,0:0:0:0:
229,352,77318,2,0,L|229:343,1,7.0500000298023,2|0,0:3|0:0,0:0:0:0:
469,272,77709,2,0,L|469:279,1,7.0500000298023,2|0,0:3|0:0,0:0:0:0:
419,346,77970,1,8,0:0:0:0:
419,346,78231,1,0,0:0:0:0:
34,250,78492,102,0,L|34:257,1,7.0500000298023,2|0,0:3|0:0,0:0:0:0:
86,318,78753,2,0,L|86:310,1,7.0500000298023,2|0,0:3|0:0,0:0:0:0:
112,240,79014,1,8,0:0:0:0:
112,240,79275,5,0,0:0:0:0:
215,352,79405,2,0,L|216:344,1,7.0500000298023,2|0,0:3|0:0,0:0:0:0:
60,163,79796,2,0,L|61:171,1,7.0500000298023,2|0,0:3|0:0,0:0:0:0:
112,240,80057,1,8,0:0:0:0:
112,240,80318,1,8,0:3:0:0:
135,38,80579,102,0,L|158:37,1,21.1500000894069,2|0,0:0|0:0,0:0:0:0:
59,37,81101,1,8,0:0:0:0:
59,37,81362,5,0,0:0:0:0:
249,31,81492,2,0,L|249:40,1,7.0500000298023,2|0,0:3|0:0,0:0:0:0:
9,111,81883,2,0,L|9:103,1,7.0500000298023,2|0,0:3|0:0,0:0:0:0:
59,37,82144,1,8,0:0:0:0:
59,37,82405,1,0,0:0:0:0:
444,133,82666,102,0,L|444:125,1,7.0500000298023,2|0,0:3|0:0,0:0:0:0:
392,65,82927,2,0,L|392:72,1,7.0500000298023,2|0,0:3|0:0,0:0:0:0:
366,143,83188,1,8,0:0:0:0:
366,143,83449,5,0,0:0:0:0:
263,31,83579,2,0,L|262:39,1,7.0500000298023,2|0,0:3|0:0,0:0:0:0:
418,220,83970,2,0,L|417:212,1,7.0500000298023,2|0,0:3|0:0,0:0:0:0:
366,143,84231,1,8,0:0:0:0:
366,143,84492,1,8,0:3:0:0:
161,344,84753,102,0,L|184:345,1,21.1500000894069,2|0,0:0|0:0,0:0:0:0:
85,345,85275,1,8,0:0:0:0:
85,345,85536,5,0,0:0:0:0:
275,351,85666,2,0,L|275:342,1,7.0500000298023,2|0,0:3|0:0,0:0:0:0:
35,271,86057,2,0,L|35:278,1,7.0500000298023,2|0,0:3|0:0,0:0:0:0:
85,345,86318,1,8,0:0:0:0:
85,345,86579,1,0,0:0:0:0:
470,249,86840,102,0,L|470:256,1,7.0500000298023,2|0,0:3|0:0,0:0:0:0:
418,317,87101,2,0,L|418:309,1,7.0500000298023,2|0,0:3|0:0,0:0:0:0:
392,239,87361,1,8,0:0:0:0:
392,239,87623,5,0,0:0:0:0:
289,351,87753,2,0,L|288:343,1,7.0500000298023,2|0,0:3|0:0,0:0:0:0:
444,162,88144,2,0,L|443:170,1,7.0500000298023,2|0,0:3|0:0,0:0:0:0:
392,239,88405,1,8,0:0:0:0:
392,239,88666,1,8,0:3:0:0:
202,62,88927,102,0,L|198:39,1,21.1500000894069,2|0,0:0|0:0,0:0:0:0:
208,137,89449,1,8,0:0:0:0:
208,137,89710,5,0,0:0:0:0:
298,24,89840,2,0,L|298:31,1,7.0500000298023,2|0,0:3|0:0,0:0:0:0:
210,241,90231,2,0,L|210:234,1,7.0500000298023,2|0,0:3|0:0,0:0:0:0:
208,137,90492,1,8,0:0:0:0:
208,137,90753,1,0,0:0:0:0:
313,258,91014,102,0,L|313:265,1,7.0500000298023,2|0,0:3|0:0,0:0:0:0:
256,353,91275,2,0,L|256:345,1,7.0500000298023,2|0,0:3|0:0,0:0:0:0:
181,320,91536,1,8,0:0:0:0:
181,320,91797,5,0,0:0:0:0:
341,348,91927,2,0,L|342:340,1,7.0500000298023,2|0,0:3|0:0,0:0:0:0:
178,238,92318,2,0,L|179:246,1,7.0500000298023,2|0,0:3|0:0,0:0:0:0:
181,320,92579,1,8,0:0:0:0:
445,331,92840,2,0,L|446:323,1,7.0500000298023,10|0,0:3|0:0,0:0:0:0:
468,127,93101,6,0,L|460:127,1,7.0500000298023,6|0,0:0|0:0,0:0:0:0:
463,48,93361,2,0,L|455:48,1,7.0500000298023,2|0,0:3|0:0,0:0:0:0:
388,92,93622,5,8,0:0:0:0:
324,34,93753,101,0,0:0:0:0:
324,34,93883,1,2,0:3:0:0:
324,34,94014,2,0,L|310:36,1,14.1000000596046,2|0,0:0|0:0,0:0:0:0:
250,79,94405,6,0,L|249:83,1,3.52500001490115,2|0,0:0|0:0,0:0:0:0:
232,162,94535,2,0,L|233:158,1,3.52500001490115,0|0,0:0|0:0,0:0:0:0:
242,78,94666,2,0,L|241:82,1,3.52500001490115,8|0,0:0|0:0,0:0:0:0:
224,161,94796,2,0,L|225:157,1,3.52500001490115,0|0,0:0|0:0,0:0:0:0:
234,77,94927,2,0,L|233:81,1,3.52500001490115,8|0,0:3|0:0,0:0:0:0:
216,160,95057,2,0,L|217:156,1,3.52500001490115,0|0,0:0|0:0,0:0:0:0:
301,249,95188,102,0,L|309:249,1,7.0500000298023,2|0,0:0|0:0,0:0:0:0:
306,328,95448,2,0,L|314:328,1,7.0500000298023,2|0,0:3|0:0,0:0:0:0:
381,284,95709,5,8,0:0:0:0:
445,342,95840,101,0,0:0:0:0:
445,342,95970,1,2,0:3:0:0:
445,342,96101,2,0,L|459:340,1,14.1000000596046,2|0,0:0|0:0,0:0:0:0:
439,209,96492,6,0,L|434:208,1,3.52500001490115,2|0,0:0|0:0,0:0:0:0:
355,193,96622,2,0,L|359:193,1,3.52500001490115,0|0,0:0|0:0,0:0:0:0:
436,216,96753,2,0,L|431:215,1,3.52500001490115,8|0,0:0|0:0,0:0:0:0:
353,200,96883,2,0,L|357:200,1,3.52500001490115,0|0,0:0|0:0,0:0:0:0:
434,224,97014,2,0,L|429:223,1,3.52500001490115,8|0,0:3|0:0,0:0:0:0:
351,208,97144,2,0,L|355:208,1,3.52500001490115,0|0,0:0|0:0,0:0:0:0:
381,284,97275,101,2,0:0:0:0:
57,334,97535,1,2,0:3:0:0:
57,334,97666,1,0,0:0:0:0:
124,290,97796,5,8,0:0:0:0:
188,348,97927,101,0,0:0:0:0:
188,348,98057,1,2,0:3:0:0:
188,348,98188,2,0,L|202:346,1,14.1000000596046,2|0,0:0|0:0,0:0:0:0:
231,274,98579,6,0,L|230:270,1,3.52500001490115,2|0,0:0|0:0,0:0:0:0:
213,191,98709,2,0,L|214:195,1,3.52500001490115,0|0,0:0|0:0,0:0:0:0:
223,275,98840,2,0,L|222:271,1,3.52500001490115,8|0,0:0|0:0,0:0:0:0:
205,192,98970,2,0,L|206:196,1,3.52500001490115,0|0,0:0|0:0,0:0:0:0:
215,276,99101,2,0,L|214:272,1,3.52500001490115,8|0,0:3|0:0,0:0:0:0:
197,193,99231,2,0,L|198:197,1,3.52500001490115,0|0,0:0|0:0,0:0:0:0:
223,35,99361,102,0,L|231:35,1,7.0500000298023,2|0,0:0|0:0,0:0:0:0:
236,114,99622,2,0,L|228:114,1,7.0500000298023,2|0,0:3|0:0,0:0:0:0:
151,83,99883,5,8,0:0:0:0:
67,40,100014,101,0,0:0:0:0:
67,40,100144,1,2,0:3:0:0:
67,40,100275,2,0,L|53:42,1,14.1000000596046,2|0,0:0|0:0,0:0:0:0:
26,126,100666,6,0,L|30:125,1,3.52500001490115,2|0,0:0|0:0,0:0:0:0:
109,108,100796,2,0,L|104:108,1,3.52500001490115,0|0,0:0|0:0,0:0:0:0:
28,133,100927,2,0,L|32:132,1,3.52500001490115,8|0,0:0|0:0,0:0:0:0:
111,116,101057,2,0,L|106:116,1,3.52500001490115,0|0,0:0|0:0,0:0:0:0:
30,141,101188,2,0,L|34:140,1,3.52500001490115,8|0,0:3|0:0,0:0:0:0:
113,124,101318,2,0,L|108:124,1,3.52500001490115,0|0,0:0|0:0,0:0:0:0:
84,195,101448,101,4,0:0:0:0:
455,48,101709,1,2,0:3:0:0:
455,48,101840,1,0,0:0:0:0:
388,92,101970,5,8,0:0:0:0:
324,34,102101,101,0,0:0:0:0:
324,34,102231,1,2,0:3:0:0:
324,34,102362,2,0,L|310:36,1,14.1000000596046,2|0,0:0|0:0,0:0:0:0:
262,104,102753,6,0,L|263:108,1,3.52500001490115,2|0,0:0|0:0,0:0:0:0:
280,187,102883,2,0,L|279:183,1,3.52500001490115,0|0,0:0|0:0,0:0:0:0:
270,103,103014,2,0,L|271:107,1,3.52500001490115,8|0,0:0|0:0,0:0:0:0:
288,186,103144,2,0,L|287:182,1,3.52500001490115,0|0,0:0|0:0,0:0:0:0:
278,102,103275,2,0,L|279:106,1,3.52500001490115,8|0,0:3|0:0,0:0:0:0:
296,185,103405,2,0,L|295:181,1,3.52500001490115,0|0,0:0|0:0,0:0:0:0:
325,339,103536,102,0,L|333:339,1,7.0500000298023,2|0,0:0|0:0,0:0:0:0:
330,260,103796,2,0,L|338:260,1,7.0500000298023,2|0,0:3|0:0,0:0:0:0:
398,301,104057,5,8,0:0:0:0:
255,303,104188,101,0,0:0:0:0:
255,303,104318,1,2,0:3:0:0:
255,303,104449,2,0,L|239:306,1,14.1000000596046,2|0,0:0|0:0,0:0:0:0:
154,275,104840,6,0,L|149:275,1,3.52500001490115,2|0,0:0|0:0,0:0:0:0:
69,287,104970,2,0,L|73:286,1,3.52500001490115,0|0,0:0|0:0,0:0:0:0:
154,283,105101,2,0,L|149:283,1,3.52500001490115,8|0,0:0|0:0,0:0:0:0:
70,295,105231,2,0,L|74:294,1,3.52500001490115,0|0,0:0|0:0,0:0:0:0:
154,291,105362,2,0,L|149:291,1,3.52500001490115,8|0,0:3|0:0,0:0:0:0:
70,303,105492,2,0,L|74:302,1,3.52500001490115,0|0,0:0|0:0,0:0:0:0:
125,361,105622,101,2,0:0:0:0:
456,319,105883,2,0,L|457:310,1,7.0500000298023,2|0,0:3|0:0,0:0:0:0:
465,241,106144,5,8,0:0:0:0:
382,296,106275,101,0,0:0:0:0:
382,296,106405,1,2,0:3:0:0:
382,296,106536,2,0,L|368:298,1,14.1000000596046,2|0,0:0|0:0,0:0:0:0:
280,266,106927,6,0,L|281:270,1,3.52500001490115,2|0,0:0|0:0,0:0:0:0:
298,349,107057,2,0,L|297:345,1,3.52500001490115,0|0,0:0|0:0,0:0:0:0:
288,265,107188,2,0,L|289:269,1,3.52500001490115,8|0,0:0|0:0,0:0:0:0:
306,348,107318,2,0,L|305:344,1,3.52500001490115,0|0,0:0|0:0,0:0:0:0:
296,264,107449,2,0,L|297:268,1,3.52500001490115,8|0,0:3|0:0,0:0:0:0:
314,347,107579,2,0,L|313:343,1,3.52500001490115,0|0,0:0|0:0,0:0:0:0:
226,319,107709,53,6,0:0:0:0:
509,148,107970,1,2,0:3:0:0:
4,238,108231,2,0,L|8:282,2,35.2500001490115,8|0|2,0:0|0:0|0:3,0:0:0:0:
76,254,108622,1,2,0:0:0:0:
66,358,108753,102,0,P|95:340|120:316,1,70.500000298023,2|0,0:1|0:0,0:0:0:0:
140,328,108884,2,0,P|152:295|154:259,1,70.500000298023,0|0,0:0|0:0,0:0:0:0:
177,262,109015,2,0,P|163:229|143:200,1,70.500000298023,2|0,0:3|0:0,0:0:0:0:
134,193,109145,2,0,L|109:187,2,13.2187505601346,0|0|10,0:0|0:0|0:3,0:0:0:0:
155,102,109405,6,0,L|151:119,1,17.6250000745057,0|0,0:0|0:0,0:0:0:0:
357,102,109535,2,0,L|360:119,1,17.6250000745057,2|0,0:3|0:0,0:0:0:0:
254,36,109666,2,0,L|255:61,1,17.6250000745057,0|0,0:0|0:0,0:0:0:0:
254,191,109796,101,12,0:0:0:0:
