osu file format v14

[General]
AudioFilename: audio.mp3
AudioLeadIn: 0
PreviewTime: 1275
Countdown: 0
SampleSet: Soft
StackLeniency: 0.2
Mode: 0
LetterboxInBreaks: 0
WidescreenStoryboard: 1

[Editor]
Bookmarks: 17990,34686,51381,68077,76425,93121
DistanceSpacing: 0.9
BeatDivisor: 4
GridSize: 8
TimelineZoom: 2.6

[Metadata]
Title:Ama no Hane wa Kami no Gotoshi
TitleUnicode:天之羽如神
Artist:Spide
ArtistUnicode:Spide
Creator:tatemae
Version:Eiji's Insane
Source:
Tags:black man fixxis Riparia Record Lorenotices anishina kodoku loreley EijiKuinbii kjlfaklf 619 short cut ver version
BeatmapID:1935843
BeatmapSetID:926835

[Difficulty]
HPDrainRate:6
CircleSize:4.2
OverallDifficulty:8
ApproachRate:9
SliderMultiplier:1.81000000596046
SliderTickRate:1

[Events]
//Background and Video events
0,0,"65165749_p0.jpg",0,0
//Break Periods
//Storyboard Layer 0 (Background)
//Storyboard Layer 1 (Fail)
//Storyboard Layer 2 (Pass)
//Storyboard Layer 3 (Foreground)
//Storyboard Layer 4 (Overlay)
//Storyboard Sound Samples

[TimingPoints]
1275,521.739130434783,4,2,1,60,1,0
15883,-100,4,2,1,65,0,0
17970,-100,4,2,1,60,0,0
32579,-100,4,2,1,65,0,0
34666,-100,4,2,1,65,0,0
49275,-100,4,2,1,65,0,0
51361,-100,4,2,1,70,0,0
65970,-100,4,2,1,70,0,0
68057,-100,4,2,1,50,0,0
74318,-100,4,2,1,65,0,0
74579,-100,4,2,1,70,0,0
76405,-100,4,2,1,60,0,0
93101,-100,4,2,1,70,0,0
105622,-100,4,2,1,70,0,0

[Colours]
Combo1 : 164,179,223
Combo2 : 249,155,239
Combo3 : 166,222,236

[HitObjects]
357,138,1275,6,0,L|346:198,1,45.2500001490115,4|0,0:0|0:0,0:0:0:0:
357,138,1796,1,8,0:0:0:0:
491,246,2057,6,0,L|403:257,1,45.2500001490115,0|2,0:0|0:1,0:0:0:0:
366,266,2318,2,0,L|278:277,1,45.2500001490115,2|0,0:0|0:0,0:0:0:0:
271,119,2579,1,2,0:1:0:0:
491,246,2840,6,0,L|403:257,1,45.2500001490115,8|0,0:0|0:0,0:0:0:0:
366,266,3101,2,0,L|278:277,1,45.2500001490115,0|0,0:0|0:0,0:0:0:0:
271,119,3361,5,2,0:0:0:0:
357,138,3622,1,0,0:0:0:0:
271,119,3883,1,8,0:0:0:0:
491,246,4144,6,0,L|403:257,1,45.2500001490115,0|2,0:0|0:1,0:0:0:0:
366,266,4405,2,0,L|278:277,1,45.2500001490115,2|0,0:0|0:0,0:0:0:0:
271,119,4666,5,2,0:1:0:0:
491,246,4927,6,0,L|403:257,1,45.2500001490115,8|0,0:0|0:0,0:0:0:0:
366,266,5188,2,0,L|278:277,1,45.2500001490115,8|2,0:3|0:1,0:0:0:0:
155,138,5448,6,0,L|166:198,1,45.2500001490115,4|0,0:0|0:0,0:0:0:0:
155,138,5969,1,8,0:0:0:0:
21,246,6230,6,0,L|109:257,1,45.2500001490115,0|2,0:0|0:1,0:0:0:0:
146,266,6491,2,0,L|234:277,1,45.2500001490115,2|0,0:0|0:0,0:0:0:0:
241,119,6752,1,2,0:1:0:0:
21,246,7013,6,0,L|109:257,1,45.2500001490115,8|0,0:0|0:0,0:0:0:0:
146,266,7274,2,0,L|234:277,1,45.2500001490115,0|0,0:0|0:0,0:0:0:0:
241,119,7534,5,2,0:0:0:0:
155,138,7795,1,0,0:0:0:0:
241,119,8056,1,8,0:0:0:0:
21,246,8317,6,0,L|109:257,1,45.2500001490115,0|2,0:0|0:1,0:0:0:0:
146,266,8578,2,0,L|234:277,1,45.2500001490115,2|0,0:0|0:0,0:0:0:0:
241,119,8839,5,2,0:1:0:0:
21,246,9100,6,0,L|109:257,1,45.2500001490115,8|0,0:0|0:0,0:0:0:0:
146,266,9361,2,0,L|234:277,1,45.2500001490115,2|0,0:3|0:0,0:0:0:0:
357,246,9622,6,0,L|346:186,1,45.2500001490115,2|0,0:0|0:0,0:0:0:0:
357,246,10143,1,8,0:0:0:0:
491,138,10404,6,0,L|403:127,1,45.2500001490115,0|2,0:0|0:1,0:0:0:0:
366,118,10665,2,0,L|278:107,1,45.2500001490115,2|0,0:0|0:0,0:0:0:0:
271,265,10926,1,2,0:1:0:0:
491,138,11187,6,0,L|403:127,1,45.2500001490115,8|0,0:0|0:0,0:0:0:0:
366,118,11448,2,0,L|278:107,1,45.2500001490115,0|0,0:0|0:0,0:0:0:0:
271,265,11708,5,2,0:0:0:0:
357,246,11969,1,0,0:0:0:0:
271,265,12230,1,8,0:0:0:0:
491,138,12491,6,0,L|403:127,1,45.2500001490115,0|2,0:0|0:1,0:0:0:0:
366,118,12752,2,0,L|278:107,1,45.2500001490115,2|0,0:0|0:0,0:0:0:0:
271,265,13013,5,2,0:1:0:0:
491,138,13274,6,0,L|403:127,1,45.2500001490115,8|0,0:0|0:0,0:0:0:0:
366,118,13535,2,0,L|278:107,1,45.2500001490115,8|2,0:3|0:1,0:0:0:0:
155,246,13796,6,0,L|166:186,1,45.2500001490115,2|0,0:0|0:0,0:0:0:0:
155,246,14318,1,8,0:0:0:0:
21,138,14579,6,0,L|109:127,1,45.2500001490115,0|2,0:0|0:1,0:0:0:0:
146,118,14840,2,0,L|234:107,1,45.2500001490115,2|0,0:0|0:0,0:0:0:0:
241,265,15101,1,2,0:1:0:0:
21,138,15361,6,0,L|109:127,1,45.2500001490115,8|0,0:0|0:0,0:0:0:0:
146,118,15622,2,0,L|234:107,1,45.2500001490115,0|0,0:0|0:0,0:0:0:0:
241,265,15883,5,2,0:0:0:0:
155,246,16144,1,2,0:0:0:0:
241,265,16405,1,8,0:0:0:0:
21,138,16666,6,0,L|109:127,1,45.2500001490115,0|2,0:0|0:1,0:0:0:0:
146,118,16927,2,0,L|234:107,1,45.2500001490115,2|0,0:0|0:0,0:0:0:0:
321,112,17188,2,0,L|366:118,1,45.2500001490115,2|0,0:1|0:0,0:0:0:0:
446,132,17449,2,0,L|491:138,1,45.2500001490115,8|8,0:3|0:0,0:0:0:0:
271,265,17709,1,2,0:1:0:0:
241,265,17840,1,0,0:0:0:0:
294,368,17970,6,0,P|312:355|323:336,1,45.2500001490115,4|0,0:0|0:0,0:0:0:0:
268,183,18492,1,8,0:0:0:0:
441,323,18753,6,0,P|433:273|421:255,1,45.2500001490115,0|2,0:0|0:3,0:0:0:0:
395,209,19014,2,0,P|354:179|332:175,1,45.2500001490115,0|0,0:0|0:0,0:0:0:0:
294,368,19275,1,2,0:3:0:0:
441,323,19535,6,0,P|433:273|421:255,1,45.2500001490115,8|0,0:0|0:0,0:0:0:0:
395,209,19796,2,0,P|354:179|332:175,1,45.2500001490115,0|0,0:0|0:0,0:0:0:0:
294,368,20057,5,2,0:0:0:0:
268,183,20318,1,0,0:0:0:0:
294,368,20579,1,8,0:0:0:0:
441,323,20840,6,0,P|433:273|421:255,1,45.2500001490115,0|2,0:0|0:3,0:0:0:0:
395,209,21101,2,0,P|354:179|332:175,1,45.2500001490115,0|0,0:0|0:0,0:0:0:0:
294,368,21361,1,2,0:3:0:0:
441,323,21622,6,0,P|433:273|421:255,1,45.2500001490115,8|0,0:0|0:0,0:0:0:0:
395,209,21883,2,0,P|354:179|332:175,1,45.2500001490115,8|0,0:3|0:0,0:0:0:0:
218,368,22144,6,0,P|200:355|189:336,1,45.2500001490115,2|0,0:0|0:0,0:0:0:0:
244,183,22666,1,8,0:0:0:0:
71,323,22927,6,0,P|78:273|90:255,1,45.2500001490115,0|2,0:0|0:3,0:0:0:0:
117,209,23188,2,0,P|157:179|179:175,1,45.2500001490115,0|0,0:0|0:0,0:0:0:0:
218,368,23449,1,2,0:3:0:0:
71,323,23709,6,0,P|78:273|90:255,1,45.2500001490115,8|0,0:0|0:0,0:0:0:0:
117,209,23970,2,0,P|157:179|179:175,1,45.2500001490115,0|0,0:0|0:0,0:0:0:0:
218,368,24231,5,2,0:0:0:0:
244,183,24492,1,0,0:0:0:0:
218,368,24753,1,8,0:0:0:0:
71,323,25014,6,0,P|78:273|90:255,1,45.2500001490115,0|0,0:0|0:0,0:0:0:0:
117,209,25275,2,0,P|157:179|179:175,1,45.2500001490115,2|0,0:0|0:0,0:0:0:0:
218,368,25535,1,0,0:0:0:0:
71,323,25796,6,0,P|78:273|90:255,1,45.2500001490115,8|0,0:0|0:0,0:0:0:0:
117,209,26057,2,0,P|157:179|179:175,1,45.2500001490115,0|0,0:0|0:0,0:0:0:0:
294,16,26318,6,0,P|312:29|323:48,1,45.2500001490115,2|0,0:0|0:0,0:0:0:0:
268,201,26840,1,8,0:0:0:0:
441,61,27101,6,0,P|433:110|421:128,1,45.2500001490115,0|2,0:0|0:3,0:0:0:0:
395,175,27362,2,0,P|354:205|332:209,1,45.2500001490115,0|0,0:0|0:0,0:0:0:0:
294,16,27623,1,2,0:3:0:0:
441,61,27883,6,0,P|433:110|421:128,1,45.2500001490115,8|0,0:0|0:0,0:0:0:0:
395,175,28144,2,0,P|354:205|332:209,1,45.2500001490115,0|0,0:0|0:0,0:0:0:0:
294,16,28405,5,2,0:0:0:0:
268,201,28666,1,0,0:0:0:0:
294,16,28927,1,8,0:0:0:0:
441,61,29188,6,0,P|433:110|421:128,1,45.2500001490115,0|2,0:0|0:3,0:0:0:0:
395,175,29449,2,0,P|354:205|332:209,1,45.2500001490115,0|0,0:0|0:0,0:0:0:0:
294,16,29709,1,2,0:3:0:0:
441,61,29970,6,0,P|433:110|421:128,1,45.2500001490115,8|0,0:0|0:0,0:0:0:0:
395,175,30231,2,0,P|354:205|332:209,1,45.2500001490115,8|0,0:3|0:0,0:0:0:0:
218,16,30492,6,0,P|200:29|189:48,1,45.2500001490115,2|0,0:0|0:0,0:0:0:0:
244,201,31014,1,8,0:0:0:0:
71,61,31275,6,0,P|78:110|90:128,1,45.2500001490115,0|2,0:0|0:3,0:0:0:0:
117,175,31536,2,0,P|157:205|179:209,1,45.2500001490115,0|0,0:0|0:0,0:0:0:0:
218,16,31797,1,2,0:3:0:0:
71,61,32057,6,0,P|78:110|90:128,1,45.2500001490115,8|0,0:0|0:0,0:0:0:0:
117,175,32318,2,0,P|157:205|179:209,1,45.2500001490115,0|0,0:0|0:0,0:0:0:0:
218,16,32579,5,2,0:0:0:0:
244,201,32840,1,2,0:0:0:0:
218,16,33101,1,8,0:0:0:0:
71,61,33362,6,0,P|78:110|90:128,1,45.2500001490115,0|0,0:0|0:0,0:0:0:0:
117,175,33623,2,0,P|157:205|179:209,1,45.2500001490115,2|0,0:0|0:0,0:0:0:0:
360,203,33883,2,0,P|379:191|395:175,1,45.2500001490115,2|0,0:0|0:0,0:0:0:0:
436,105,34144,2,0,P|441:83|441:61,1,45.2500001490115,8|0,0:3|0:0,0:0:0:0:
294,16,34405,1,8,0:0:0:0:
218,16,34535,1,0,0:0:0:0:
180,117,34666,5,4,0:0:0:0:
332,117,34927,1,0,0:0:0:0:
200,207,35188,6,0,L|215:268,1,45.2500001490115,8|0,0:0|0:0,0:0:0:0:
312,207,35448,2,0,L|297:268,1,45.2500001490115,0|8,0:0|0:0,0:0:0:0:
256,320,35709,1,0,0:0:0:0:
256,64,35970,1,8,0:0:0:0:
312,207,36230,6,0,L|297:268,1,45.2500001490115,2|0,0:3|0:0,0:0:0:0:
200,207,36492,2,0,L|215:268,1,45.2500001490115,8|0,0:0|0:0,0:0:0:0:
135,147,36753,1,2,0:0:0:0:
51,168,37014,1,2,0:0:0:0:
200,207,37276,6,0,L|215:268,1,45.2500001490115,8|0,0:0|0:0,0:0:0:0:
312,207,37535,2,0,L|297:268,1,45.2500001490115,0|8,0:0|0:0,0:0:0:0:
377,147,37796,1,0,0:0:0:0:
461,168,38057,1,8,0:0:0:0:
256,320,38318,5,2,0:3:0:0:
256,320,38579,1,8,0:0:0:0:
461,168,38840,5,2,0:0:0:0:
377,147,39101,1,0,0:0:0:0:
264,4,39361,6,0,L|266:54,1,45.2500001490115,8|0,0:0|0:0,0:0:0:0:
180,25,39622,2,0,L|182:75,1,45.2500001490115,0|8,0:0|0:0,0:0:0:0:
51,168,39883,1,0,0:0:0:0:
135,147,40144,1,8,0:0:0:0:
263,194,40405,6,0,L|261:244,1,45.2500001490115,2|0,0:3|0:0,0:0:0:0:
347,215,40666,2,0,L|345:265,1,45.2500001490115,8|0,0:0|0:0,0:0:0:0:
256,320,40927,1,2,0:0:0:0:
256,320,41188,1,2,0:0:0:0:
179,173,41448,6,0,L|177:223,1,45.2500001490115,8|0,0:0|0:0,0:0:0:0:
95,152,41709,2,0,L|93:202,1,45.2500001490115,0|8,0:0|0:0,0:0:0:0:
180,25,41970,1,0,0:0:0:0:
256,64,42231,1,8,0:0:0:0:
332,25,42492,1,2,0:3:0:0:
332,117,43014,5,2,0:0:0:0:
180,117,43275,1,0,0:0:0:0:
312,207,43536,6,0,L|297:268,1,45.2500001490115,8|0,0:0|0:0,0:0:0:0:
200,207,43796,2,0,L|215:268,1,45.2500001490115,0|8,0:0|0:0,0:0:0:0:
256,320,44057,1,0,0:0:0:0:
256,64,44318,1,8,0:0:0:0:
200,207,44578,6,0,L|215:268,1,45.2500001490115,2|0,0:3|0:0,0:0:0:0:
312,207,44840,2,0,L|297:268,1,45.2500001490115,8|0,0:0|0:0,0:0:0:0:
377,147,45101,1,2,0:0:0:0:
461,168,45362,1,2,0:0:0:0:
312,207,45622,6,0,L|297:268,1,45.2500001490115,8|0,0:0|0:0,0:0:0:0:
200,207,45883,2,0,L|215:268,1,45.2500001490115,0|8,0:0|0:0,0:0:0:0:
135,147,46144,1,0,0:0:0:0:
51,168,46405,1,8,0:0:0:0:
256,320,46666,5,2,0:3:0:0:
51,168,47187,5,2,0:0:0:0:
135,147,47448,1,0,0:0:0:0:
248,4,47709,6,0,L|246:54,1,45.2500001490115,8|0,0:0|0:0,0:0:0:0:
332,25,47970,2,0,L|330:75,1,45.2500001490115,0|8,0:0|0:0,0:0:0:0:
461,168,48230,1,0,0:0:0:0:
377,147,48491,1,8,0:0:0:0:
249,194,48752,6,0,L|251:244,1,45.2500001490115,2|0,0:3|0:0,0:0:0:0:
165,215,49013,2,0,L|167:265,1,45.2500001490115,8|0,0:0|0:0,0:0:0:0:
256,320,49274,1,2,0:0:0:0:
256,320,49535,1,2,0:0:0:0:
166,260,49796,6,0,L|165:215,1,45.2500001490115,8|0,0:0|0:0,0:0:0:0:
250,239,50057,2,0,L|249:194,1,45.2500001490115,8|0,0:0|0:0,0:0:0:0:
330,70,50318,6,0,L|332:25,1,45.2500001490115,2|0,0:0|0:0,0:0:0:0:
246,49,50579,2,0,L|248:4,1,45.2500001490115,8|0,0:3|0:0,0:0:0:0:
192,160,50840,1,10,0:3:0:0:
320,160,50970,1,0,0:0:0:0:
256,224,51101,1,8,0:0:0:0:
74,95,51361,5,12,0:3:0:0:
256,224,51622,1,0,0:0:0:0:
17,169,51883,6,0,P|23:190|39:206,1,45.2500001490115,8|0,0:0|0:0,0:0:0:0:
50,289,52144,2,0,P|69:299|92:299,1,45.2500001490115,0|8,0:0|0:0,0:0:0:0:
256,224,52405,1,0,0:0:0:0:
74,95,52666,1,8,0:0:0:0:
17,169,52927,6,0,P|23:190|39:206,1,45.2500001490115,10|0,0:3|0:0,0:0:0:0:
50,289,53188,2,0,P|69:299|92:299,1,45.2500001490115,8|0,0:0|0:0,0:0:0:0:
74,95,53448,1,2,0:0:0:0:
256,224,53709,1,2,0:0:0:0:
17,169,53970,6,0,P|23:190|39:206,1,45.2500001490115,8|0,0:0|0:0,0:0:0:0:
50,289,54231,2,0,P|69:299|92:299,1,45.2500001490115,0|8,0:0|0:0,0:0:0:0:
256,224,54492,1,0,0:0:0:0:
74,95,54753,1,8,0:0:0:0:
17,169,55014,6,0,P|23:190|39:206,1,45.2500001490115,10|0,0:3|0:0,0:0:0:0:
50,289,55275,2,0,P|69:299|92:299,1,45.2500001490115,8|0,0:0|0:0,0:0:0:0:
256,224,55535,5,2,0:3:0:0:
438,95,55796,1,0,0:0:0:0:
495,169,56057,6,0,P|488:190|472:206,1,45.2500001490115,8|0,0:0|0:0,0:0:0:0:
462,289,56318,2,0,P|442:299|419:299,1,45.2500001490115,0|8,0:0|0:0,0:0:0:0:
438,95,56579,1,0,0:0:0:0:
256,224,56840,1,8,0:0:0:0:
495,169,57101,6,0,P|488:190|472:206,1,45.2500001490115,10|0,0:3|0:0,0:0:0:0:
462,289,57362,2,0,P|442:299|419:299,1,45.2500001490115,8|0,0:0|0:0,0:0:0:0:
256,224,57622,1,2,0:0:0:0:
438,95,57883,1,2,0:0:0:0:
495,169,58144,6,0,P|488:190|472:206,1,45.2500001490115,8|0,0:0|0:0,0:0:0:0:
462,289,58405,2,0,P|442:299|419:299,1,45.2500001490115,0|8,0:0|0:0,0:0:0:0:
438,95,58666,1,0,0:0:0:0:
256,224,58927,1,8,0:0:0:0:
495,169,59188,6,0,P|488:190|472:206,1,45.2500001490115,10|0,0:3|0:0,0:0:0:0:
462,289,59449,2,0,P|442:299|419:299,1,45.2500001490115,8|0,0:0|0:0,0:0:0:0:
256,160,59709,5,2,0:3:0:0:
74,289,59970,1,0,0:0:0:0:
17,215,60231,6,0,P|23:193|39:177,1,45.2500001490115,8|0,0:0|0:0,0:0:0:0:
50,95,60492,2,0,P|69:84|92:84,1,45.2500001490115,0|8,0:0|0:0,0:0:0:0:
74,289,60753,1,0,0:0:0:0:
256,160,61014,1,8,0:0:0:0:
17,215,61275,6,0,P|23:193|39:177,1,45.2500001490115,8|0,0:3|0:0,0:0:0:0:
50,95,61536,2,0,P|69:84|92:84,1,45.2500001490115,8|0,0:0|0:0,0:0:0:0:
256,160,61796,1,2,0:0:0:0:
74,289,62057,1,2,0:0:0:0:
17,215,62318,6,0,P|23:193|39:177,1,45.2500001490115,8|0,0:0|0:0,0:0:0:0:
50,95,62579,2,0,P|69:84|92:84,1,45.2500001490115,0|8,0:0|0:0,0:0:0:0:
74,289,62840,1,0,0:0:0:0:
256,160,63101,1,8,0:0:0:0:
17,215,63362,6,0,P|23:193|39:177,1,45.2500001490115,10|0,0:3|0:0,0:0:0:0:
50,95,63623,2,0,P|69:84|92:84,1,45.2500001490115,8|0,0:0|0:0,0:0:0:0:
256,160,63883,5,2,0:3:0:0:
438,289,64144,1,0,0:0:0:0:
495,215,64405,6,0,P|488:193|472:177,1,45.2500001490115,8|0,0:0|0:0,0:0:0:0:
462,95,64666,2,0,P|442:84|419:84,1,45.2500001490115,0|8,0:0|0:0,0:0:0:0:
438,289,64927,1,0,0:0:0:0:
256,160,65188,1,8,0:0:0:0:
495,215,65449,6,0,P|488:193|472:177,1,45.2500001490115,8|0,0:3|0:0,0:0:0:0:
462,95,65710,2,0,P|442:84|419:84,1,45.2500001490115,8|0,0:0|0:0,0:0:0:0:
256,160,65970,1,2,0:0:0:0:
438,289,66231,1,2,0:0:0:0:
495,215,66492,6,0,P|488:193|472:177,1,45.2500001490115,8|0,0:0|0:0,0:0:0:0:
462,95,66753,2,0,P|442:84|419:84,1,45.2500001490115,2|0,0:3|0:0,0:0:0:0:
92,84,67014,2,0,P|69:84|50:95,1,45.2500001490115,10|0,0:0|0:0,0:0:0:0:
39,177,67275,2,0,P|23:193|17:215,1,45.2500001490115,10|0,0:3|0:0,0:0:0:0:
187,304,67535,5,10,0:0:0:0:
256,256,67666,1,0,0:0:0:0:
325,304,67796,1,8,0:3:0:0:
413,169,68057,5,6,0:3:0:0:
374,44,68579,6,0,L|386:93,2,45.2500001490115,2|0|0,0:1|0:0|0:0,0:0:0:0:
413,169,68970,1,2,0:3:0:0:
285,32,69231,6,0,L|297:81,1,45.2500001490115,0|2,0:0|0:3,0:0:0:0:
196,20,69622,6,0,L|208:69,1,45.2500001490115,2|0,0:0|0:0,0:0:0:0:
413,169,69883,1,2,0:1:0:0:
111,279,70144,5,2,0:0:0:0:
150,154,70666,6,0,L|138:203,2,45.2500001490115,2|0|0,0:1|0:0|0:0,0:0:0:0:
111,279,71057,1,2,0:3:0:0:
239,142,71318,6,0,L|227:191,1,45.2500001490115,0|2,0:0|0:3,0:0:0:0:
328,130,71709,6,0,L|316:179,1,45.2500001490115,2|0,0:0|0:0,0:0:0:0:
111,279,71970,1,2,0:1:0:0:
445,334,72231,5,2,0:0:0:0:
406,209,72753,6,0,L|418:258,2,45.2500001490115,2|0|0,0:1|0:0|0:0,0:0:0:0:
445,334,73144,1,2,0:3:0:0:
317,197,73405,6,0,L|329:246,1,45.2500001490115,0|2,0:0|0:3,0:0:0:0:
228,185,73796,6,0,L|240:234,1,45.2500001490115,2|0,0:0|0:0,0:0:0:0:
445,334,74057,1,2,0:1:0:0:
110,365,74318,5,2,0:0:0:0:
149,240,74840,6,0,L|137:289,2,45.2500001490115,2|0|0,0:1|0:0|0:0,0:0:0:0:
110,365,75231,1,2,0:3:0:0:
238,228,75361,6,0,L|226:277,1,45.2500001490115,0|0,0:0|0:0,0:0:0:0:
327,216,75622,2,0,L|315:265,1,45.2500001490115,2|0,0:3|0:0,0:0:0:0:
416,204,75883,2,0,L|404:253,1,45.2500001490115,8|0,0:3|0:0,0:0:0:0:
505,192,76144,2,0,L|493:241,1,45.2500001490115,8|2,0:3|0:1,0:0:0:0:
304,133,76405,5,4,0:0:0:0:
208,133,76927,1,8,0:0:0:0:
256,64,77318,1,2,0:3:0:0:
208,133,77709,1,2,0:3:0:0:
304,133,77970,1,8,0:0:0:0:
208,133,78492,5,2,0:3:0:0:
256,64,78753,1,2,0:3:0:0:
304,133,79014,1,8,0:0:0:0:
256,64,79405,1,2,0:3:0:0:
208,133,79796,1,2,0:3:0:0:
304,133,80057,1,8,0:0:0:0:
304,251,80318,5,8,0:3:0:0:
256,320,80448,5,0,0:0:0:0:
208,251,80579,5,2,0:0:0:0:
304,251,81101,1,8,0:0:0:0:
208,251,81492,1,2,0:3:0:0:
304,251,81883,1,2,0:3:0:0:
256,320,82144,1,8,0:0:0:0:
256,320,82666,5,2,0:3:0:0:
304,251,82927,1,2,0:3:0:0:
208,251,83188,1,8,0:0:0:0:
304,251,83579,1,2,0:3:0:0:
256,320,83970,1,2,0:3:0:0:
208,251,84231,1,8,0:0:0:0:
164,120,84492,5,8,0:3:0:0:
110,174,84622,5,0,0:0:0:0:
36,151,84753,5,2,0:0:0:0:
164,120,85275,1,8,0:0:0:0:
36,151,85666,1,2,0:3:0:0:
164,120,86057,1,2,0:3:0:0:
110,174,86318,1,8,0:0:0:0:
36,151,86840,1,2,0:3:0:0:
110,174,87100,1,2,0:3:0:0:
164,120,87361,1,8,0:0:0:0:
36,151,87753,1,2,0:3:0:0:
164,120,88144,1,2,0:3:0:0:
110,174,88405,1,8,0:0:0:0:
256,208,88666,1,8,0:3:0:0:
476,151,88927,5,2,0:0:0:0:
348,120,89449,1,8,0:0:0:0:
476,151,89840,1,2,0:3:0:0:
348,120,90231,1,2,0:3:0:0:
402,174,90492,1,8,0:0:0:0:
476,151,91014,1,2,0:3:0:0:
402,174,91274,1,2,0:3:0:0:
348,120,91535,1,8,0:0:0:0:
476,151,91927,1,2,0:3:0:0:
348,120,92318,1,2,0:3:0:0:
402,174,92579,1,8,0:0:0:0:
256,208,92840,1,10,0:3:0:0:
366,360,93101,5,6,0:0:0:0:
439,312,93361,1,2,0:3:0:0:
334,229,93622,2,0,L|345:282,1,45.2500001490115,8|0,0:0|0:0,0:0:0:0:
366,360,93883,1,2,0:3:0:0:
366,360,94014,1,2,0:0:0:0:
439,312,94275,5,0,0:0:0:0:
334,229,94405,2,0,L|345:282,1,45.2500001490115,2|0,0:0|0:0,0:0:0:0:
366,360,94666,1,8,0:0:0:0:
222,321,95188,5,2,0:0:0:0:
149,273,95448,1,2,0:3:0:0:
254,190,95709,2,0,L|243:243,1,45.2500001490115,8|0,0:0|0:0,0:0:0:0:
222,321,95970,1,2,0:3:0:0:
222,321,96101,1,2,0:0:0:0:
149,273,96362,5,0,0:0:0:0:
254,190,96492,2,0,L|243:243,1,45.2500001490115,2|0,0:0|0:0,0:0:0:0:
222,321,96753,1,8,0:0:0:0:
339,220,97014,1,8,0:3:0:0:
417,254,97275,5,2,0:0:0:0:
490,206,97535,1,2,0:3:0:0:
385,123,97796,2,0,L|396:176,1,45.2500001490115,8|0,0:0|0:0,0:0:0:0:
417,254,98057,1,2,0:3:0:0:
417,254,98188,1,2,0:0:0:0:
490,206,98449,5,0,0:0:0:0:
385,123,98579,2,0,L|396:176,1,45.2500001490115,2|0,0:0|0:0,0:0:0:0:
417,254,98840,1,8,0:0:0:0:
169,181,99361,5,2,0:0:0:0:
96,133,99621,1,2,0:3:0:0:
201,50,99883,2,0,L|190:103,1,45.2500001490115,8|0,0:0|0:0,0:0:0:0:
169,181,100143,1,2,0:3:0:0:
169,181,100274,1,2,0:0:0:0:
96,133,100535,5,0,0:0:0:0:
201,50,100665,2,0,L|190:103,1,45.2500001490115,2|0,0:0|0:0,0:0:0:0:
169,181,100926,1,8,0:0:0:0:
407,185,101188,1,8,0:3:0:0:
356,248,101448,5,4,0:0:0:0:
376,326,101709,1,2,0:3:0:0:
279,228,101970,2,0,L|230:239,1,45.2500001490115,8|0,0:0|0:0,0:0:0:0:
356,248,102231,1,2,0:3:0:0:
356,248,102361,1,2,0:0:0:0:
376,326,102622,5,0,0:0:0:0:
279,228,102753,2,0,L|230:239,1,45.2500001490115,2|0,0:0|0:0,0:0:0:0:
123,355,103014,2,0,L|132:310,1,45.2500001490115,8|0,0:0|0:0,0:0:0:0:
151,236,103275,2,0,L|160:191,1,45.2500001490115,8|0,0:3|0:0,0:0:0:0:
116,63,103535,5,2,0:0:0:0:
96,141,103796,1,2,0:3:0:0:
193,43,104057,2,0,L|242:54,1,45.2500001490115,8|0,0:0|0:0,0:0:0:0:
116,63,104318,1,2,0:3:0:0:
116,63,104448,1,2,0:0:0:0:
96,141,104709,5,0,0:0:0:0:
193,43,104840,2,0,L|242:54,1,45.2500001490115,2|0,0:0|0:0,0:0:0:0:
311,6,105101,2,0,L|321:51,1,45.2500001490115,8|0,0:0|0:0,0:0:0:0:
339,125,105362,2,0,L|349:170,1,45.2500001490115,8|0,0:3|0:0,0:0:0:0:
405,303,105622,5,2,0:0:0:0:
425,225,105883,1,2,0:3:0:0:
328,323,106144,2,0,L|279:312,1,45.2500001490115,8|0,0:0|0:0,0:0:0:0:
405,303,106405,1,2,0:3:0:0:
405,303,106535,1,2,0:0:0:0:
425,225,106796,5,0,0:0:0:0:
328,323,106927,2,0,L|279:312,1,45.2500001490115,2|0,0:0|0:0,0:0:0:0:
209,359,107188,2,0,L|200:315,1,45.2500001490115,8|0,0:0|0:0,0:0:0:0:
181,240,107449,2,0,L|172:196,1,45.2500001490115,8|0,0:3|0:0,0:0:0:0:
359,116,107709,5,6,0:0:0:0:
153,116,107970,1,2,0:3:0:0:
276,88,108231,6,0,L|219:74,1,45.2500001490115,8|0,0:0|0:0,0:0:0:0:
250,6,108492,2,0,L|293:16,1,45.2500001490115,2|2,0:3|0:0,0:0:0:0:
386,191,108753,6,0,L|342:201,1,45.2500001490115,2|0,0:1|0:0,0:0:0:0:
157,312,109014,2,0,L|200:301,1,45.2500001490115,2|0,0:3|0:0,0:0:0:0:
229,151,109275,5,10,0:3:0:0:
266,257,109405,1,0,0:0:0:0:
340,290,109535,1,2,0:3:0:0:
303,363,109666,1,0,0:0:0:0:
192,224,109796,5,12,0:0:0:0:
