osu file format v14

[General]
AudioFilename: audio.mp3
AudioLeadIn: 0
PreviewTime: 1275
Countdown: 0
SampleSet: Soft
StackLeniency: 0.2
Mode: 0
LetterboxInBreaks: 0
WidescreenStoryboard: 1

[Editor]
DistanceSpacing: 1.7
BeatDivisor: 8
GridSize: 16
TimelineZoom: 2.6

[Metadata]
Title:Ama no Hane wa Kami no Gotoshi
TitleUnicode:天之羽如神
Artist:Spide
ArtistUnicode:Spide
Creator:tatemae
Version:Collab Insane
Source:
Tags:black man fixxis Riparia Record Lorenotices anishina kodoku loreley EijiKuinbii kjlfaklf 619 short cut ver version
BeatmapID:2172988
BeatmapSetID:926835

[Difficulty]
HPDrainRate:6
CircleSize:4.2
OverallDifficulty:8.3
ApproachRate:9.2
SliderMultiplier:1.81000000596046
SliderTickRate:1

[Events]
//Background and Video events
0,0,"65165749_p0.jpg",0,0
//Break Periods
//Storyboard Layer 0 (Background)
//Storyboard Layer 1 (Fail)
//Storyboard Layer 2 (Pass)
//Storyboard Layer 3 (Foreground)
//Storyboard Layer 4 (Overlay)
//Storyboard Sound Samples

[TimingPoints]
1275,521.739130434783,4,2,1,60,1,0
1275,-100,4,2,1,60,0,0
15883,-100,4,2,1,65,0,0
17970,-100,4,2,1,60,0,0
32579,-100,4,2,1,65,0,0
34666,-100,4,2,1,65,0,0
49275,-100,4,2,1,65,0,0
51361,-100,4,2,1,70,0,0
65970,-100,4,2,1,70,0,0
68057,-111.111111111111,4,2,1,50,0,0
74318,-83.3333333333333,4,2,1,65,0,0
74579,-83.3333333333333,4,2,1,70,0,0
76405,-133.333333333333,4,2,1,60,0,0
93101,-111.111111111111,4,2,1,70,0,0
101448,-100,4,2,1,70,0,0
107709,-90.9090909090909,4,2,1,70,0,0

[Colours]
Combo1 : 164,179,223
Combo2 : 249,155,239
Combo3 : 166,222,236

[HitObjects]
114,301,1275,5,4,0:0:0:0:
44,349,1405,2,0,P|32:298|44:253,1,90.500000298023,0|0,0:0|0:0,0:0:0:0:
102,206,1796,1,8,0:0:0:0:
251,149,2057,1,0,0:0:0:0:
46,84,2318,2,0,P|40:60|44:26,1,45.2500001490115,2|0,0:0|0:0,0:0:0:0:
136,86,2578,2,0,P|141:62|137:28,1,45.2500001490115,2|0,0:1|0:0,0:0:0:0:
91,151,2839,1,8,0:0:0:0:
250,228,3101,1,0,0:0:0:0:
438,144,3361,6,0,P|460:142|482:149,1,45.2500001490115,2|0,0:0|0:0,0:0:0:0:
491,234,3622,2,0,P|468:243|433:233,1,45.2500001490115,0|0,0:0|0:0,0:0:0:0:
376,198,3883,1,8,0:0:0:0:
251,67,4144,1,0,0:0:0:0:
73,141,4405,2,0,P|50:137|28:142,1,45.2500001490115,2|0,0:0|0:0,0:0:0:0:
26,240,4666,2,0,P|47:246|70:244,1,45.2500001490115,2|0,0:1|0:0,0:0:0:0:
133,192,4927,1,8,0:0:0:0:
251,149,5188,1,8,0:3:0:0:
250,228,5318,1,2,0:1:0:0:
250,312,5448,6,0,L|187:326,1,45.2500001490115,4|0,0:0|0:0,0:0:0:0:
370,246,5709,2,0,L|309:231,1,45.2500001490115,0|0,0:0|0:0,0:0:0:0:
331,325,5970,1,8,0:0:0:0:
251,67,6231,1,0,0:0:0:0:
509,111,6492,2,0,L|451:97,1,45.2500001490115,2|0,0:0|0:0,0:0:0:0:
443,11,6753,2,0,L|383:25,1,45.2500001490115,2|0,0:1|0:0,0:0:0:0:
354,104,7014,1,8,0:0:0:0:
250,312,7275,1,0,0:0:0:0:
147,103,7535,5,2,0:0:0:0:
248,68,7666,1,0,0:0:0:0:
147,103,7796,2,0,P|103:101|85:100,1,45.2500001490115,0|0,0:0|0:0,0:0:0:0:
209,173,8057,1,8,0:0:0:0:
405,15,8318,5,0,0:0:0:0:
367,118,8448,1,2,0:1:0:0:
435,87,8579,1,2,0:0:0:0:
334,52,8710,1,0,0:0:0:0:
435,87,8840,2,0,P|478:84|497:84,1,45.2500001490115,2|0,0:1|0:0,0:0:0:0:
488,180,9101,5,8,0:0:0:0:
410,190,9231,1,0,0:0:0:0:
335,201,9361,1,2,0:3:0:0:
282,363,9622,6,0,B|289:224|222:283|228:143,1,226.250000745057,2|0,0:0|0:0,0:0:0:0:
309,191,10405,1,0,0:0:0:0:
197,311,10666,2,0,P|192:333|195:355,1,45.2500001490115,2|0,0:0|0:0,0:0:0:0:
353,359,10927,2,0,P|355:336|351:314,1,45.2500001490115,2|0,0:1|0:0,0:0:0:0:
274,282,11188,1,8,0:0:0:0:
89,181,11448,1,0,0:0:0:0:
339,82,11709,6,0,L|280:100,1,45.2500001490115,2|0,0:0|0:0,0:0:0:0:
170,81,11970,2,0,L|230:99,1,45.2500001490115,0|0,0:0|0:0,0:0:0:0:
252,20,12231,1,8,0:0:0:0:
256,191,12492,1,0,0:0:0:0:
120,287,12753,2,0,L|59:304,1,45.2500001490115,2|0,0:0|0:0,0:0:0:0:
183,357,13014,2,0,L|127:374,1,45.2500001490115,2|0,0:1|0:0,0:0:0:0:
204,273,13275,1,8,0:0:0:0:
173,192,13405,1,0,0:0:0:0:
255,190,13535,2,0,L|262:130,1,45.2500001490115,8|2,0:3|0:1,0:0:0:0:
285,270,13796,5,2,0:0:0:0:
406,364,13927,2,0,L|313:341,1,90.500000298023,0|0,0:0|0:0,0:0:0:0:
231,351,14318,1,8,0:0:0:0:
96,192,14579,1,0,0:0:0:0:
311,109,14840,2,0,P|337:116|371:106,1,45.2500001490115,2|0,0:0|0:0,0:0:0:0:
355,28,15101,2,0,P|330:24|306:31,1,45.2500001490115,2|0,0:1|0:0,0:0:0:0:
424,71,15361,1,8,0:0:0:0:
254,195,15622,1,0,0:0:0:0:
79,220,15883,5,2,0:0:0:0:
392,216,16144,1,2,0:0:0:0:
148,183,16405,1,8,0:0:0:0:
322,105,16666,6,0,L|320:150,1,45.2500001490115,0|2,0:0|0:1,0:0:0:0:
312,243,16927,1,2,0:0:0:0:
232,237,17058,1,0,0:0:0:0:
266,354,17188,2,0,L|268:298,1,45.2500001490115,2|0,0:1|0:0,0:0:0:0:
268,308,17384,1,0,0:0:0:0:
268,308,17449,1,8,0:3:0:0:
203,234,17580,1,8,0:0:0:0:
182,328,17710,2,0,L|181:374,1,45.2500001490115,2|0,0:1|0:0,0:0:0:0:
357,364,17970,5,4,0:0:0:0:
430,272,18101,2,0,P|388:260|347:278,1,90.500000298023,0|0,0:0|0:0,0:0:0:0:
476,344,18492,1,8,0:0:0:0:
344,171,18753,2,0,P|341:148|343:126,1,45.2500001490115,0|2,0:0|0:3,0:0:0:0:
424,174,19014,2,0,P|426:151|423:129,1,45.2500001490115,0|0,0:0|0:0,0:0:0:0:
382,64,19275,1,2,0:3:0:0:
138,71,19535,1,8,0:0:0:0:
146,154,19666,1,0,0:0:0:0:
157,235,19796,1,0,0:0:0:0:
157,235,20057,6,0,L|53:255,1,90.500000298023,2|0,0:0|0:0,0:0:0:0:
16,310,20448,1,0,0:0:0:0:
16,310,20579,1,8,0:0:0:0:
237,369,20840,2,0,P|259:367|280:359,1,45.2500001490115,0|2,0:0|0:3,0:0:0:0:
260,281,21101,2,0,P|238:283|217:291,1,45.2500001490115,0|0,0:0|0:0,0:0:0:0:
157,344,21361,1,2,0:3:0:0:
157,344,21492,1,0,0:0:0:0:
346,306,21622,2,0,P|346:273|330:250,1,45.2500001490115,8|0,0:0|0:0,0:0:0:0:
303,158,21883,1,8,0:3:0:0:
411,103,22014,1,0,0:0:0:0:
239,112,22144,6,0,P|227:155|239:198,1,90.500000298023,2|0,0:0|0:0,0:0:0:0:
301,253,22535,1,0,0:0:0:0:
301,253,22666,1,8,0:0:0:0:
134,77,22927,2,0,P|111:78|89:83,1,45.2500001490115,0|2,0:0|0:3,0:0:0:0:
139,156,23188,2,0,P|117:161|95:163,1,45.2500001490115,0|0,0:0|0:0,0:0:0:0:
29,129,23448,1,2,0:3:0:0:
243,21,23709,1,8,0:0:0:0:
240,102,23840,1,0,0:0:0:0:
236,182,23970,1,0,0:0:0:0:
441,279,24231,5,2,0:0:0:0:
512,328,24361,1,0,0:0:0:0:
441,279,24492,2,0,P|440:247|452:216,1,45.2500001490115,0|0,0:0|0:0,0:0:0:0:
368,336,24753,1,8,0:0:0:0:
131,222,25014,1,0,0:0:0:0:
142,298,25144,1,0,0:0:0:0:
201,253,25275,5,2,0:0:0:0:
69,273,25405,1,0,0:0:0:0:
133,177,25536,2,0,P|128:199|130:221,1,45.2500001490115,0|0,0:0|0:0,0:0:0:0:
211,331,25796,1,8,0:0:0:0:
279,281,25927,1,0,0:0:0:0:
267,200,26057,1,0,0:0:0:0:
15,33,26318,6,0,B|74:38|74:38|121:89|121:89|188:91,1,181.000000596046,2|8,0:0|0:0,0:0:0:0:
174,258,27101,2,0,P|176:280|174:303,1,45.2500001490115,0|2,0:0|0:3,0:0:0:0:
94,307,27362,2,0,P|91:284|94:262,1,45.2500001490115,0|0,0:0|0:0,0:0:0:0:
127,197,27623,1,2,0:3:0:0:
374,71,27883,1,8,0:0:0:0:
366,154,28014,1,0,0:0:0:0:
355,235,28144,1,0,0:0:0:0:
355,235,28405,6,0,L|459:255,1,90.500000298023,2|0,0:0|0:0,0:0:0:0:
496,310,28796,1,0,0:0:0:0:
496,310,28927,1,8,0:0:0:0:
275,369,29188,2,0,P|252:367|231:359,1,45.2500001490115,0|2,0:0|0:3,0:0:0:0:
251,281,29449,2,0,P|273:283|295:291,1,45.2500001490115,0|0,0:0|0:0,0:0:0:0:
355,344,29709,1,2,0:3:0:0:
355,344,29840,1,0,0:0:0:0:
166,306,29970,2,0,P|166:273|182:250,1,45.2500001490115,8|0,0:0|0:0,0:0:0:0:
209,158,30231,5,8,0:3:0:0:
101,103,30362,1,0,0:0:0:0:
273,112,30492,2,0,P|284:155|272:198,1,90.500000298023,2|0,0:0|0:0,0:0:0:0:
211,253,30883,1,0,0:0:0:0:
211,253,31014,1,8,0:0:0:0:
378,77,31275,2,0,P|400:78|422:83,1,45.2500001490115,0|2,0:0|0:3,0:0:0:0:
372,156,31536,2,0,P|394:161|417:163,1,45.2500001490115,0|0,0:0|0:0,0:0:0:0:
483,129,31796,1,2,0:3:0:0:
269,21,32057,1,8,0:0:0:0:
272,102,32188,1,0,0:0:0:0:
276,182,32318,1,0,0:0:0:0:
71,279,32579,5,2,0:0:0:0:
0,328,32709,1,0,0:0:0:0:
71,279,32840,2,0,P|72:247|60:216,1,45.2500001490115,2|0,0:0|0:0,0:0:0:0:
144,336,33101,1,8,0:0:0:0:
310,27,33361,6,0,L|256:38,1,45.2500001490115,0|0,0:0|0:0,0:0:0:0:
177,77,33622,1,2,0:0:0:0:
185,155,33753,1,0,0:0:0:0:
302,186,33883,2,0,L|304:242,1,45.2500001490115,2|0,0:0|0:0,0:0:0:0:
304,232,34079,1,0,0:0:0:0:
304,232,34144,1,8,0:3:0:0:
196,243,34275,1,0,0:0:0:0:
258,356,34405,2,0,L|257:310,1,45.2500001490115,8|0,0:0|0:0,0:0:0:0:
196,243,34666,6,0,L|108:264,1,90.500000298023,4|0,0:0|0:0,0:0:0:0:
51,68,35188,1,8,0:0:0:0:
120,34,35318,1,0,0:0:0:0:
195,45,35448,1,0,0:0:0:0:
239,108,35579,1,8,0:0:0:0:
280,172,35709,6,0,L|330:158,1,45.2500001490115,0|0,0:0|0:0,0:0:0:0:
414,89,35970,2,0,L|370:101,1,45.2500001490115,8|0,0:0|0:0,0:0:0:0:
395,178,36231,1,2,0:3:0:0:
418,243,36361,1,0,0:0:0:0:
484,219,36492,1,8,0:0:0:0:
460,154,36622,1,0,0:0:0:0:
338,251,36753,6,0,L|243:245,1,90.500000298023,2|2,0:0|0:0,0:0:0:0:
67,367,37275,1,8,0:0:0:0:
25,301,37405,1,0,0:0:0:0:
29,226,37535,1,0,0:0:0:0:
87,175,37666,1,8,0:0:0:0:
146,128,37796,6,0,L|126:79,1,45.2500001490115,0|0,0:0|0:0,0:0:0:0:
107,255,38057,2,0,L|123:297,1,45.2500001490115,8|0,0:0|0:0,0:0:0:0:
196,336,38318,1,2,0:3:0:0:
263,349,38448,1,0,0:0:0:0:
277,281,38579,1,8,0:0:0:0:
208,268,38709,1,0,0:0:0:0:
339,335,38840,6,0,L|426:313,1,90.500000298023,2|0,0:0|0:0,0:0:0:0:
474,96,39361,1,8,0:0:0:0:
410,50,39491,1,0,0:0:0:0:
335,50,39621,1,0,0:0:0:0:
281,105,39752,1,8,0:0:0:0:
231,162,39883,6,0,L|183:140,1,45.2500001490115
59,164,40144,2,0,L|100:182,1,45.2500001490115,8|0,0:0|0:0,0:0:0:0:
182,239,40404,1,2,0:3:0:0:
214,330,40534,1,0,0:0:0:0:
152,300,40665,1,8,0:0:0:0:
245,267,40795,1,0,0:0:0:0:
127,371,40927,6,0,L|37:359,1,90.500000298023,2|2,0:0|0:0,0:0:0:0:
386,366,41448,1,8,0:0:0:0:
428,300,41578,1,0,0:0:0:0:
424,225,41708,1,0,0:0:0:0:
366,174,41839,1,8,0:0:0:0:
307,127,41970,6,0,L|255:133,1,45.2500001490115
229,55,42230,2,0,L|276:49,1,45.2500001490115,8|0,0:0|0:0,0:0:0:0:
371,25,42491,1,2,0:3:0:0:
452,80,42621,1,0,0:0:0:0:
385,93,42752,1,8,0:0:0:0:
440,12,42882,1,0,0:0:0:0:
463,167,43014,6,0,P|414:170|362:183,1,90.500000298023,2|0,0:0|0:0,0:0:0:0:
50,320,43536,1,8,0:0:0:0:
119,354,43666,1,0,0:0:0:0:
194,343,43796,1,0,0:0:0:0:
238,280,43927,1,8,0:0:0:0:
279,216,44057,6,0,L|228:202,1,45.2500001490115,0|0,0:0|0:0,0:0:0:0:
366,284,44318,2,0,L|410:297,1,45.2500001490115,8|0,0:0|0:0,0:0:0:0:
459,234,44579,1,2,0:3:0:0:
483,169,44709,1,0,0:0:0:0:
417,145,44840,1,8,0:0:0:0:
394,210,44970,1,0,0:0:0:0:
483,169,45101,6,0,L|465:69,1,90.500000298023,2|2,0:0|0:0,0:0:0:0:
167,28,45623,1,8,0:0:0:0:
125,94,45753,1,0,0:0:0:0:
129,169,45883,1,0,0:0:0:0:
187,220,46014,1,8,0:0:0:0:
246,267,46144,6,0,L|226:315,1,45.2500001490115,0|0,0:0|0:0,0:0:0:0:
223,97,46405,2,0,L|207:140,1,45.2500001490115,8|0,0:0|0:0,0:0:0:0:
125,262,46666,1,2,0:3:0:0:
58,275,46796,1,0,0:0:0:0:
44,207,46927,1,8,0:0:0:0:
113,194,47057,1,0,0:0:0:0:
186,320,47188,6,0,P|142:342|90:333,1,90.500000298023,2|0,0:0|0:0,0:0:0:0:
371,363,47709,1,8,0:0:0:0:
426,309,47839,1,0,0:0:0:0:
441,235,47969,1,0,0:0:0:0:
397,172,48100,1,8,0:0:0:0:
351,112,48230,6,0,P|334:126|321:151,1,45.2500001490115,0|0,0:0|0:0,0:0:0:0:
356,27,48492,2,0,P|333:26|307:37,1,45.2500001490115,8|0,0:0|0:0,0:0:0:0:
201,127,48752,1,2,0:3:0:0:
234,33,48882,1,0,0:0:0:0:
170,64,49013,1,8,0:0:0:0:
261,96,49143,1,0,0:0:0:0:
120,125,49275,5,2,0:0:0:0:
473,199,49535,1,2,0:0:0:0:
339,43,49796,2,0,L|336:102,1,45.2500001490115,8|0,0:0|0:0,0:0:0:0:
254,284,50057,2,0,L|254:238,1,45.2500001490115,8|0,0:0|0:0,0:0:0:0:
208,175,50318,5,2,0:0:0:0:
327,203,50448,1,0,0:0:0:0:
178,304,50579,1,8,0:3:0:0:
316,335,50709,1,0,0:0:0:0:
316,335,50774,1,0,0:0:0:0:
316,335,50839,2,0,L|261:320,1,45.2500001490115,0|0,0:0|0:0,0:0:0:0:
179,221,51101,1,8,0:0:0:0:
121,360,51231,1,0,0:0:0:0:
75,244,51361,6,0,P|59:201|60:156,1,90.500000298023,12|0,0:3|0:0,0:0:0:0:
369,91,51883,1,8,0:0:0:0:
317,148,52013,1,0,0:0:0:0:
244,166,52143,1,0,0:0:0:0:
170,139,52274,1,8,0:0:0:0:
126,75,52404,6,0,P|123:52|131:22,1,45.2500001490115,0|0,0:0|0:0,0:0:0:0:
264,43,52666,2,0,P|266:65|259:96,1,45.2500001490115,8|0,0:0|0:0,0:0:0:0:
180,216,52926,1,10,0:3:0:0:
180,216,53056,1,0,0:0:0:0:
301,225,53187,1,8,0:0:0:0:
301,225,53317,1,0,0:0:0:0:
199,304,53448,6,0,P|158:302|110:281,1,90.500000298023,2|2,0:0|0:0,0:0:0:0:
335,356,53970,1,8,0:0:0:0:
380,293,54100,1,0,0:0:0:0:
383,218,54230,1,0,0:0:0:0:
343,150,54361,1,8,0:0:0:0:
273,119,54491,6,0,P|250:121|221:134,1,45.2500001490115,0|0,0:0|0:0,0:0:0:0:
267,261,54753,2,0,P|289:258|318:245,1,45.2500001490115,8|0,0:0|0:0,0:0:0:0:
421,145,55013,1,10,0:3:0:0:
421,145,55143,1,0,0:0:0:0:
453,262,55274,1,8,0:0:0:0:
453,262,55404,1,0,0:0:0:0:
484,91,55535,6,0,P|450:66|397:68,1,90.500000298023,2|0,0:3|0:0,0:0:0:0:
238,297,56057,1,8,0:0:0:0:
173,253,56187,1,0,0:0:0:0:
144,184,56317,1,0,0:0:0:0:
159,107,56448,1,8,0:0:0:0:
216,53,56578,6,0,P|237:47|269:49,1,45.2500001490115,0|0,0:0|0:0,0:0:0:0:
269,185,56840,2,0,P|247:190|215:188,1,45.2500001490115,8|0,0:0|0:0,0:0:0:0:
328,132,57100,1,10,0:3:0:0:
328,132,57230,1,0,0:0:0:0:
322,253,57361,1,8,0:0:0:0:
322,253,57491,1,0,0:0:0:0:
404,88,57622,6,0,B|422:128|422:128|402:180,1,90.500000298023,2|2,0:0|0:0,0:0:0:0:
195,350,58144,1,8,0:0:0:0:
146,289,58274,1,0,0:0:0:0:
140,214,58404,1,0,0:0:0:0:
178,145,58535,1,8,0:0:0:0:
248,112,58665,6,0,P|270:113|299:125,1,45.2500001490115,0|0,0:0|0:0,0:0:0:0:
92,147,58927,2,0,P|69:145|40:133,1,45.2500001490115,8|0,0:0|0:0,0:0:0:0:
219,211,59187,1,10,0:3:0:0:
219,211,59317,1,0,0:0:0:0:
135,79,59448,1,8,0:0:0:0:
135,79,59578,1,0,0:0:0:0:
54,221,59709,6,0,P|46:265|54:309,1,90.500000298023,2|0,0:3|0:0,0:0:0:0:
306,366,60231,1,8,0:0:0:0:
361,312,60361,1,0,0:0:0:0:
376,238,60491,1,0,0:0:0:0:
347,165,60622,1,8,0:0:0:0:
281,123,60752,6,0,P|258:121|228:129,1,45.2500001490115,0|0,0:0|0:0,0:0:0:0:
159,244,61014,2,0,P|181:245|211:237,1,45.2500001490115,8|0,0:0|0:0,0:0:0:0:
298,219,61274,1,8,0:3:0:0:
298,219,61404,1,0,0:0:0:0:
168,172,61535,1,8,0:0:0:0:
168,172,61665,1,0,0:0:0:0:
281,123,61796,6,0,L|292:25,1,90.500000298023,2|2,0:0|0:0,0:0:0:0:
43,27,62318,1,8,0:0:0:0:
2,92,62448,1,0,0:0:0:0:
3,167,62578,1,0,0:0:0:0:
48,231,62709,1,8,0:0:0:0:
121,257,62839,6,0,P|143:253|170:238,1,45.2500001490115,0|0,0:0|0:0,0:0:0:0:
117,116,63101,2,0,P|94:119|67:134,1,45.2500001490115,8|0,0:0|0:0,0:0:0:0:
177,166,63361,1,10,0:3:0:0:
177,166,63491,1,0,0:0:0:0:
221,56,63622,1,8,0:0:0:0:
221,56,63752,1,0,0:0:0:0:
237,214,63883,6,0,P|277:222|328:214,1,90.500000298023,2|0,0:3|0:0,0:0:0:0:
471,352,64405,1,8,0:0:0:0:
512,287,64535,1,0,0:0:0:0:
511,212,64665,1,0,0:0:0:0:
466,148,64796,1,8,0:0:0:0:
393,122,64926,6,0,P|370:125|343:140,1,45.2500001490115,0|0,0:0|0:0,0:0:0:0:
371,277,65188,2,0,P|350:286|328:290,1,45.2500001490115,8|0,0:0|0:0,0:0:0:0:
215,247,65448,1,8,0:3:0:0:
215,247,65578,1,0,0:0:0:0:
132,345,65709,1,8,0:0:0:0:
132,345,65839,1,0,0:0:0:0:
88,192,65970,5,2,0:0:0:0:
309,368,66231,1,2,0:0:0:0:
418,125,66492,2,0,L|464:125,1,45.2500001490115,8|0,0:0|0:0,0:0:0:0:
352,162,66753,2,0,L|306:161,1,45.2500001490115,2|0,0:3|0:0,0:0:0:0:
426,200,67014,5,10,0:0:0:0:
345,87,67144,1,0,0:0:0:0:
230,206,67275,1,10,0:3:0:0:
195,67,67405,1,0,0:0:0:0:
195,67,67470,1,0,0:0:0:0:
195,67,67535,2,0,L|183:121,1,45.2500001490115,10|0,0:0|0:0,0:0:0:0:
146,245,67796,1,8,0:3:0:0:
97,55,67927,1,0,0:0:0:0:
13,169,68057,6,0,P|67:168|141:169,1,122.174996673846,6|0,0:3|0:0,0:0:0:0:
147,173,68579,2,0,P|146:193|147:219,1,40.724998891282,2|0,0:1|0:0,0:0:0:0:
167,288,68840,1,0,0:0:0:0:
36,339,68970,2,0,P|34:298|34:257,1,81.449997782564,2|0,0:3|0:0,0:0:0:0:
35,246,69361,2,0,P|73:246|81:246,1,40.724998891282,2|0,0:3|0:0,0:0:0:0:
167,288,69622,1,2,0:0:0:0:
167,288,69753,1,0,0:0:0:0:
167,288,69883,2,0,P|168:314|168:333,1,40.724998891282,2|0,0:1|0:0,0:0:0:0:
285,362,70144,6,0,P|284:307|285:234,1,122.174996673846,2|0,0:0|0:0,0:0:0:0:
289,227,70666,2,0,P|309:227|335:227,1,40.724998891282,2|0,0:1|0:0,0:0:0:0:
404,207,70927,1,0,0:0:0:0:
455,339,71057,2,0,P|414:340|373:340,1,81.449997782564,2|0,0:3|0:0,0:0:0:0:
362,340,71448,2,0,P|362:302|361:294,1,40.724998891282,2|0,0:3|0:0,0:0:0:0:
404,207,71709,1,2,0:0:0:0:
404,207,71840,1,0,0:0:0:0:
456,140,71970,1,2,0:1:0:0:
497,218,72101,1,2,0:1:0:0:
467,61,72231,6,0,P|413:60|339:61,1,122.174996673846,2|0,0:0|0:0,0:0:0:0:
333,65,72753,2,0,P|333:85|333:111,1,40.724998891282,2|0,0:1|0:0,0:0:0:0:
313,180,73014,1,0,0:0:0:0:
444,231,73144,2,0,P|445:190|445:149,1,81.449997782564,2|0,0:3|0:0,0:0:0:0:
445,138,73535,2,0,P|407:138|399:138,1,40.724998891282,2|0,0:3|0:0,0:0:0:0:
313,180,73796,1,2,0:0:0:0:
313,180,73927,1,0,0:0:0:0:
313,180,74057,2,0,P|312:206|312:225,1,40.724998891282,2|0,0:1|0:0,0:0:0:0:
54,314,74318,5,2,0:0:0:0:
54,314,74405,2,0,L|24:316,2,18.0999995072365,0|0|0,0:0|0:0|0:0,0:0:0:0:
92,333,74579,2,0,L|134:331,2,27.1499992608547,2|0|0,0:0|0:0|0:0,0:0:0:0:
28,238,74840,6,0,P|23:184|25:127,1,108.599997043419,2|0,0:1|0:0,0:0:0:0:
31,52,75231,1,2,0:3:0:0:
187,84,75361,2,0,P|190:128|189:147,1,54.2999985217093,0|0,0:0|0:0,0:0:0:0:
148,215,75622,1,2,0:3:0:0:
115,135,75753,1,0,0:0:0:0:
115,135,75818,1,0,0:0:0:0:
115,135,75883,1,8,0:3:0:0:
264,119,76014,1,0,0:0:0:0:
298,199,76144,2,0,P|254:202|235:202,1,54.2999985217093,8|2,0:3|0:1,0:0:0:0:
148,215,76405,6,0,P|146:280|148:331,1,101.812504219115,4|0,0:0|0:0,0:0:0:0:
191,375,76927,1,8,0:0:0:0:
191,375,77318,2,0,L|234:371,1,33.9375014063716,2|0,0:3|0:0,0:0:0:0:
314,311,77709,2,0,L|280:314,1,33.9375014063716,2|0,0:3|0:0,0:0:0:0:
130,301,77970,2,0,P|125:267|130:234,1,67.8750028127431,8|0,0:0|0:0,0:0:0:0:
204,203,78492,6,0,L|251:203,1,33.9375014063716,2|0,0:3|0:0,0:0:0:0:
141,153,78753,2,0,L|107:153,1,33.9375014063716,2|0,0:3|0:0,0:0:0:0:
213,122,79014,1,8,0:0:0:0:
213,122,79405,2,0,L|213:165,1,33.9375014063716,2|0,0:3|0:0,0:0:0:0:
266,250,79796,2,0,L|265:216,1,33.9375014063716,2|0,0:3|0:0,0:0:0:0:
325,167,80057,1,8,0:0:0:0:
391,320,80318,1,8,0:3:0:0:
391,320,80579,6,0,P|326:322|275:320,1,101.812504219115,2|0,0:0|0:0,0:0:0:0:
232,277,81101,1,8,0:0:0:0:
232,277,81492,2,0,L|236:233,1,33.9375014063716,2|0,0:3|0:0,0:0:0:0:
296,154,81883,2,0,L|292:187,1,33.9375014063716,2|0,0:3|0:0,0:0:0:0:
292,326,82144,2,0,P|326:331|358:326,1,67.8750028127431,8|0,0:0|0:0,0:0:0:0:
404,264,82666,6,0,L|404:216,1,33.9375014063716,2|0,0:3|0:0,0:0:0:0:
454,327,82927,2,0,L|454:360,1,33.9375014063716,2|0,0:3|0:0,0:0:0:0:
484,255,83188,1,8,0:0:0:0:
485,255,83579,2,0,L|441:254,1,33.9375014063716,2|0,0:3|0:0,0:0:0:0:
357,202,83970,2,0,L|390:202,1,33.9375014063716,2|0,0:3|0:0,0:0:0:0:
469,167,84231,1,8,0:0:0:0:
266,220,84492,1,8,0:3:0:0:
266,220,84753,6,0,P|264:155|265:104,1,101.812504219115,2|0,0:0|0:0,0:0:0:0:
309,61,85275,1,8,0:0:0:0:
309,61,85666,2,0,L|352:65,1,33.9375014063716,2|0,0:3|0:0,0:0:0:0:
447,103,86057,2,0,L|413:99,1,33.9375014063716,2|0,0:3|0:0,0:0:0:0:
264,118,86318,2,0,P|258:152|263:184,1,67.8750028127431,8|0,0:0|0:0,0:0:0:0:
322,233,86840,6,0,L|369:233,1,33.9375014063716,2|0,0:3|0:0,0:0:0:0:
259,283,87101,2,0,L|225:283,1,33.9375014063716,2|0,0:3|0:0,0:0:0:0:
331,313,87362,1,8,0:0:0:0:
331,313,87753,2,0,L|331:269,1,33.9375014063716,2|0,0:3|0:0,0:0:0:0:
384,186,88144,2,0,L|383:219,1,33.9375014063716,2|0,0:3|0:0,0:0:0:0:
410,297,88405,1,8,0:0:0:0:
457,102,88666,1,8,0:3:0:0:
457,102,88927,6,0,P|392:100|341:102,1,101.812504219115,2|0,0:0|0:0,0:0:0:0:
272,106,89449,1,8,0:0:0:0:
272,106,89840,2,0,L|276:149,1,33.9375014063716,2|0,0:3|0:0,0:0:0:0:
336,229,90231,2,0,L|333:195,1,33.9375014063716,2|0,0:3|0:0,0:0:0:0:
240,214,90492,2,0,P|205:215|172:217,1,67.8750028127431,8|0,0:0|0:0,0:0:0:0:
81,211,91014,6,0,L|83:257,1,33.9375014063716,2|0,0:3|0:0,0:0:0:0:
127,145,91275,2,0,L|125:111,1,33.9375014063716,2|0,0:3|0:0,0:0:0:0:
72,37,91536,1,8,0:0:0:0:
72,37,91927,2,0,L|114:35,1,33.9375014063716,2|0,0:3|0:0,0:0:0:0:
226,58,92318,2,0,L|192:60,1,33.9375014063716,2|0,0:3|0:0,0:0:0:0:
68,116,92579,1,8,0:0:0:0:
324,25,92840,1,10,0:3:0:0:
324,25,93101,5,6,0:0:0:0:
382,176,93361,2,0,P|341:177|300:180,1,81.449997782564,2|8,0:3|0:0,0:0:0:0:
216,217,93753,1,0,0:0:0:0:
216,217,93883,1,2,0:3:0:0:
184,145,94014,2,0,P|180:109|176:58,1,81.449997782564,2|0,0:0|0:0,0:0:0:0:
87,115,94405,1,2,0:0:0:0:
87,115,94535,1,0,0:0:0:0:
60,38,94666,2,0,L|100:33,1,40.724998891282,8|0,0:0|0:0,0:0:0:0:
121,192,94927,2,0,L|80:196,1,40.724998891282,8|0,0:3|0:0,0:0:0:0:
14,150,95188,5,2,0:0:0:0:
261,205,95448,2,0,P|256:247|253:293,1,81.449997782564,2|8,0:3|0:0,0:0:0:0:
306,364,95840,1,0,0:0:0:0:
306,364,95970,1,2,0:3:0:0:
412,257,96101,2,0,P|371:255|330:254,1,81.449997782564,2|0,0:0|0:0,0:0:0:0:
180,243,96492,1,2,0:0:0:0:
180,243,96622,1,0,0:0:0:0:
180,364,96753,2,0,L|181:324,1,40.724998891282,8|0,0:0|0:0,0:0:0:0:
201,164,97014,2,0,L|155:166,1,40.724998891282,8|0,0:3|0:0,0:0:0:0:
88,109,97275,5,2,0:0:0:0:
20,253,97535,2,0,P|60:251|103:251,1,81.449997782564,2|8,0:3|0:0,0:0:0:0:
201,164,97927,1,0,0:0:0:0:
201,164,98057,1,2,0:3:0:0:
225,250,98188,2,0,P|226:286|226:337,1,81.449997782564,2|0,0:0|0:0,0:0:0:0:
325,294,98579,1,2,0:0:0:0:
325,294,98709,1,0,0:0:0:0:
352,371,98840,2,0,L|311:375,1,40.724998891282,8|0,0:0|0:0,0:0:0:0:
291,217,99101,2,0,L|331:212,1,40.724998891282,8|0,0:3|0:0,0:0:0:0:
398,259,99362,5,2,0:0:0:0:
151,204,99622,2,0,P|156:162|159:116,1,81.449997782564,2|8,0:3|0:0,0:0:0:0:
106,45,100014,1,0,0:0:0:0:
106,45,100144,1,2,0:3:0:0:
0,152,100275,2,0,P|40:153|81:154,1,81.449997782564,2|0,0:0|0:0,0:0:0:0:
232,166,100666,1,2,0:0:0:0:
158,122,100796,1,0,0:0:0:0:
231,44,100927,2,0,L|230:84,1,40.724998891282,8|0,0:0|0:0,0:0:0:0:
211,245,101188,2,0,L|257:243,1,40.724998891282,8|0,0:3|0:0,0:0:0:0:
316,171,101448,5,4,0:0:0:0:
329,371,101709,2,0,P|329:330|328:275,1,90.500000298023,2|8,0:3|0:0,0:0:0:0:
447,230,102100,1,0,0:0:0:0:
405,293,102230,1,2,0:3:0:0:
406,164,102361,2,0,P|370:168|313:171,1,90.500000298023,2|0,0:0|0:0,0:0:0:0:
203,98,102752,1,2,0:0:0:0:
227,175,102882,1,0,0:0:0:0:
274,57,103013,2,0,L|278:103,1,45.2500001490115,8|0,0:0|0:0,0:0:0:0:
262,265,103275,2,0,L|256:214,1,45.2500001490115,8|0,0:3|0:0,0:0:0:0:
315,170,103535,5,2,0:0:0:0:
133,106,103796,2,0,P|133:148|136:205,1,90.500000298023,2|8,0:3|0:0,0:0:0:0:
162,316,104188,1,0,0:0:0:0:
206,247,104318,1,2,0:3:0:0:
254,349,104448,2,0,P|209:349|164:351,1,90.500000298023,2|0,0:0|0:0,0:0:0:0:
49,287,104839,1,2,0:0:0:0:
77,365,104969,1,0,0:0:0:0:
57,270,105100,2,0,L|55:225,1,45.2500001490115,8|0,0:0|0:0,0:0:0:0:
154,156,105361,2,0,L|102:158,1,45.2500001490115,8|0,0:3|0:0,0:0:0:0:
29,148,105622,5,2,0:0:0:0:
203,263,105883,2,0,P|243:261|296:261,1,90.500000298023,2|8,0:3|0:0,0:0:0:0:
392,207,106274,1,0,0:0:0:0:
319,175,106405,1,2,0:3:0:0:
371,290,106535,2,0,P|372:326|374:388,1,90.500000298023,2|0,0:0|0:0,0:0:0:0:
286,335,106926,1,2,0:0:0:0:
265,262,107057,1,0,0:0:0:0:
371,290,107187,2,0,L|419:287,1,45.2500001490115,8|0,0:0|0:0,0:0:0:0:
479,197,107448,2,0,L|432:201,1,45.2500001490115,8|0,0:3|0:0,0:0:0:0:
357,209,107709,5,6,0:0:0:0:
263,59,107970,2,0,P|265:90|264:130,1,49.7750016829252,2|0,0:3|0:0,0:0:0:0:
215,201,108231,2,0,P|215:221|218:262,2,49.7750016829252,8|0|2,0:0|0:0|0:3,0:0:0:0:
145,101,108622,2,0,P|124:102|88:104,1,49.7750016829252,2|2,0:0|0:1,0:0:0:0:
13,115,108883,1,0,0:0:0:0:
88,236,109014,6,0,P|112:234|137:233,1,49.7750016829252,2|0,0:3|0:0,0:0:0:0:
137,232,109209,1,0,0:0:0:0:
137,232,109275,1,10,0:3:0:0:
197,296,109405,1,0,0:0:0:0:
236,232,109535,5,2,0:3:0:0:
276,350,109666,1,0,0:0:0:0:
333,204,109796,5,12,0:0:0:0:
