osu file format v14

[General]
AudioFilename: audio.mp3
AudioLeadIn: 0
PreviewTime: 1275
Countdown: 0
SampleSet: Soft
StackLeniency: 0.3
Mode: 0
LetterboxInBreaks: 0
WidescreenStoryboard: 1

[Editor]
Bookmarks: 17990,34686,51381,68077,76425,93121
DistanceSpacing: 1
BeatDivisor: 8
GridSize: 8
TimelineZoom: 3.599999

[Metadata]
Title:Ama no Hane wa Kami no Gotoshi
TitleUnicode:天之羽如神
Artist:Spide
ArtistUnicode:Spide
Creator:tatemae
Version:619's Hard
Source:
Tags:black man fixxis Riparia Record Lorenotices anishina kodoku loreley EijiKuinbii kjlfaklf 619 short cut ver version
BeatmapID:1947797
BeatmapSetID:926835

[Difficulty]
HPDrainRate:5
CircleSize:3.7
OverallDifficulty:6
ApproachRate:8.2
SliderMultiplier:2.60000000596046
SliderTickRate:1

[Events]
//Background and Video events
0,0,"65165749_p0.jpg",0,0
//Break Periods
2,68257,73598
//Storyboard Layer 0 (Background)
//Storyboard Layer 1 (Fail)
//Storyboard Layer 2 (Pass)
//Storyboard Layer 3 (Foreground)
//Storyboard Layer 4 (Overlay)
//Storyboard Sound Samples

[TimingPoints]
1275,521.739130434783,4,2,1,60,1,0
1275,-100,4,2,1,60,0,0
15883,-76.9230769230769,4,2,1,65,0,0
17970,-111.111111111111,4,2,1,60,0,0
32579,-76.9230769230769,4,2,1,65,0,0
34666,-90.9090909090909,4,2,1,65,0,0
49275,-76.9230769230769,4,2,1,65,0,0
51361,-83.3333333333333,4,2,1,70,0,1
65970,-76.9230769230769,4,2,1,70,0,0
68057,-76.9230769230769,4,2,1,50,0,0
74318,-76.9230769230769,4,2,1,65,0,0
74579,-76.9230769230769,4,2,1,70,0,0
76405,-76.9230769230769,4,2,1,60,0,0
93101,-71.4285714285714,4,2,1,70,0,1
105622,-71.4285714285714,4,2,1,70,0,0

[Colours]
Combo1 : 164,179,223
Combo2 : 249,155,239
Combo3 : 166,222,236

[HitObjects]
47,259,1275,6,0,L|47:184,1,65.0000001490115,4|0,0:0|0:0,0:0:0:0:
47,194,1796,2,0,L|181:194,1,130.000000298023,8|0,0:0|0:0,0:0:0:0:
255,195,2188,1,2,0:1:0:0:
255,195,2318,2,0,L|260:122,1,65.0000001490115,2|0,0:0|0:0,0:0:0:0:
323,84,2579,2,0,L|383:124,1,65.0000001490115,2|0,0:1|0:0,0:0:0:0:
385,198,2840,2,0,L|319:230,1,65.0000001490115,8|0,0:0|0:0,0:0:0:0:
255,195,3101,1,0,0:0:0:0:
314,338,3361,6,0,B|388:329|366:355|464:335,2,130.000000298023,2|0|8,0:0|0:0|0:0,0:0:0:0:
159,314,4144,1,0,0:0:0:0:
148,305,4275,1,2,0:1:0:0:
138,296,4405,2,0,L|131:225,1,65.0000001490115,2|0,0:0|0:0,0:0:0:0:
61,197,4666,2,0,L|106:141,1,65.0000001490115,2|0,0:1|0:0,0:0:0:0:
69,75,4927,2,0,L|139:67,1,65.0000001490115,8|0,0:0|0:0,0:0:0:0:
208,44,5188,1,8,0:3:0:0:
219,50,5318,1,2,0:1:0:0:
229,56,5448,6,0,L|229:132,1,65.0000001490115,4|0,0:0|0:0,0:0:0:0:
227,277,5840,1,0,0:0:0:0:
227,277,5970,2,0,B|286:283|286:283|298:276|298:276|374:282,1,130.000000298023,8|0,0:0|0:0,0:0:0:0:
430,299,6361,1,2,0:1:0:0:
430,299,6492,2,0,L|437:228,1,65.0000001490115,2|0,0:0|0:0,0:0:0:0:
490,177,6753,2,0,L|432:135,1,65.0000001490115,2|0,0:1|0:0,0:0:0:0:
412,64,7014,2,0,L|347:93,1,65.0000001490115,8|0,0:0|0:0,0:0:0:0:
282,125,7275,1,0,0:0:0:0:
129,153,7535,6,0,P|113:89|139:11,2,130.000000298023,2|0|8,0:0|0:0|0:0,0:0:0:0:
189,297,8318,1,0,0:0:0:0:
178,304,8448,1,2,0:1:0:0:
166,310,8579,2,0,L|80:315,2,65.0000001490115,2|0|2,0:0|0:0|0:1,0:0:0:0:
312,256,9101,1,8,0:0:0:0:
307,243,9231,1,0,0:0:0:0:
302,230,9361,1,2,0:3:0:0:
409,116,9622,6,0,L|497:116,1,65.0000001490115,2|0,0:0|0:0,0:0:0:0:
474,116,10144,2,0,L|474:257,1,130.000000298023,8|0,0:0|0:0,0:0:0:0:
433,313,10535,1,2,0:1:0:0:
433,313,10666,2,0,P|403:315|357:306,1,65.0000001490115,2|0,0:0|0:0,0:0:0:0:
312,256,10927,2,0,P|282:254|236:263,1,65.0000001490115,2|0,0:1|0:0,0:0:0:0:
174,287,11188,2,0,L|173:362,2,65.0000001490115,8|0|0,0:0|0:0|0:0,0:0:0:0:
156,131,11709,6,0,B|97:134|97:134|86:129|86:129|11:132,2,130.000000298023,2|0|8,0:0|0:0|0:0,0:0:0:0:
309,160,12492,1,0,0:0:0:0:
317,149,12622,1,2,0:1:0:0:
324,138,12753,2,0,P|329:109|323:68,1,65.0000001490115,2|0,0:0|0:0,0:0:0:0:
388,28,13014,2,0,P|410:46|449:62,1,65.0000001490115,2|0,0:1|0:0,0:0:0:0:
451,138,13275,2,0,P|423:148|390:173,1,65.0000001490115,8|0,0:0|0:0,0:0:0:0:
356,236,13535,1,8,0:3:0:0:
363,246,13666,1,2,0:1:0:0:
370,256,13796,6,0,L|458:260,1,65.0000001490115,2|0,0:0|0:0,0:0:0:0:
308,350,14188,1,0,0:0:0:0:
308,350,14318,6,0,B|230:366|252:340|178:349,1,130.000000298023,8|0,0:0|0:0,0:0:0:0:
101,357,14709,1,2,0:1:0:0:
101,357,14840,2,0,P|107:326|99:282,1,65.0000001490115,2|0,0:0|0:0,0:0:0:0:
170,253,15101,2,0,P|152:226|115:201,1,65.0000001490115,2|0,0:1|0:0,0:0:0:0:
146,131,15361,2,0,P|115:125|71:132,2,65.0000001490115,8|0|0,0:0|0:0|0:0,0:0:0:0:
325,227,15883,6,0,P|397:270|463:218,2,168.999992651224,2|2|8,0:0|0:0|0:0,0:0:0:0:
208,59,16666,1,0,0:0:0:0:
221,48,16796,1,2,0:1:0:0:
236,40,16927,2,0,L|329:46,1,84.4999963256121,2|0,0:0|0:0,0:0:0:0:
328,146,17188,2,0,L|235:152,1,84.4999963256121,2|0,0:1|0:0,0:0:0:0:
224,160,17383,1,0,0:0:0:0:
224,160,17448,2,0,P|186:166|133:158,1,84.4999963256121,8|8,0:3|0:0,0:0:0:0:
38,160,17709,1,2,0:1:0:0:
27,173,17840,1,0,0:0:0:0:
16,189,17970,6,0,L|16:261,1,58.4999983488321,4|0,0:0|0:0,0:0:0:0:
16,247,18492,2,0,L|158:247,1,116.999996697664,8|0,0:0|0:0,0:0:0:0:
209,251,18883,2,0,P|267:265|337:245,1,116.999996697664,2|0,0:3|0:0,0:0:0:0:
392,223,19275,1,2,0:3:0:0:
267,138,19535,2,0,L|192:134,2,58.4999983488321,8|0|0,0:0|0:0|0:0,0:0:0:0:
392,223,20057,6,0,P|410:284|381:349,2,116.999996697664,2|0|8,0:0|0:0|0:0,0:0:0:0:
267,138,20840,1,0,0:0:0:0:
267,138,20970,2,0,B|123:138,1,116.999996697664,2|0,0:3|0:0,0:0:0:0:
73,132,21361,1,2,0:3:0:0:
197,44,21622,2,0,L|281:44,1,58.4999983488321,8|0,0:0|0:0,0:0:0:0:
330,31,21883,1,8,0:3:0:0:
340,37,22014,1,0,0:0:0:0:
348,45,22144,6,0,P|353:73|347:113,1,58.4999983488321,2|0,0:0|0:0,0:0:0:0:
327,253,22535,1,0,0:0:0:0:
327,253,22666,2,0,L|472:248,1,116.999996697664,8|0,0:0|0:0,0:0:0:0:
446,325,23057,2,0,L|301:330,1,116.999996697664,2|0,0:3|0:0,0:0:0:0:
252,335,23448,1,2,0:3:0:0:
101,311,23709,2,0,P|96:282|101:244,2,58.4999983488321,8|0|0,0:0|0:0|0:0,0:0:0:0:
163,171,24231,6,0,L|16:166,2,116.999996697664,2|0|8,0:0|0:0|0:0,0:0:0:0:
315,185,25014,1,0,0:0:0:0:
322,175,25144,1,0,0:0:0:0:
328,164,25275,2,0,P|333:138|325:97,2,58.4999983488321,2|0|0,0:0|0:0|0:0,0:0:0:0:
217,268,25796,2,0,P|212:296|217:325,2,58.4999983488321,8|0|0,0:0|0:0|0:0,0:0:0:0:
328,164,26318,6,0,L|406:164,1,58.4999983488321,2|0,0:0|0:0,0:0:0:0:
386,164,26840,2,0,P|403:109|382:50,1,116.999996697664,8|0,0:0|0:0,0:0:0:0:
313,28,27231,2,0,L|167:28,1,116.999996697664,2|0,0:3|0:0,0:0:0:0:
122,49,27622,1,2,0:3:0:0:
34,173,27883,2,0,P|31:206|39:252,1,58.4999983488321,8|0,0:0|0:0,0:0:0:0:
60,302,28144,1,0,0:0:0:0:
205,345,28405,6,0,B|274:337|253:357|339:342,2,116.999996697664,2|0|8,0:0|0:0|0:0,0:0:0:0:
60,302,29188,1,0,0:0:0:0:
60,302,29318,2,0,B|46:226|46:226|64:165,1,116.999996697664,2|0,0:3|0:0,0:0:0:0:
101,125,29709,1,2,0:3:0:0:
223,214,29970,2,0,P|228:249|221:282,1,58.4999983488321,8|0,0:0|0:0,0:0:0:0:
205,345,30231,1,8,0:3:0:0:
214,351,30361,1,0,0:0:0:0:
224,355,30492,6,0,L|301:355,1,58.4999983488321,2|0,0:0|0:0,0:0:0:0:
432,329,30883,1,0,0:0:0:0:
432,329,31014,2,0,P|445:275|429:210,1,116.999996697664,8|0,0:0|0:0,0:0:0:0:
389,152,31405,2,0,L|261:152,1,116.999996697664,2|0,0:3|0:0,0:0:0:0:
196,142,31796,1,2,0:3:0:0:
53,88,32057,2,0,P|49:60|56:19,2,58.4999983488321,8|0|0,0:0|0:0|0:0,0:0:0:0:
176,271,32579,6,0,B|101:268|101:268|85:276|85:276|-4:271,2,168.999992651224,2|2|8,0:0|0:0|0:0,0:0:0:0:
364,197,33361,1,0,0:0:0:0:
376,208,33492,1,0,0:0:0:0:
386,221,33622,2,0,P|393:265|385:309,1,84.4999963256121,2|0,0:0|0:0,0:0:0:0:
284,306,33883,2,0,P|277:264|284:222,1,84.4999963256121,2|0,0:0|0:0,0:0:0:0:
290,202,34079,1,0,0:0:0:0:
290,202,34144,2,0,L|191:197,1,84.4999963256121,8|0,0:3|0:0,0:0:0:0:
112,156,34405,1,8,0:0:0:0:
95,151,34535,1,0,0:0:0:0:
82,144,34666,6,0,P|99:66|192:117,1,214.500007037759,4|0,0:0|0:0,0:0:0:0:
205,197,35188,2,0,L|211:352,1,143.000004691839,8|0,0:0|0:0,0:0:0:0:
296,340,35579,2,0,L|301:197,1,143.000004691839,8|0,0:0|0:0,0:0:0:0:
298,110,35970,1,8,0:0:0:0:
298,110,36231,2,0,L|398:115,2,71.5000023459196,2|0|8,0:3|0:0|0:0,0:0:0:0:
454,182,36753,6,0,P|477:117|450:40,2,143.000004691839,2|2|8,0:0|0:0|0:0,0:0:0:0:
381,337,37535,1,0,0:0:0:0:
381,337,37666,2,0,B|298:354|323:328|223:341,1,143.000004691839,8|0,0:0|0:0,0:0:0:0:
155,360,38057,1,8,0:0:0:0:
155,360,38318,2,0,L|146:280,1,71.5000023459196,2|0,0:3|0:0,0:0:0:0:
193,216,38579,2,0,L|119:183,1,71.5000023459196,8|0,0:0|0:0,0:0:0:0:
41,179,38840,6,0,B|134:188|134:188|149:177|149:177|265:187,1,214.500007037759,2|0,0:0|0:0,0:0:0:0:
299,256,39361,2,0,P|334:193|311:127,1,143.000004691839,8|0,0:0|0:0,0:0:0:0:
262,59,39753,2,0,B|95:63|95:63,1,143.000004691839,8|0,0:0|0:0,0:0:0:0:
38,93,40144,1,8,0:0:0:0:
38,93,40405,2,0,L|32:17,2,71.5000023459196,2|0|8,0:3|0:0|0:0,0:0:0:0:
49,264,40927,6,0,P|113:289|183:262,2,143.000004691839,2|2|8,0:0|0:0|0:0,0:0:0:0:
166,138,41709,1,0,0:0:0:0:
166,138,41840,2,0,L|332:136,1,143.000004691839,8|0,0:0|0:0,0:0:0:0:
395,137,42231,1,8,0:0:0:0:
395,137,42492,2,0,P|401:104|392:51,1,71.5000023459196,2|0,0:3|0:0,0:0:0:0:
483,68,42753,2,0,P|479:103|485:138,1,71.5000023459196,8|0,0:0|0:0,0:0:0:0:
493,224,43014,6,0,B|443:247|377:233|399:223|329:208|255:233,1,214.500007037759,2|0,0:0|0:0,0:0:0:0:
212,276,43535,2,0,P|148:306|85:272,1,143.000004691839,8|0,0:0|0:0,0:0:0:0:
8,239,43927,2,0,L|13:86,1,143.000004691839,8|0,0:0|0:0,0:0:0:0:
67,29,44318,1,8,0:0:0:0:
67,29,44579,2,0,B|112:33|163:18|163:18|177:31|216:37,1,143.000004691839,2|8,0:3|0:0,0:0:0:0:
284,69,44970,1,0,0:0:0:0:
284,69,45101,6,0,L|438:63,2,143.000004691839,2|2|8,0:0|0:0|0:0,0:0:0:0:
152,179,45883,1,0,0:0:0:0:
152,179,46014,2,0,P|151:251|214:308,1,143.000004691839,8|0,0:0|0:0,0:0:0:0:
278,326,46405,1,8,0:0:0:0:
278,326,46666,2,0,P|314:332|359:324,1,71.5000023459196,2|0,0:3|0:0,0:0:0:0:
424,368,46927,2,0,P|447:339|462:296,1,71.5000023459196,8|0,0:0|0:0,0:0:0:0:
504,233,47188,6,0,P|424:266|429:160,1,214.500007037759,2|0,0:0|0:0,0:0:0:0:
490,131,47709,2,0,L|328:126,1,143.000004691839,8|0,0:0|0:0,0:0:0:0:
263,103,48101,2,0,B|216:109|157:95|157:95|141:113|112:124,1,143.000004691839,8|0,0:0|0:0,0:0:0:0:
50,153,48492,1,8,0:0:0:0:
50,153,48753,2,0,L|45:63,2,71.5000023459196,2|0|8,0:3|0:0|0:0,0:0:0:0:
133,338,49275,6,0,B|93:364|43:354|10:317|10:317|46:295,2,168.999992651224,2|2|8,0:0|0:0|0:0,0:0:0:0:
260,179,50057,1,8,0:0:0:0:
265,162,50188,1,0,0:0:0:0:
270,146,50318,2,0,L|160:140,1,84.4999963256121,2|0,0:0|0:0,0:0:0:0:
184,39,50579,2,0,L|294:33,1,84.4999963256121,8|0,0:3|0:0,0:0:0:0:
289,32,50775,1,0,0:0:0:0:
289,32,50840,2,0,P|331:26|383:35,1,84.4999963256121,10|0,0:3|0:0,0:0:0:0:
470,59,51101,1,8,0:0:0:0:
480,72,51231,1,0,0:0:0:0:
488,85,51361,6,0,B|477:245|477:245|461:204|425:181,1,233.999993395328,12|0,0:3|0:0,0:0:0:0:
389,103,51883,2,0,P|359:128|339:175,1,77.9999977984428,8|0,0:0|0:0,0:0:0:0:
371,251,52144,1,0,0:0:0:0:
371,251,52275,2,0,B|340:280|262:264|262:264|252:249|252:249|190:232|127:262,1,233.999993395328,8|8,0:0|0:0,0:0:0:0:
67,292,52796,1,0,0:0:0:0:
67,292,52927,2,0,L|61:182,1,77.9999977984428,10|0,0:3|0:0,0:0:0:0:
13,133,53188,2,0,L|105:72,1,77.9999977984428,8|0,0:0|0:0,0:0:0:0:
167,62,53448,6,0,B|254:46|231:76|321:59,2,155.999995596886,2|2|8,0:0|0:0|0:0,0:0:0:0:
62,214,54231,1,0,0:0:0:0:
62,214,54361,2,0,B|45:266|71:330|71:330|103:280,1,155.999995596886,8|0,0:0|0:0,0:0:0:0:
161,232,54753,1,8,0:0:0:0:
161,232,55014,2,0,L|253:236,1,77.9999977984428,10|0,0:3|0:0,0:0:0:0:
307,171,55275,2,0,L|349:252,1,77.9999977984428,8|0,0:0|0:0,0:0:0:0:
429,210,55535,6,0,P|396:314|287:314,1,233.999993395328,2|0,0:3|0:0,0:0:0:0:
238,235,56057,2,0,L|161:232,1,77.9999977984428,8|0,0:0|0:0,0:0:0:0:
68,215,56318,1,0,0:0:0:0:
68,215,56448,2,0,B|32:167|25:96|76:51|76:51|121:94,1,233.999993395328,8|8,0:0|0:0,0:0:0:0:
193,134,56970,1,0,0:0:0:0:
193,134,57101,2,0,P|228:142|281:127,1,77.9999977984428,10|0,0:3|0:0,0:0:0:0:
323,209,57361,2,0,P|347:182|360:129,1,77.9999977984428,8|0,0:0|0:0,0:0:0:0:
319,58,57622,6,0,B|392:60|392:60|402:67|402:67|488:69,2,155.999995596886,2|2|8,0:0|0:0|0:0,0:0:0:0:
131,47,58405,1,0,0:0:0:0:
131,47,58535,2,0,B|143:137|114:109|134:212,1,155.999995596886,8|0,0:0|0:0,0:0:0:0:
127,296,58927,2,0,L|40:290,1,77.9999977984428,8|0,0:0|0:0,0:0:0:0:
54,196,59188,2,0,L|141:202,1,77.9999977984428,10|0,0:3|0:0,0:0:0:0:
220,228,59448,1,8,0:0:0:0:
232,218,59579,1,0,0:0:0:0:
246,208,59709,6,0,P|296:108|217:30,1,233.999993395328,2|0,0:3|0:0,0:0:0:0:
205,123,60231,2,0,L|376:110,1,155.999995596886,8|0,0:0|0:0,0:0:0:0:
435,55,60622,2,0,B|471:111|436:165|436:165|450:179|450:179|421:224|446:293,1,233.999993395328,8|8,0:0|0:0,0:0:0:0:
408,361,61144,1,0,0:0:0:0:
408,361,61275,2,0,P|444:367|495:352,2,77.9999977984428,8|0|8,0:3|0:0|0:0,0:0:0:0:
229,303,61796,6,0,L|52:308,2,155.999995596886,2|2|8,0:0|0:0|0:0,0:0:0:0:
408,361,62579,1,0,0:0:0:0:
408,361,62709,2,0,P|469:302|381:192,1,233.999993395328,8|8,0:0|0:0,0:0:0:0:
321,142,63231,1,0,0:0:0:0:
321,142,63361,2,0,L|234:163,1,77.9999977984428,10|0,0:3|0:0,0:0:0:0:
184,88,63622,2,0,L|137:164,1,77.9999977984428,8|0,0:0|0:0,0:0:0:0:
103,239,63883,6,0,P|139:155|24:148,1,233.999993395328,2|0,0:3|0:0,0:0:0:0:
20,232,64405,2,0,P|50:305|129:320,1,155.999995596886,8|0,0:0|0:0,0:0:0:0:
210,344,64796,2,0,B|374:335|374:335|307:304,1,233.999993395328,8|8,0:0|0:0,0:0:0:0:
237,246,65318,1,0,0:0:0:0:
237,246,65448,2,0,P|230:210|239:146,1,77.9999977984428,8|0,0:3|0:0,0:0:0:0:
250,76,65709,1,8,0:0:0:0:
237,66,65840,1,0,0:0:0:0:
225,55,65970,6,0,B|187:69|136:59|146:53|92:46|41:62,2,168.999992651224,2|2|8,0:0|0:0|0:0,0:0:0:0:
428,38,66753,1,2,0:3:0:0:
428,38,66883,2,0,B|432:118|432:118|425:128|425:128|428:213,1,168.999992651224,0|0,0:0|0:0,0:0:0:0:
419,306,67275,2,0,P|379:314|327:299,1,84.4999963256121,10|0,0:3|0:0,0:0:0:0:
320,291,67470,1,0,0:0:0:0:
320,291,67535,2,0,L|235:291,1,84.4999963256121,10|0,0:0|0:0,0:0:0:0:
133,287,67796,1,8,0:3:0:0:
120,275,67927,1,0,0:0:0:0:
107,263,68057,5,6,0:3:0:0:
256,192,74318,12,8,76144,0:3:0:0:
351,277,76405,6,0,B|436:303|436:303|436:146|436:146|335:187,1,337.999985302448,4|8,0:0|0:0,0:0:0:0:
350,180,77318,2,0,B|274:210|274:210|246:177|194:174|194:174|240:205|243:254,1,253.499988976836,2|2,0:3|0:3,0:0:0:0:
113,284,77970,1,8,0:0:0:0:
113,284,78492,2,0,P|26:282|59:209,2,168.999992651224,2|2|8,0:3|0:3|0:0,0:0:0:0:
113,284,79405,2,0,B|169:263|250:277|224:303|306:312|376:273,1,253.499988976836,2|2,0:3|0:3,0:0:0:0:
447,176,80057,1,8,0:0:0:0:
447,176,80318,1,8,0:3:0:0:
447,176,80579,6,0,B|403:102|403:102|325:74|325:74|259:127|259:127|246:241,1,337.999985302448,2|8,0:0|0:0,0:0:0:0:
248,211,81492,2,0,B|231:356|231:356|287:323|287:323|259:278,1,253.499988976836,2|2,0:3|0:3,0:0:0:0:
344,178,82144,1,8,0:0:0:0:
344,178,82666,2,0,B|418:188|418:188|433:179|433:179|515:188,2,168.999992651224,2|2|8,0:3|0:3|0:0,0:0:0:0:
344,178,83579,2,0,B|285:187|285:187|236:238|236:238|200:187|200:187|123:174,1,253.499988976836,2|2,0:3|0:3,0:0:0:0:
23,108,84231,1,8,0:0:0:0:
23,108,84492,1,8,0:3:0:0:
23,108,84753,6,0,P|126:144|30:289,1,337.999985302448,2|8,0:0|0:0,0:0:0:0:
31,289,85666,2,0,B|199:325|199:325|282:286,1,253.499988976836,2|2,0:3|0:3,0:0:0:0:
394,231,86318,1,8,0:0:0:0:
394,231,86840,2,0,P|444:295|378:353,2,168.999992651224,2|2|8,0:3|0:3|0:0,0:0:0:0:
394,231,87753,2,0,B|317:244|317:244|230:212|230:212|319:178,1,253.499988976836,2|2,0:3|0:3,0:0:0:0:
409,93,88405,1,8,0:0:0:0:
409,93,88666,1,8,0:3:0:0:
409,93,88927,6,0,B|326:94|326:94|245:121|245:121|166:92|166:92|60:92,1,337.999985302448,2|8,0:0|0:0,0:0:0:0:
80,92,89840,2,0,B|92:145|71:208|71:208|86:198|86:198|58:257|79:328,1,253.499988976836,2|2,0:3|0:3,0:0:0:0:
204,272,90492,1,8,0:0:0:0:
204,272,91014,2,0,P|303:267|353:322,2,168.999992651224,2|2|8,0:3|0:3|0:0,0:0:0:0:
204,272,91927,2,0,B|214:72|214:72|264:120,1,253.499988976836,2|2,0:3|0:3,0:0:0:0:
369,176,92579,1,8,0:0:0:0:
348,312,92840,1,10,0:3:0:0:
335,322,92970,1,0,0:0:0:0:
322,333,93101,6,0,B|278:348|228:336|237:329|190:316|128:333,1,181.999994863033,6|2,0:0|0:3,0:0:0:0:
51,339,93492,1,0,0:0:0:0:
51,339,93622,2,0,P|59:287|44:237,1,90.9999974315166,8|0,0:0|0:0,0:0:0:0:
24,162,93883,1,2,0:3:0:0:
24,162,94014,2,0,L|225:162,1,181.999994863033,2|0,0:0|0:0,0:0:0:0:
276,220,94405,1,2,0:0:0:0:
289,207,94535,1,0,0:0:0:0:
301,193,94666,2,0,L|306:98,1,90.9999974315166,8|0,0:0|0:0,0:0:0:0:
397,101,94927,2,0,L|401:191,1,90.9999974315166,8|0,0:3|0:0,0:0:0:0:
351,267,95188,6,0,P|450:270|493:195,2,181.999994863033,2|2|8,0:0|0:3|0:0,0:0:0:0:
206,162,95970,1,2,0:3:0:0:
206,162,96101,2,0,B|67:169|67:169|107:213,1,181.999994863033,2|0,0:0|0:0,0:0:0:0:
79,289,96492,2,0,P|124:284|163:261,1,90.9999974315166,2|0,0:0|0:0,0:0:0:0:
251,240,96753,2,0,P|295:244|334:268,1,90.9999974315166,8|0,0:0|0:0,0:0:0:0:
396,334,97014,1,8,0:3:0:0:
410,323,97144,1,0,0:0:0:0:
422,310,97275,6,0,B|452:196|452:196|414:121,1,181.999994863033,2|2,0:0|0:3,0:0:0:0:
399,50,97666,1,0,0:0:0:0:
399,50,97796,2,0,P|355:57|298:46,1,90.9999974315166,8|0,0:0|0:0,0:0:0:0:
219,33,98057,1,2,0:3:0:0:
219,33,98188,2,0,P|162:98|235:158,1,181.999994863033,2|0,0:0|0:0,0:0:0:0:
299,123,98579,1,2,0:0:0:0:
310,137,98709,1,0,0:0:0:0:
319,152,98840,2,0,L|299:245,1,90.9999974315166,8|0,0:0|0:0,0:0:0:0:
347,318,99101,2,0,L|256:347,1,90.9999974315166,8|0,0:3|0:0,0:0:0:0:
169,350,99361,6,0,B|124:366|70:355|86:345|35:333|-17:352,2,181.999994863033,2|2|8,0:0|0:3|0:0,0:0:0:0:
347,318,100144,1,2,0:3:0:0:
347,318,100275,2,0,B|355:237|355:237|342:216|342:216|348:125,1,181.999994863033,2|0,0:0|0:0,0:0:0:0:
310,56,100666,1,2,0:0:0:0:
324,45,100796,1,0,0:0:0:0:
340,36,100927,2,0,L|436:42,2,90.9999974315166,8|0|8,0:0|0:0|0:3,0:0:0:0:
157,34,101448,6,0,B|112:41|112:41|76:70|76:70|95:117|95:117|155:145,1,181.999994863033,4|2,0:0|0:3,0:0:0:0:
221,149,101840,1,0,0:0:0:0:
221,149,101970,2,0,P|228:197|220:246,1,90.9999974315166,8|0,0:0|0:0,0:0:0:0:
171,315,102231,1,2,0:3:0:0:
171,315,102361,2,0,L|363:311,1,181.999994863033,2|0,0:0|0:0,0:0:0:0:
436,349,102753,1,2,0:0:0:0:
449,337,102883,1,0,0:0:0:0:
460,323,103014,2,0,L|456:228,1,90.9999974315166,8|0,0:0|0:0,0:0:0:0:
507,156,103275,2,0,L|422:111,1,90.9999974315166,8|0,0:3|0:0,0:0:0:0:
346,71,103535,6,0,P|431:102|517:69,2,181.999994863033,2|2|8,0:0|0:3|0:0,0:0:0:0:
165,44,104318,1,2,0:3:0:0:
165,44,104448,2,0,L|165:229,1,181.999994863033,2|0,0:0|0:0,0:0:0:0:
130,311,104840,1,2,0:0:0:0:
115,321,104970,1,0,0:0:0:0:
98,328,105101,2,0,P|54:333|8:320,2,90.9999974315166,8|0|8,0:0|0:0|0:3,0:0:0:0:
269,266,105622,5,2,0:0:0:0:
256,192,105753,12,12,109796,0:0:0:0:
