osu file format v14

[General]
AudioFilename: audio.mp3
AudioLeadIn: 0
PreviewTime: 54840
Countdown: 0
SampleSet: Soft
StackLeniency: 0.7
Mode: 0
LetterboxInBreaks: 0
WidescreenStoryboard: 1

[Editor]
DistanceSpacing: 1.9
BeatDivisor: 4
GridSize: 4
TimelineZoom: 1.6

[Metadata]
Title:Yume o Kakeru! (TV Size)
TitleUnicode:ユメヲカケル!(TV Size)
Artist:Spica
ArtistUnicode:スピカ
Creator:Kyle73
Version:Little's Very Hard
Source:ウマ娘 プリティーダービー Season 2
Tags:Umamusume: Pretty Derby Anime Japanese スペシャルウィーク (和氣あず未) サイレンススズカ (高野麻里佳) トウカイテイオー (Machico) ウオッカ (大橋彩香) ダイワスカーレット (木村千咲) ゴールドシップ (上田 瞳) メジロマックイーン (大西沙織) Special Week (Azumi Waki) Silence Suzuka (Marika Takano) Tokai Teio Wokka (Ayaka Ohashi) Daiwa Scarlet (Chisaki Kimura) Gold Ship (Hitomi Ueda) Mejiro McQueen (Saori Onishi) uma musume pop Little Cloudsplash16 Akitoshi Corinn -Laura- Dubturt Kibbleru Gaia Meyrink
BeatmapID:2979814
BeatmapSetID:1445679

[Difficulty]
HPDrainRate:5
CircleSize:3.7
OverallDifficulty:6.5
ApproachRate:8.5
SliderMultiplier:1.49
SliderTickRate:1

[Events]
//Background and Video events
0,0,"teio.jpg",0,0
//Break Periods
//Storyboard Layer 0 (Background)
//Storyboard Layer 1 (Fail)
//Storyboard Layer 2 (Pass)
//Storyboard Layer 3 (Foreground)
//Storyboard Layer 4 (Overlay)
//Storyboard Sound Samples

[TimingPoints]
378,348.837209302326,4,2,2,60,1,0
378,-125,4,2,1,35,0,0
2994,307.692307692308,4,2,2,60,1,0
3071,-100,4,2,1,40,0,0
3302,-100,4,2,1,45,0,0
3609,-100,4,2,1,50,0,0
3917,-100,4,2,1,55,0,0
4071,-100,4,2,1,60,0,0
5455,-100,4,2,1,65,0,0
12071,-100,4,2,1,35,0,0
12225,-100,4,2,1,40,0,0
12378,-100,4,2,1,45,0,0
12532,-100,4,2,1,50,0,0
12686,-100,4,2,1,55,0,0
12840,-100,4,2,1,60,0,0
13917,-100,4,2,1,65,0,0
23148,-166.666666666667,4,2,1,65,0,0
23917,-125,4,2,1,60,0,0
32378,-100,4,2,1,60,0,0
33763,-100,4,2,1,65,0,0
42994,-111.111111111111,4,2,1,65,0,0
43609,-125,4,2,1,60,0,0
47148,-111.111111111111,4,2,1,60,0,0
48840,-100,4,2,1,60,0,0
54840,-111.111111111111,4,2,1,35,0,0
54994,-111.111111111111,4,2,1,40,0,0
55148,-111.111111111111,4,2,1,45,0,0
55302,-111.111111111111,4,2,1,50,0,0
55455,-111.111111111111,4,2,1,55,0,0
55609,-111.111111111111,4,2,1,60,0,0
55917,-100,4,2,1,75,0,1
68224,-125,4,2,1,60,0,0
70071,-111.111111111111,4,2,1,60,0,0
70686,-100,4,2,1,75,0,0
71917,-100,4,2,1,75,0,1
81609,-100,4,2,1,75,0,0
86378,-100,4,2,1,50,0,0

[Colours]
Combo1 : 240,199,142
Combo2 : 179,180,239
Combo3 : 240,185,180
Combo4 : 177,215,168

[HitObjects]
144,89,378,6,0,L|165:207,1,119.2,2|0,1:0|0:0,0:0:0:0:
268,296,866,2,0,L|263:318,3,23.84,2|2|2|2,1:0|1:0|1:0|1:0,0:0:0:0:
431,203,1564,6,0,L|427:181,3,23.84,2|2|2|2,1:0|1:0|1:0|1:0,0:0:0:0:
304,128,1982,1,2,1:0:0:0:
216,228,2191,1,2,1:0:0:0:
93,175,2401,1,2,1:0:0:0:
105,41,2610,1,2,1:0:0:0:
236,11,2819,1,2,1:0:0:0:
304,128,2994,1,2,1:0:0:0:
256,192,3071,12,2,4071,1:2:0:0:
168,68,4378,5,2,0:0:0:0:
168,68,4532,2,0,P|148:99|143:135,1,74.5,2|2,0:0|0:0,0:0:0:0:
53,141,4840,2,0,P|60:177|83:206,1,74.5,2|2,0:0|0:0,0:0:0:0:
23,273,5148,2,0,P|54:292|90:297,1,74.5,2|2,0:0|0:0,0:0:0:0:
324,257,5455,6,0,P|260:221|191:240,1,149,12|0,0:0|0:0,0:0:0:0:
83,206,5917,1,2,0:0:0:0:
83,206,6071,2,0,P|59:177|52:140,1,74.5,2|0,0:0|0:0,0:0:0:0:
168,68,6378,1,0,3:0:0:0:
168,68,6532,6,0,P|191:96|198:133,1,74.5,2|8,3:2|3:0,0:0:0:0:
176,268,6840,2,0,L|163:341,1,74.5,2|0,0:0|0:0,0:0:0:0:
294,364,7148,2,0,L|306:290,1,74.5,8|0,3:0|0:0,0:0:0:0:
228,144,7455,1,2,3:2:0:0:
374,65,7609,1,0,3:0:0:0:
374,65,7763,1,2,0:0:0:0:
453,211,7917,6,0,P|404:264|331:268,1,149,4|2,3:2|0:0,0:0:0:0:
216,252,8378,2,0,P|225:288|228:325,1,74.5,2|0,0:0|0:0,0:0:0:0:
363,176,8686,2,0,P|353:139|350:102,1,74.5,8|8,3:0|3:0,0:0:0:0:
216,116,8994,6,0,B|149:104|149:104|138:94|138:94|72:82,1,149,4|0,3:2|0:0,0:0:0:0:
20,224,9455,2,0,P|56:226|91:213,1,74.5,2|0,0:0|0:0,0:0:0:0:
128,232,9686,1,8,0:0:0:0:
128,232,9763,2,0,P|119:268|116:305,1,74.5,8|8,3:0|3:0,0:0:0:0:
252,348,10071,2,0,P|261:312|264:275,1,74.5,8|0,3:0|3:0,0:0:0:0:
208,148,10378,6,0,P|269:186|340:171,1,149,12|2,0:0|0:0,0:0:0:0:
432,80,10840,1,12,0:0:0:0:
378,307,11148,1,8,0:0:0:0:
208,148,11455,6,0,P|136:132|75:171,1,149,6|0,3:2|0:0,0:0:0:0:
28,288,11917,1,0,0:0:0:0:
28,288,12071,1,8,0:0:0:0:
153,229,12225,1,8,0:0:0:0:
153,229,12378,1,8,0:0:0:0:
266,307,12532,1,8,0:0:0:0:
266,307,12686,1,8,0:0:0:0:
390,248,12840,6,0,L|395:211,3,37.25,8|8|8|8,0:0|0:0|0:0|0:0,0:0:0:0:
308,176,13148,2,0,L|302:139,3,37.25,8|8|8|8,0:0|0:0|0:0|0:0,0:0:0:0:
390,104,13455,1,10,0:0:0:0:
208,40,13609,1,2,3:2:0:0:
208,40,13917,6,0,P|166:99|94:107,1,149,4|0,3:2|3:0,0:0:0:0:
0,60,14378,1,8,0:0:0:0:
51,199,14532,2,0,P|59:236|54:273,1,74.5,0|0,3:0|0:0,0:0:0:0:
192,304,14840,2,0,P|187:267|194:230,1,74.5,0|8,3:0|0:0,0:0:0:0:
340,212,15148,6,0,B|360:264|360:264|336:354,1,149,2|0,3:2|3:0,0:0:0:0:
192,304,15609,1,8,0:0:0:0:
269,161,15763,2,0,P|331:125|400:149,1,149,2|0,3:2|3:0,0:0:0:0:
408,292,16225,1,8,0:0:0:0:
271,270,16378,6,0,B|219:260|219:260|198:265|198:265|123:252,1,149,2|0,0:0|3:0,0:0:0:0:
44,184,16840,1,8,0:0:0:0:
180,100,16994,2,0,L|192:173,1,74.5,0|0,3:0|0:0,0:0:0:0:
304,252,17302,2,0,L|316:178,1,74.5,0|8,3:0|0:0,0:0:0:0:
276,36,17609,6,0,P|335:77|405:59,1,149,2|0,3:2|3:0,0:0:0:0:
316,178,18071,1,8,0:0:0:0:
405,297,18225,2,0,P|335:278|275:319,1,149,2|8,0:0|0:0,0:0:0:0:
275,319,18609,1,8,0:0:0:0:
275,319,18686,1,8,0:0:0:0:
186,155,18840,6,0,P|246:196|316:178,1,149,4|0,3:2|3:0,0:0:0:0:
262,110,19302,1,8,0:0:0:0:
405,58,19455,2,0,L|417:131,1,74.5,2|0,3:2|0:0,0:0:0:0:
262,110,19763,2,0,L|274:36,1,74.5,0|8,3:0|0:0,0:0:0:0:
119,58,20071,6,0,L|144:204,1,149,2|0,3:2|3:0,0:0:0:0:
168,340,20532,1,8,0:0:0:0:
4,288,20686,2,0,P|51:233|123:233,1,149,2|8,0:0|0:0,0:0:0:0:
123,233,21071,1,8,0:0:0:0:
123,233,21148,1,8,0:0:0:0:
260,296,21302,6,0,B|312:316|312:316|402:292,1,149,4|8,3:2|0:0,0:0:0:0:
500,264,21763,1,8,0:0:0:0:
336,189,21917,2,0,P|273:225|260:296,1,149,8|8,3:0|3:0,0:0:0:0:
364,384,22378,1,2,0:0:0:0:
345,277,22532,1,0,3:0:0:0:
345,277,22609,1,0,0:0:0:0:
345,277,22686,5,10,0:0:0:0:
176,316,22840,1,10,0:0:0:0:
176,316,23148,6,0,B|132:308|132:308|114:297|114:297|93:301|93:301|46:293,1,134.099995907593,10|8,3:2|3:0,0:0:0:0:
138,153,23917,5,4,3:2:0:0:
138,153,24225,1,2,3:2:0:0:
138,153,24532,2,0,P|195:162|248:135,1,119.2,2|0,3:2|3:0,0:0:0:0:
372,100,24994,6,0,P|357:157|349:216,1,119.2,2|2,0:0|0:0,0:0:0:0:
349,216,25455,1,0,3:0:0:0:
254,247,25609,2,0,P|255:276|261:305,1,59.6,2|0,0:0|3:0,0:0:0:0:
406,331,25917,2,0,P|419:304|429:276,1,59.6,2|0,0:0|3:0,0:0:0:0:
372,100,26225,1,2,0:0:0:0:
372,100,26302,1,0,0:0:0:0:
372,100,26378,1,0,3:0:0:0:
254,247,26686,5,2,3:2:0:0:
254,247,26994,2,0,P|196:232|137:224,1,119.2,2|0,3:2|3:0,0:0:0:0:
18,263,27455,1,2,0:0:0:0:
18,263,27609,6,0,P|33:205|41:146,1,119.2,2|0,3:2|3:0,0:0:0:0:
130,59,28071,2,0,P|136:87|146:114,1,59.6,2|0,0:0|3:0,0:0:0:0:
262,139,28378,1,2,0:0:0:0:
262,139,28532,2,0,P|289:127|318:121,1,59.6,2|2,3:2|0:0,0:0:0:0:
382,263,28840,6,0,P|332:294|273:290,1,119.2,2|0,3:2|3:0,0:0:0:0:
273,290,29302,1,2,0:0:0:0:
152,220,29455,6,0,P|167:278|175:337,1,119.2,0|0,3:0|3:0,0:0:0:0:
174,336,29917,1,2,0:0:0:0:
24,256,30071,6,0,P|32:196|46:139,1,119.2,2|0,3:2|3:0,0:0:0:0:
46,139,30532,1,2,0:0:0:0:
172,72,30686,2,0,B|226:96|226:96|283:81,1,119.2,0|0,3:0|3:0,0:0:0:0:
396,88,31148,6,0,P|385:115|379:144,1,59.6,2|0,0:0|3:0,0:0:0:0:
296,256,31455,2,0,P|289:226|279:199,1,59.6,2|0,0:0|3:0,0:0:0:0:
408,248,31763,1,2,0:0:0:0:
332,372,31917,2,0,L|214:351,1,119.2,0|0,3:0|3:0,0:0:0:0:
60,324,32378,5,2,0:0:0:0:
60,324,32455,1,8,0:0:0:0:
60,324,32532,1,12,3:2:0:0:
160,204,32686,1,12,3:2:0:0:
160,204,32994,1,4,3:2:0:0:
160,204,33302,2,0,P|169:240|172:277,1,74.5,4|8,3:2|0:0,0:0:0:0:
88,148,33609,5,8,0:0:0:0:
88,148,33686,1,8,0:0:0:0:
88,148,33763,2,0,B|160:172|160:172|228:148,1,149,4|10,3:2|0:0,0:0:0:0:
448,72,34378,1,2,3:2:0:0:
336,112,34532,1,0,3:0:0:0:
427,189,34686,1,10,0:0:0:0:
427,189,34840,1,2,0:0:0:0:
405,306,34994,6,0,P|344:347|273:334,1,149,2|8,3:2|0:0,0:0:0:0:
140,288,35455,2,0,P|141:325|150:361,1,74.5,2|2,3:2|0:0,0:0:0:0:
240,212,35763,2,0,P|248:175|250:138,1,74.5,2|8,3:2|0:0,0:0:0:0:
140,288,36070,1,2,0:0:0:0:
325,253,36225,6,0,B|443:232|443:232|426:255,2,149,0|10|2,3:0|0:0|3:2,0:0:0:0:
176,344,36994,1,0,3:0:0:0:
176,344,37148,2,0,L|249:356,1,74.5,8|2,0:0|0:0,0:0:0:0:
325,253,37455,5,2,3:2:0:0:
204,224,37609,2,0,P|194:187|192:150,1,74.5,2|8,3:2|0:0,0:0:0:0:
319,62,37917,2,0,P|317:99|308:136,1,74.5,2|2,3:2|0:0,0:0:0:0:
204,224,38225,1,2,3:2:0:0:
88,151,38378,2,0,P|74:116|65:80,1,74.5,8|2,0:0|0:0,0:0:0:0:
0,316,38686,6,0,P|60:274|131:287,1,149,0|8,3:0|0:0,0:0:0:0:
220,356,39148,1,2,0:0:0:0:
315,294,39302,2,0,P|325:259|328:222,1,74.5,2|0,3:2|3:0,0:0:0:0:
448,284,39609,2,0,P|437:319|435:356,1,74.5,8|2,0:0|0:0,0:0:0:0:
328,222,39917,5,2,3:2:0:0:
464,160,40071,2,0,P|461:122|451:87,1,74.5,2|8,3:2|0:0,0:0:0:0:
312,40,40378,1,2,3:2:0:0:
328,222,40686,5,2,3:2:0:0:
464,160,40840,1,8,0:0:0:0:
464,160,40994,1,2,3:2:0:0:
328,222,41148,5,6,3:2:0:0:
504,304,41302,1,8,0:0:0:0:
272,324,41609,5,4,3:2:0:0:
448,242,41763,1,8,0:0:0:0:
216,222,42071,5,14,0:0:0:0:
392,304,42225,1,8,0:0:0:0:
160,324,42532,5,12,0:0:0:0:
336,242,42686,1,8,0:0:0:0:
228,156,42840,1,8,3:2:0:0:
228,156,42917,1,8,3:2:0:0:
228,156,42994,2,0,P|218:188|216:222,1,67.0499979537964,10|2,0:0|3:2,0:0:0:0:
336,242,43302,2,0,P|345:209|348:176,1,67.0499979537964,2|0,0:0|0:0,0:0:0:0:
288,80,43609,6,0,P|358:129|441:105,1,178.8,6|2,3:2|3:2,0:0:0:0:
512,200,44225,2,0,P|491:256|477:313,1,119.2,8|2,0:0|0:0,0:0:0:0:
368,352,44686,6,0,P|341:337|312:332,1,59.6,0|0,3:0|0:0,0:0:0:0:
252,240,44994,2,0,P|225:254|196:259,1,59.6,8|8,3:0|3:0,0:0:0:0:
108,344,45302,2,0,P|94:286|73:230,1,119.2,2|2,3:2|3:2,0:0:0:0:
28,120,45763,1,8,0:0:0:0:
28,120,45917,1,2,0:0:0:0:
132,60,46071,6,0,P|184:86|242:78,1,119.2,2|0,3:2|0:0,0:0:0:0:
352,32,46532,1,2,3:2:0:0:
352,32,46686,2,0,P|344:60|341:90,1,59.6,8|2,0:0|0:0,0:0:0:0:
448,144,46994,1,2,3:2:0:0:
432,264,47148,6,0,P|377:300|312:288,1,134.099995907593,8|10,0:0|3:2,0:0:0:0:
196,240,47609,1,8,3:2:0:0:
196,240,47763,2,0,P|211:305|219:371,1,134.099995907593,12|2,3:2|3:2,0:0:0:0:
219,371,48225,1,8,0:0:0:0:
48,336,48378,5,8,0:0:0:0:
48,336,48455,1,8,0:0:0:0:
48,336,48532,2,0,L|114:324,1,67.0499979537964,6|0,3:2|0:0,0:0:0:0:
297,256,48840,2,0,P|243:266|195:239,1,111.75,14|0,0:0|0:0,0:0:0:0:
172,208,49148,2,0,L|159:134,1,74.5,14|0,0:0|3:0,0:0:0:0:
240,52,49455,5,2,0:0:0:0:
348,96,49609,2,0,B|400:116|400:116|490:92,1,149,12|2,0:0|3:2,0:0:0:0:
490,91,50071,1,8,0:0:0:0:
501,242,50225,2,0,B|449:222|449:222|359:246,1,149,2|2,0:0|3:2,0:0:0:0:
358,246,50687,1,8,0:0:0:0:
284,348,50840,6,0,P|212:357|154:313,1,149,6|0,3:2|3:0,0:0:0:0:
181,194,51302,2,0,L|291:174,1,111.75,14|2,0:0|0:0,0:0:0:0:
333,166,51609,2,0,P|347:132|347:95,1,74.5,14|0,0:0|0:0,0:0:0:0:
213,30,51917,5,0,3:0:0:0:
213,30,52071,2,0,P|198:63|198:100,1,74.5,8|0,0:0|0:0,0:0:0:0:
88,208,52378,2,0,L|161:220,1,74.5,2|8,3:2|0:0,0:0:0:0:
264,280,52686,2,0,L|300:273,2,37.25,8|8|0,0:0|0:0|3:0,0:0:0:0:
161,339,52994,2,0,L|124:332,2,37.25,10|8|10,0:0|0:0|0:0,0:0:0:0:
345,356,53302,6,0,P|389:298|379:226,1,149,12|0,3:2|3:0,0:0:0:0:
268,112,53763,1,0,3:0:0:0:
268,112,53917,1,0,3:0:0:0:
300,272,54071,1,8,0:0:0:0:
300,272,54225,1,8,0:0:0:0:
364,176,54378,1,8,0:0:0:0:
204,208,54532,1,12,0:0:0:0:
204,208,54840,6,0,L|137:196,2,67.0499979537964,2|2|2,0:0|0:0|0:0,0:0:0:0:
316,300,55302,2,0,L|382:288,1,67.0499979537964,2|2,0:0|0:0,0:0:0:0:
444,196,55609,2,0,P|446:162|435:131,1,67.0499979537964,2|2,0:0|0:0,0:0:0:0:
252,48,55917,6,0,B|240:111|240:111|245:128|245:128|234:194,1,149,4|8,3:2|0:0,0:0:0:0:
360,324,56378,1,2,0:0:0:0:
360,324,56532,2,0,P|354:287|337:254,1,74.5,2|0,3:2|3:0,0:0:0:0:
233,194,56840,1,8,0:0:0:0:
186,332,56994,6,0,L|260:320,1,74.5,2|2,0:0|0:0,0:0:0:0:
204,208,57302,2,0,L|130:195,1,74.5,2|8,3:2|0:0,0:0:0:0:
24,248,57609,2,0,P|6:280|1:317,1,74.5,2|2,3:2|0:0,0:0:0:0:
131,196,57917,2,0,P|125:159|108:126,1,74.5,2|8,3:2|0:0,0:0:0:0:
24,60,58225,1,2,0:0:0:0:
24,60,58302,1,0,0:0:0:0:
24,60,58378,6,0,B|76:80|76:80|166:56,1,149,6|8,3:2|0:0,0:0:0:0:
280,36,58840,2,0,P|271:72|268:109,1,74.5,2|0,0:0|3:0,0:0:0:0:
392,128,59148,2,0,P|401:92|404:55,1,74.5,2|8,3:2|0:0,0:0:0:0:
180,160,59455,2,0,P|182:197|191:233,1,74.5,6|0,3:2|0:0,0:0:0:0:
252,336,59763,5,2,3:2:0:0:
412,260,59917,1,8,0:0:0:0:
412,260,60071,1,2,3:2:0:0:
288,208,60225,1,8,0:0:0:0:
288,208,60379,1,2,3:2:0:0:
252,336,60532,1,8,0:0:0:0:
80,301,60686,5,8,0:0:0:0:
80,301,60763,1,8,0:0:0:0:
80,301,60840,2,0,P|131:250|204:256,1,149,4|8,3:2|0:0,0:0:0:0:
349,329,61302,1,2,0:0:0:0:
349,329,61455,2,0,P|313:335|280:352,1,74.5,0|0,3:0|3:0,0:0:0:0:
350,209,61763,2,0,P|383:226|420:232,1,74.5,8|2,0:0|3:2,0:0:0:0:
336,94,62071,5,2,0:0:0:0:
244,164,62225,2,0,P|235:200|231:237,1,74.5,2|8,3:2|0:0,0:0:0:0:
108,320,62532,2,0,P|100:245|82:173,1,149,10|2,3:2|3:2,0:0:0:0:
24,52,62994,2,0,P|60:60|97:64,1,74.5,8|2,0:0|0:0,0:0:0:0:
224,136,63302,6,0,P|286:100|355:124,1,149,4|8,3:2|0:0,0:0:0:0:
416,236,63763,1,2,0:0:0:0:
416,236,63917,2,0,P|411:272|403:309,1,74.5,2|0,3:2|3:0,0:0:0:0:
295,186,64225,1,8,0:0:0:0:
176,276,64378,6,0,B|109:264|109:264|98:254|98:254|32:242,1,149,4|0,3:2|3:0,0:0:0:0:
32,242,64840,1,8,0:0:0:0:
128,128,64994,2,0,B|195:140|195:140|206:150|206:150|272:162,1,149,12|0,3:2|3:0,0:0:0:0:
272,162,65456,1,8,0:0:0:0:
444,120,65609,1,2,0:0:0:0:
444,120,65763,6,0,P|381:156|368:227,1,149,6|8,3:2|0:0,0:0:0:0:
508,326,66225,2,0,P|508:254|454:207,1,149,2|8,3:2|0:0,0:0:0:0:
296,278,66686,1,8,0:0:0:0:
426,289,66840,5,6,3:2:0:0:
426,289,67148,1,6,3:2:0:0:
426,289,67455,1,6,3:2:0:0:
264,120,67763,1,2,3:2:0:0:
264,120,67917,2,0,P|246:152|240:189,1,74.5,8|8,0:0|0:0,0:0:0:0:
268,328,68225,6,0,P|221:292|162:291,1,119.2,6|2,3:2|0:0,0:0:0:0:
24,208,68686,2,0,P|82:206|129:171,1,119.2,8|8,3:0|3:0,0:0:0:0:
230,130,69148,2,0,L|240:188,1,59.6,8|2,3:0|3:2,0:0:0:0:
292,304,69455,6,0,B|343:313|343:313|357:323|357:323|406:332,1,119.2,4|8,3:2|0:0,0:0:0:0:
406,332,69917,1,2,3:2:0:0:
468,180,70071,6,0,B|410:190|410:190|394:202|394:202|339:211,1,134.099995907593,2|8,3:2|0:0,0:0:0:0:
339,211,70532,1,2,0:0:0:0:
276,52,70686,6,0,B|340:63|340:63|358:76|358:76|419:86,1,149,4|8,3:2|0:0,0:0:0:0:
418,86,71148,1,8,0:0:0:0:
308,224,71302,2,0,P|301:241|298:259,3,37.25,8|8|8|8,0:0|0:0|0:0|0:0,0:0:0:0:
208,284,71609,2,0,P|205:265|198:248,3,37.25,8|8|8|8,0:0|0:0|0:0|0:0,0:0:0:0:
112,212,71917,6,0,P|184:217|235:166,1,149,4|8,3:2|0:0,0:0:0:0:
220,40,72378,1,2,0:0:0:0:
72,60,72532,2,0,P|64:96|60:133,1,74.5,2|0,3:2|3:0,0:0:0:0:
32,256,72840,1,8,0:0:0:0:
32,256,72994,6,0,P|68:247|105:243,1,74.5,2|2,3:2|0:0,0:0:0:0:
228,228,73302,2,0,P|224:265|215:301,1,74.5,0|8,3:0|0:0,0:0:0:0:
344,320,73609,2,0,P|346:282|355:246,1,74.5,2|0,3:2|0:0,0:0:0:0:
312,136,73917,1,2,3:2:0:0:
436,152,74071,2,0,P|433:114|424:78,1,74.5,8|2,0:0|0:0,0:0:0:0:
280,55,74378,6,0,P|228:105|233:178,1,149,4|8,3:2|0:0,0:0:0:0:
355,246,74840,2,0,L|428:258,1,74.5,2|0,0:0|3:0,0:0:0:0:
272,356,75148,1,2,3:2:0:0:
272,356,75302,1,8,0:0:0:0:
144,304,75455,6,0,B|132:237|132:237|122:226|122:226|110:160,1,149,4|0,3:2|3:0,0:0:0:0:
248,64,75917,1,10,0:0:0:0:
248,64,76071,1,0,3:0:0:0:
124,132,76225,2,0,P|88:126|55:109,1,74.5,2|2,0:0|3:2,0:0:0:0:
256,200,76532,2,0,P|288:182|325:176,1,74.5,8|0,0:0|3:0,0:0:0:0:
392,332,76840,6,0,B|320:356|320:356|252:332,1,149,12|2,0:0|3:2,0:0:0:0:
136,222,77302,2,0,P|145:258|148:296,1,74.5,14|0,0:0|0:0,0:0:0:0:
0,240,77609,2,0,P|2:202|11:166,1,74.5,14|0,0:0|0:0,0:0:0:0:
124,76,77917,6,0,B|196:104|196:48|268:76,1,149,14|0,3:2|3:0,0:0:0:0:
348,144,78378,2,0,P|366:112|372:75,1,74.5,8|2,0:0|0:0,0:0:0:0:
272,216,78686,2,0,P|277:252|296:284,1,74.5,0|8,3:0|0:0,0:0:0:0:
408,332,78994,2,0,L|444:338,3,37.25,8|8|8|8,0:0|0:0|0:0|0:0,0:0:0:0:
472,288,79302,6,0,L|325:313,1,149,12|8,3:2|0:0,0:0:0:0:
180,340,79763,1,2,0:0:0:0:
180,340,79917,2,0,L|192:266,1,74.5,8|2,0:0|3:2,0:0:0:0:
50,266,80225,1,2,0:0:0:0:
50,266,80378,2,0,L|62:339,1,74.5,8|2,0:0|0:0,0:0:0:0:
180,240,80686,5,2,3:2:0:0:
28,144,80840,1,8,0:0:0:0:
28,144,80994,2,0,P|98:161|156:118,1,149,2|0,3:2|3:0,0:0:0:0:
300,72,81455,1,14,0:0:0:0:
300,72,81609,6,0,P|282:144|274:218,1,149,14|0,3:2|3:0,0:0:0:0:
384,324,82071,1,8,0:0:0:0:
384,324,82225,1,2,3:2:0:0:
447,218,82378,2,0,P|412:206|376:200,1,74.5,8|2,0:0|3:2,0:0:0:0:
208,286,82686,2,0,P|244:280|280:268,1,74.5,8|2,0:0|3:2,0:0:0:0:
376,200,82994,5,8,0:0:0:0:
208,68,83148,1,8,0:0:0:0:
208,68,83455,2,0,P|155:118|160:190,1,149,4|8,3:2|0:0,0:0:0:0:
280,268,83917,6,0,P|292:303|298:339,1,74.5,2|8,0:0|0:0,0:0:0:0:
160,190,84225,1,14,0:0:0:0:
160,190,84532,5,10,0:0:0:0:
340,140,84686,1,10,0:0:0:0:
340,140,84994,5,10,0:0:0:0:
132,56,85148,1,14,0:0:0:0:
256,192,85225,12,0,86378,0:0:0:0:
