osu file format v14

[General]
AudioFilename: audio.mp3
AudioLeadIn: 0
PreviewTime: 54840
Countdown: 0
SampleSet: Soft
StackLeniency: 0.3
Mode: 0
LetterboxInBreaks: 0
WidescreenStoryboard: 1

[Editor]
DistanceSpacing: 1.4
BeatDivisor: 5
GridSize: 32
TimelineZoom: 2.699999

[Metadata]
Title:Yume o Kakeru! (TV Size)
TitleUnicode:ユメヲカケル!(TV Size)
Artist:Spica
ArtistUnicode:スピカ
Creator:Kyle73
Version:Kibbleru's Extra: Rice Shower
Source:ウマ娘 プリティーダービー Season 2
Tags:Umamusume: Pretty Derby Anime Japanese スペシャルウィーク (和氣あず未) サイレンススズカ (高野麻里佳) トウカイテイオー (Machico) ウオッカ (大橋彩香) ダイワスカーレット (木村千咲) ゴールドシップ (上田 瞳) メジロマックイーン (大西沙織) Special Week (Azumi Waki) Silence Suzuka (Marika Takano) Tokai Teio Wokka (Ayaka Ohashi) Daiwa Scarlet (Chisaki Kimura) Gold Ship (Hitomi Ueda) Mejiro McQueen (Saori Onishi) uma musume pop Little Cloudsplash16 Akitoshi Corinn -Laura- Dubturt Kibbleru Gaia Meyrink
BeatmapID:2973546
BeatmapSetID:1445679

[Difficulty]
HPDrainRate:6
CircleSize:3.8
OverallDifficulty:8.3
ApproachRate:9.2
SliderMultiplier:1.8
SliderTickRate:1

[Events]
//Background and Video events
0,0,"riceshowerbg.jpg",0,0
//Break Periods
//Storyboard Layer 0 (Background)
//Storyboard Layer 1 (Fail)
//Storyboard Layer 2 (Pass)
//Storyboard Layer 3 (Foreground)
//Storyboard Layer 4 (Overlay)
//Storyboard Sound Samples

[TimingPoints]
378,348.837209302326,4,2,2,60,1,0
378,-125,4,2,1,35,0,0
2994,307.692307692308,4,2,2,60,1,0
3071,-125,4,2,1,40,0,0
3302,-125,4,2,1,45,0,0
3609,-125,4,2,1,50,0,0
3917,-125,4,2,1,55,0,0
4071,-125,4,2,1,60,0,0
4378,-125,4,2,1,35,0,0
4532,-125,4,2,1,40,0,0
4686,-125,4,2,1,45,0,0
4840,-125,4,2,1,50,0,0
4993,-125,4,2,1,55,0,0
5147,-125,4,2,1,60,0,0
5455,-181.818181818182,4,2,1,65,0,0
10378,-111.111111111111,4,2,1,65,0,0
12071,-111.111111111111,4,2,1,35,0,0
12225,-111.111111111111,4,2,1,40,0,0
12378,-111.111111111111,4,2,1,45,0,0
12532,-111.111111111111,4,2,1,50,0,0
12686,-111.111111111111,4,2,1,55,0,0
12840,-111.111111111111,4,2,1,60,0,0
13455,-66.6666666666667,4,2,1,60,0,0
13917,-100,4,2,1,65,0,0
23148,-111.111111111111,4,2,1,65,0,0
23917,-142.857142857143,4,2,1,60,0,0
31148,-125,4,2,1,60,0,0
32532,-111.111111111111,4,2,1,60,0,0
33763,-111.111111111111,4,2,1,65,0,0
43609,-125,4,2,1,60,0,0
46378,-111.111111111111,4,2,1,60,0,0
47455,-100,4,2,1,60,0,0
48532,-200,4,2,1,60,0,0
48840,-80,4,2,1,60,0,0
49302,-111.111111111111,4,2,1,60,0,0
51301,-80,4,2,1,60,0,0
51609,-100,4,2,1,60,0,0
51763,-111.111111111111,4,2,1,60,0,0
53302,-100,4,2,1,60,0,0
54071,-66.6666666666667,4,2,1,60,0,0
54840,-66.6666666666667,4,2,1,35,0,0
54994,-66.6666666666667,4,2,1,40,0,0
55148,-66.6666666666667,4,2,1,45,0,0
55302,-66.6666666666667,4,2,1,50,0,0
55455,-66.6666666666667,4,2,1,55,0,0
55609,-66.6666666666667,4,2,1,60,0,0
55917,-100,4,2,1,73,0,0
68225,-142.857142857143,4,2,1,60,0,0
68686,-125,4,2,1,60,0,0
68994,-111.111111111111,4,2,1,60,0,0
69455,-100,4,2,1,60,0,0
70686,-100,4,2,1,73,0,0
71917,-95.2380952380952,4,2,1,73,0,0
77302,-125,4,2,1,73,0,0
77917,-250,4,2,1,73,0,0
78840,-100,4,2,1,73,0,0
79302,-200,4,2,1,73,0,0
79532,-166.666666666667,4,2,1,73,0,0
79609,-80,4,2,1,73,0,0
79917,-100,4,2,1,73,0,0
85148,-125,4,2,1,73,0,0
86378,-100,4,2,1,50,0,0

[Colours]
Combo1 : 119,108,255
Combo2 : 248,166,146
Combo3 : 159,219,251
Combo4 : 188,143,254

[HitObjects]
194,219,378,6,0,B|281:204|281:204|322:198|340:234,1,144,2|0,1:0|0:0,0:0:0:0:
281,317,866,5,2,1:0:0:0:
268,296,936,1,2,1:0:0:0:
291,296,1005,1,2,1:0:0:0:
281,303,1075,1,2,1:0:0:0:
172,118,1564,5,2,1:0:0:0:
172,118,1633,1,2,1:0:0:0:
172,118,1703,1,2,1:0:0:0:
172,118,1773,5,2,1:0:0:0:
262,86,1982,1,2,1:0:0:0:
293,176,2191,1,2,1:0:0:0:
198,227,2401,5,2,1:0:0:0:
149,111,2610,1,2,1:0:0:0:
266,68,2819,1,2,1:0:0:0:
316,182,2994,1,2,1:0:0:0:
256,192,3071,12,2,4071,1:2:0:0:
354,333,5455,6,0,P|385:287|356:189,1,148.50000453186,12|2,0:0|0:0,0:0:0:0:
367,200,6071,1,2,0:0:0:0:
104,29,6532,1,2,3:2:0:0:
104,29,6686,2,0,P|94:68|114:142,1,99.0000030212403,8|0,3:0|0:0,0:0:0:0:
159,188,7148,2,0,P|208:191|276:198,1,99.0000030212403,8|2,3:0|3:2,0:0:0:0:
257,196,7609,1,0,3:0:0:0:
132,326,7917,1,4,3:2:0:0:
440,350,8686,5,8,3:0:0:0:
370,301,8840,1,8,3:0:0:0:
290,333,8994,2,0,B|210:323|226:356|127:341,1,148.50000453186,4|2,3:2|0:0,0:0:0:0:
62,301,9609,2,0,P|51:250|61:192,1,99.0000030212403,0|8,0:0|3:0,0:0:0:0:
163,157,10071,1,8,3:0:0:0:
240,200,10225,1,0,3:0:0:0:
334,148,10378,6,0,P|370:77|353:0,1,161.999995056153,12|2,0:0|0:0,0:0:0:0:
259,214,10840,2,0,L|280:296,1,80.9999975280763,12|0,0:0|0:0,0:0:0:0:
174,272,11148,2,0,P|168:302|158:361,1,80.9999975280763,8|0,0:0|0:0,0:0:0:0:
6,372,11455,1,6,3:2:0:0:
6,372,11917,5,0,0:0:0:0:
29,290,12071,1,8,0:0:0:0:
173,268,12225,5,8,0:0:0:0:
208,365,12378,1,8,0:0:0:0:
352,384,12532,5,8,0:0:0:0:
408,239,12686,1,8,0:0:0:0:
278,146,12840,5,8,0:0:0:0:
262,164,12917,1,0,0:0:0:0:
253,187,12994,1,8,0:0:0:0:
250,211,13071,1,8,0:0:0:0:
255,235,13148,1,8,0:0:0:0:
265,256,13225,1,8,0:0:0:0:
282,274,13302,1,8,0:0:0:0:
303,286,13378,1,8,0:0:0:0:
326,292,13455,5,10,0:0:0:0:
100,91,13609,1,2,3:2:0:0:
353,306,13917,6,0,B|255:290|283:333|175:320,1,180,4|0,3:2|3:0,0:0:0:0:
113,101,14378,1,8,0:0:0:0:
286,88,14532,2,0,P|292:147|242:217,1,135,0|0,3:0|0:0,0:0:0:0:
253,209,14840,2,0,P|209:196|165:187,1,90,0|8,3:0|0:0,0:0:0:0:
72,209,15148,6,0,P|59:119|42:31,1,180,2|0,3:2|3:0,0:0:0:0:
286,88,15609,1,8,0:0:0:0:
341,153,15763,2,0,P|339:198|341:255,1,90,2|0,3:2|0:0,0:0:0:0:
402,61,16071,1,0,3:0:0:0:
231,187,16225,1,8,0:0:0:0:
496,243,16378,6,0,P|466:211|420:201,1,90,2|0,0:0|3:0,0:0:0:0:
251,283,16686,1,0,3:0:0:0:
205,354,16840,1,8,0:0:0:0:
120,344,16994,1,0,3:0:0:0:
339,97,17302,2,0,L|382:82,2,45,0|0|8,3:0|0:0|0:0,0:0:0:0:
137,317,17609,6,0,B|239:297|206:346|312:336,1,180,2|0,3:2|3:0,0:0:0:0:
312,336,17994,1,0,3:0:0:0:
312,336,18071,1,8,0:0:0:0:
396,300,18225,2,0,P|409:258|407:204,1,90,2|8,0:0|0:0,0:0:0:0:
268,49,18532,1,8,0:0:0:0:
252,76,18609,1,8,0:0:0:0:
254,107,18686,1,8,0:0:0:0:
335,172,18840,6,0,L|467:146,1,135,4|0,3:2|0:0,0:0:0:0:
467,146,19148,2,0,P|486:182|493:238,1,90,0|8,3:0|0:0,0:0:0:0:
412,313,19455,1,2,3:2:0:0:
107,57,19763,1,0,3:0:0:0:
189,100,19917,1,8,0:0:0:0:
123,167,20071,6,0,P|134:258|143:359,1,180,2|0,3:2|3:0,0:0:0:0:
232,356,20532,1,8,0:0:0:0:
13,281,20686,2,0,P|57:274|108:266,1,90,2|0,0:0|3:0,0:0:0:0:
221,222,20994,1,8,0:0:0:0:
248,236,21071,1,8,0:0:0:0:
278,244,21148,1,8,0:0:0:0:
397,308,21302,6,0,P|443:260|436:137,2,180,4|8|8,3:2|0:0|3:0,0:0:0:0:
276,151,22071,1,8,3:0:0:0:
132,247,22225,1,8,3:0:0:0:
184,323,22378,2,0,L|194:370,2,45,2|0|0,0:0|0:0|3:0,0:0:0:0:
22,70,22686,5,10,0:0:0:0:
278,244,22840,1,10,0:0:0:0:
22,70,23148,6,0,P|81:61|161:140,1,161.999995056153,10|8,3:2|3:0,0:0:0:0:
105,196,23609,1,8,3:0:0:0:
105,196,23917,6,0,P|98:244|88:298,1,94.499997116089,4|0,3:2|0:0,0:0:0:0:
90,289,24225,1,2,3:2:0:0:
283,375,24532,2,0,P|262:322|265:240,1,125.999996154785,2|0,3:2|3:0,0:0:0:0:
261,253,24994,1,2,0:0:0:0:
340,216,25148,6,0,P|365:223|407:234,2,62.9999980773926,2|2|0,3:2|0:0|3:0,0:0:0:0:
291,147,25609,2,0,P|296:111|306:69,1,62.9999980773926,2|0,0:0|3:0,0:0:0:0:
178,104,25917,2,0,P|172:72|166:42,1,62.9999980773926,2|0,0:0|3:0,0:0:0:0:
47,100,26225,2,0,P|29:68|7:36,1,62.9999980773926,2|0,0:0|3:0,0:0:0:0:
14,46,26686,6,0,P|25:112|25:181,2,125.999996154785,2|2|0,3:2|3:2|3:0,0:0:0:0:
150,186,27455,1,2,0:0:0:0:
81,233,27609,2,0,P|74:268|70:309,2,62.9999980773926,2|2|0,3:2|0:0|3:0,0:0:0:0:
231,142,28071,2,0,P|237:177|242:218,1,62.9999980773926,2|0,0:0|3:0,0:0:0:0:
363,210,28378,2,0,P|349:247|338:284,1,62.9999980773926,2|2,0:0|3:2,0:0:0:0:
342,269,28840,6,0,P|405:258|467:252,1,125.999996154785,2|0,3:2|3:0,0:0:0:0:
346,355,29302,1,2,0:0:0:0:
263,323,29455,2,0,P|200:333|138:339,1,125.999996154785,0|0,3:0|3:0,0:0:0:0:
355,368,29917,1,2,0:0:0:0:
124,351,30071,2,0,P|134:280|137:211,1,125.999996154785,2|0,3:2|3:0,0:0:0:0:
34,370,30532,1,2,0:0:0:0:
151,236,30686,2,0,P|140:165|138:96,1,125.999996154785,0|0,3:0|3:0,0:0:0:0:
33,67,31148,6,0,P|42:105|53:161,1,72,2|0,0:0|3:0,0:0:0:0:
253,133,31455,2,0,P|245:169|239:218,1,72,2|0,0:0|3:0,0:0:0:0:
427,189,31763,2,0,P|432:219|443:270,1,72,2|0,0:0|3:0,0:0:0:0:
440,259,32225,1,0,3:0:0:0:
329,226,32378,5,2,0:0:0:0:
320,245,32455,1,8,0:0:0:0:
316,269,32532,1,12,3:2:0:0:
486,72,32686,1,12,3:2:0:0:
225,217,32994,6,0,L|157:232,2,40.4999987640381,4|0|0,3:2|0:0|0:0,0:0:0:0:
462,372,33302,2,0,B|389:334|389:334|309:353,1,161.999995056153,4|8,3:2|0:0,0:0:0:0:
311,352,33686,1,8,0:0:0:0:
311,352,33763,1,4,3:2:0:0:
376,133,34071,6,0,P|410:181|406:241,1,121.499996292114,10|0,0:0|0:0,0:0:0:0:
406,241,34378,1,2,3:2:0:0:
321,260,34532,2,0,P|278:250|220:240,1,80.9999975280763,0|10,3:0|0:0,0:0:0:0:
137,268,34840,1,2,0:0:0:0:
127,124,34994,6,0,P|169:133|228:144,1,80.9999975280763,2|0,3:2|3:0,0:0:0:0:
279,96,35302,1,8,0:0:0:0:
51,75,35455,2,0,P|22:117|47:244,1,161.999995056153,2|2,3:2|3:2,0:0:0:0:
131,286,35917,1,8,0:0:0:0:
241,243,36071,2,0,P|257:289|255:325,1,80.9999975280763,2|0,0:0|3:0,0:0:0:0:
255,320,36532,6,0,L|398:297,1,121.499996292114,10|0,0:0|0:0,0:0:0:0:
374,300,36840,2,0,P|414:315|473:325,1,80.9999975280763,2|0,3:2|3:0,0:0:0:0:
452,323,37148,1,8,0:0:0:0:
479,121,37302,5,2,0:0:0:0:
406,169,37455,1,2,3:2:0:0:
421,53,37609,1,2,3:2:0:0:
511,199,37763,1,8,0:0:0:0:
328,222,37917,2,0,P|319:185|312:134,1,80.9999975280763,2|2,3:2|0:0,0:0:0:0:
123,160,38225,2,0,P|131:123|139:72,1,80.9999975280763,2|8,3:2|0:0,0:0:0:0:
47,197,38532,1,2,0:0:0:0:
199,29,38686,6,0,L|17:58,1,161.999995056153,0|8,3:0|0:0,0:0:0:0:
175,252,39148,1,2,0:0:0:0:
248,206,39302,2,0,L|336:223,1,80.9999975280763,2|0,3:2|3:0,0:0:0:0:
413,261,39609,2,0,P|408:220|399:181,1,80.9999975280763,8|2,0:0|0:0,0:0:0:0:
482,19,39917,5,2,3:2:0:0:
330,125,40071,1,2,3:2:0:0:
293,41,40225,1,8,0:0:0:0:
485,159,40378,1,2,3:2:0:0:
145,352,40686,5,2,3:2:0:0:
189,280,40840,1,8,0:0:0:0:
275,298,40994,1,2,3:2:0:0:
283,312,41071,1,2,3:2:0:0:
291,326,41148,5,6,3:2:0:0:
101,198,41302,1,8,0:0:0:0:
389,70,41609,5,4,3:2:0:0:
101,198,41763,1,8,0:0:0:0:
88,179,42071,5,14,0:0:0:0:
285,237,42225,1,8,0:0:0:0:
274,259,42532,5,12,0:0:0:0:
457,206,42686,1,8,0:0:0:0:
499,300,42840,5,8,3:2:0:0:
483,296,42917,1,8,3:2:0:0:
467,292,42994,1,10,0:0:0:0:
178,159,43148,1,2,3:2:0:0:
178,159,43609,6,0,P|188:223|201:326,1,144,6|0,3:2|0:0,0:0:0:0:
198,301,44071,1,2,3:2:0:0:
358,369,44225,1,8,0:0:0:0:
357,246,44378,2,0,P|313:236|281:227,1,72,2|2,0:0|0:0,0:0:0:0:
138,363,44686,6,0,B|207:333|207:333|278:358,1,144,0|8,3:0|3:0,0:0:0:0:
275,215,45148,1,8,3:0:0:0:
430,304,45302,2,0,P|451:254|428:153,1,144,2|2,3:2|3:2,0:0:0:0:
320,13,45763,1,8,0:0:0:0:
280,91,45917,1,2,0:0:0:0:
363,123,46071,1,2,3:2:0:0:
363,123,46378,1,0,0:0:0:0:
192,133,46532,6,0,P|145:146|94:157,1,80.9999975280763,2|8,3:2|0:0,0:0:0:0:
221,282,46840,1,2,0:0:0:0:
240,204,46994,1,2,3:2:0:0:
84,245,47148,2,0,P|118:278|153:317,1,80.9999975280763,8|0,0:0|0:0,0:0:0:0:
235,60,47455,5,10,3:2:0:0:
38,115,47609,1,8,3:2:0:0:
305,303,47763,2,0,P|316:256|334:201,1,90,12|0,3:2|0:0,0:0:0:0:
29,307,48071,2,0,P|63:340|101:382,1,90,2|8,3:2|0:0,0:0:0:0:
182,141,48378,5,8,0:0:0:0:
182,141,48455,1,8,0:0:0:0:
182,141,48532,2,0,L|103:158,1,67.5,6|0,3:2|0:0,0:0:0:0:
85,178,48840,6,0,B|181:164|156:201|251:194,1,168.75,14|0,0:0|0:0,0:0:0:0:
311,138,49148,1,14,0:0:0:0:
417,293,49302,2,0,P|461:233|446:133,1,161.999995056153,0|12,3:0|0:0,0:0:0:0:
82,40,49917,5,2,3:2:0:0:
160,91,50071,1,8,0:0:0:0:
96,157,50225,2,0,P|104:199|112:247,1,80.9999975280763,2|0,0:0|3:0,0:0:0:0:
344,234,50532,2,0,P|335:276|328:324,1,80.9999975280763,2|8,3:2|0:0,0:0:0:0:
395,373,50840,2,0,B|325:337|325:337|221:361,1,161.999995056153,6|0,3:2|3:0,0:0:0:0:
62,354,51302,6,0,P|10:292|34:190,1,168.75,14|2,0:0|0:0,0:0:0:0:
96,157,51609,2,0,P|144:148|203:135,1,90,14|0,0:0|0:0,0:0:0:0:
184,139,51840,1,0,0:0:0:0:
184,139,51917,1,0,3:0:0:0:
389,44,52071,6,0,P|396:83|388:122,1,80.9999975280763,8|0,0:0|0:0,0:0:0:0:
216,311,52378,2,0,P|208:271|216:232,1,80.9999975280763,2|8,3:2|0:0,0:0:0:0:
433,197,52686,1,8,0:0:0:0:
406,207,52763,1,8,0:0:0:0:
377,208,52840,1,8,3:2:0:0:
210,118,52994,2,0,P|166:103|121:84,1,80.9999975280763,10|10,0:0|0:0,0:0:0:0:
462,171,53302,6,0,P|416:186|396:330,1,180,12|0,3:2|3:0,0:0:0:0:
442,363,53763,1,0,3:0:0:0:
488,293,53917,1,0,3:0:0:0:
220,135,54071,5,8,0:0:0:0:
270,265,54225,1,8,0:0:0:0:
266,284,54302,1,8,0:0:0:0:
262,303,54378,1,8,0:0:0:0:
24,54,54532,5,12,0:0:0:0:
24,54,54840,1,2,0:0:0:0:
45,137,54994,1,2,0:0:0:0:
126,114,55148,1,2,0:0:0:0:
113,26,55302,5,2,0:0:0:0:
34,157,55455,1,2,0:0:0:0:
0,48,55609,1,2,0:0:0:0:
145,130,55763,1,2,0:0:0:0:
404,90,55917,6,0,P|339:25|251:39,1,180,4|8,3:2|0:0,0:0:0:0:
369,203,56378,1,2,0:0:0:0:
316,271,56532,2,0,P|325:313|344:366,1,90,2|0,3:2|3:0,0:0:0:0:
230,167,56840,1,8,0:0:0:0:
412,293,56994,6,0,B|316:273|336:320|232:304,1,180,2|2,0:0|3:2,0:0:0:0:
358,95,57455,1,8,0:0:0:0:
101,130,57609,2,0,P|110:195|156:244,1,135,2|0,3:2|0:0,0:0:0:0:
156,244,57917,2,0,P|196:225|252:214,1,90,2|8,3:2|0:0,0:0:0:0:
233,46,58225,1,2,0:0:0:0:
457,151,58378,6,0,L|280:118,1,180,6|8,3:2|0:0,0:0:0:0:
69,267,58840,1,2,0:0:0:0:
157,245,58994,1,0,3:0:0:0:
282,210,59148,1,2,3:2:0:0:
147,162,59302,1,8,0:0:0:0:
131,329,59455,2,0,L|144:375,2,45,6|0|0,3:2|0:0|0:0,0:0:0:0:
32,42,59763,5,2,3:2:0:0:
107,88,59917,1,8,0:0:0:0:
23,150,60071,1,2,3:2:0:0:
181,254,60225,5,8,0:0:0:0:
0,345,60378,1,2,3:2:0:0:
0,345,60455,1,8,0:0:0:0:
0,345,60532,1,8,0:0:0:0:
319,340,60686,1,8,0:0:0:0:
342,352,60763,1,8,0:0:0:0:
363,364,60840,6,0,P|407:313|412:247,1,135,4|0,3:2|0:0,0:0:0:0:
412,247,61148,2,0,P|361:235|294:215,1,90,8|2,0:0|0:0,0:0:0:0:
154,175,61455,1,0,3:0:0:0:
120,91,61609,1,0,3:0:0:0:
205,62,61763,1,8,0:0:0:0:
98,83,61917,5,2,3:2:0:0:
253,145,62071,1,2,0:0:0:0:
109,248,62225,2,0,P|98:292|82:334,1,90,2|8,3:2|0:0,0:0:0:0:
315,200,62532,2,0,L|281:18,1,180,2|2,3:2|3:2,0:0:0:0:
404,31,62994,2,0,P|397:72|391:124,1,90,8|2,0:0|0:0,0:0:0:0:
404,235,63302,6,0,B|299:212|328:261|226:244,1,180,4|8,3:2|0:0,0:0:0:0:
133,121,63763,1,2,0:0:0:0:
58,70,63917,5,2,3:2:0:0:
149,133,64071,1,0,3:0:0:0:
29,212,64225,1,8,0:0:0:0:
185,46,64378,6,0,P|242:38|326:23,1,135,4|0,3:2|0:0,0:0:0:0:
338,14,64686,1,0,3:0:0:0:
267,123,64840,1,8,0:0:0:0:
140,225,64994,2,0,P|176:216|251:204,1,90,12|0,3:2|0:0,0:0:0:0:
315,293,65302,1,0,3:0:0:0:
85,383,65455,2,0,P|121:374|196:362,1,90,8|2,0:0|0:0,0:0:0:0:
365,203,65763,5,6,3:2:0:0:
441,342,65917,1,0,3:0:0:0:
405,116,66071,1,8,0:0:0:0:
512,295,66225,6,0,B|412:275|431:325|335:311,1,180,2|8,3:2|0:0,0:0:0:0:
259,123,66686,1,8,0:0:0:0:
473,55,66840,5,6,3:2:0:0:
90,340,67148,1,6,3:2:0:0:
473,55,67455,6,0,P|407:109|421:204,1,180,6|2,3:2|3:2,0:0:0:0:
506,242,67917,1,8,0:0:0:0:
279,321,68071,1,8,0:0:0:0:
289,337,68148,1,8,0:0:0:0:
308,343,68225,6,0,P|347:330|311:258,1,125.999996154785,6|2,3:2|0:0,0:0:0:0:
197,132,68686,2,0,P|185:179|234:202,1,108,8|0,3:0|0:0,0:0:0:0:
231,203,68994,2,0,P|180:203|153:238,1,80.9999975280763,8|8,3:0|3:0,0:0:0:0:
158,303,69302,1,2,3:2:0:0:
66,82,69455,6,0,P|97:44|202:44,1,135,4|0,3:2|0:0,0:0:0:0:
197,44,69763,1,8,0:0:0:0:
76,246,69917,1,2,3:2:0:0:
403,199,70071,2,0,B|354:194|354:194|289:145|289:145|211:138,1,180,2|8,3:2|0:0,0:0:0:0:
219,230,70532,1,2,0:0:0:0:
384,56,70686,5,4,3:2:0:0:
456,274,70840,1,10,0:0:0:0:
154,166,70994,1,8,0:0:0:0:
154,166,71071,1,8,0:0:0:0:
154,166,71148,1,8,0:0:0:0:
405,168,71302,5,8,0:0:0:0:
219,230,71455,1,8,0:0:0:0:
374,345,71609,5,8,0:0:0:0:
333,327,71686,1,8,0:0:0:0:
305,292,71763,1,8,0:0:0:0:
299,248,71840,1,8,0:0:0:0:
314,206,71917,6,0,P|377:145|352:46,1,188.999994232178,4|8,3:2|0:0,0:0:0:0:
193,76,72378,1,2,0:0:0:0:
160,153,72532,2,0,P|112:171|69:180,1,94.499997116089,2|0,3:2|3:0,0:0:0:0:
0,36,72840,1,8,0:0:0:0:
163,271,72994,6,0,B|242:268|217:292|300:299,1,141.749995674133,2|0,3:2|0:0,0:0:0:0:
300,299,73302,2,0,P|305:254|315:195,1,94.499997116089,0|8,3:0|0:0,0:0:0:0:
83,188,73609,2,0,P|77:143|67:84,1,94.499997116089,2|0,3:2|0:0,0:0:0:0:
370,142,73917,2,0,P|375:97|385:38,1,94.499997116089,2|8,3:2|0:0,0:0:0:0:
202,18,74225,1,2,0:0:0:0:
57,278,74378,6,0,B|120:266|120:266|171:224|171:224|233:216,1,188.999994232178,4|8,3:2|0:0,0:0:0:0:
337,253,74840,1,2,0:0:0:0:
240,343,74994,5,0,3:0:0:0:
449,263,75148,1,2,3:2:0:0:
300,166,75302,1,8,0:0:0:0:
390,39,75455,6,0,P|428:99|414:168,1,141.749995674133,4|0,3:2|0:0,0:0:0:0:
399,183,75763,1,0,3:0:0:0:
130,189,75917,1,10,0:0:0:0:
242,255,76071,1,0,3:0:0:0:
109,279,76225,6,0,P|56:291|14:303,1,94.499997116089,2|2,0:0|3:2,0:0:0:0:
143,91,76532,2,0,P|90:103|48:115,1,94.499997116089,8|0,0:0|3:0,0:0:0:0:
251,170,76840,2,0,B|357:153|324:208|437:190,1,188.999994232178,12|2,0:0|3:2,0:0:0:0:
302,19,77302,6,0,P|291:53|277:86,1,72,14|0,0:0|0:0,0:0:0:0:
82,237,77609,2,0,P|117:230|153:225,1,72,14|0,0:0|0:0,0:0:0:0:
382,319,77917,2,0,P|358:292|336:262,1,72,14|0,3:2|3:0,0:0:0:0:
218,149,78378,5,8,0:0:0:0:
300,192,78532,1,2,0:0:0:0:
189,251,78686,1,0,3:0:0:0:
321,14,78840,5,8,0:0:0:0:
351,20,78917,1,8,0:0:0:0:
378,36,78994,1,8,0:0:0:0:
397,61,79071,1,8,0:0:0:0:
405,91,79148,1,8,0:0:0:0:
402,123,79225,1,8,0:0:0:0:
388,151,79302,2,0,P|354:157|321:164,1,67.5,12|0,3:2|0:0,0:0:0:0:
246,178,79609,6,0,B|298:184|298:184|354:229|354:229|397:236,1,168.75,8|0,0:0|0:0,0:0:0:0:
420,233,79917,1,8,0:0:0:0:
239,307,80071,1,2,3:2:0:0:
239,307,80148,1,0,0:0:0:0:
239,307,80225,1,2,0:0:0:0:
343,357,80378,1,8,0:0:0:0:
112,272,80532,1,2,0:0:0:0:
4,354,80686,5,2,3:2:0:0:
181,216,80840,1,8,0:0:0:0:
30,6,80994,1,2,3:2:0:0:
85,88,81148,5,8,0:0:0:0:
0,131,81302,1,0,3:0:0:0:
96,181,81455,1,14,0:0:0:0:
4,353,81609,6,0,P|62:289|149:296,1,180,14|0,3:2|3:0,0:0:0:0:
270,208,82071,1,8,0:0:0:0:
398,276,82225,1,2,3:2:0:0:
372,182,82378,5,8,0:0:0:0:
294,305,82532,1,2,3:2:0:0:
188,171,82686,1,8,0:0:0:0:
485,318,82840,1,2,3:2:0:0:
485,318,82917,1,8,0:0:0:0:
485,318,82994,5,8,0:0:0:0:
329,27,83148,1,8,0:0:0:0:
284,351,83455,1,4,3:2:0:0:
512,115,83763,5,8,0:0:0:0:
382,160,83917,1,2,0:0:0:0:
461,219,84071,1,8,0:0:0:0:
274,253,84225,6,0,L|204:267,2,45,14|0|0,0:0|0:0|0:0,0:0:0:0:
367,298,84532,1,10,0:0:0:0:
165,151,84686,1,10,0:0:0:0:
512,7,84994,5,10,0:0:0:0:
165,151,85148,2,0,P|371:132|191:236,1,576,14|0,0:0|0:0,0:0:0:0:
