osu file format v14

[General]
AudioFilename: audio.mp3
AudioLeadIn: 0
PreviewTime: 54811
Countdown: 0
SampleSet: Soft
StackLeniency: 0.4
Mode: 0
LetterboxInBreaks: 0
WidescreenStoryboard: 1

[Editor]
DistanceSpacing: 1
BeatDivisor: 4
GridSize: 16
TimelineZoom: 2.16

[Metadata]
Title:Yume o Kakeru! (TV Size)
TitleUnicode:ユメヲカケル! (TV Size)
Artist:Spica
ArtistUnicode:スピカ
Creator:Huzz
Version:zan's Normal!
Source:ウマ娘 プリティーダービー Season 2
Tags:tv anime japanese uma musume pretty derby season two 2 opening theme op jrock j rock horse girls animation cygames zan zan1to severon スペシャルウィーク special week 和氣あず未 waki azumi ajuju サイレンススズカ silence suzuka 高野麻里佳 kouno marika トウカイテイオー tokai teio machico toukai teiou ウオッカ vodka 大橋彩香 ohashi ayaka ダイワスカーレット daiwa scarlet 木村千咲 kimura chisa ゴールドシップ gold ship 上田瞳 ueda hitomi メジロマックイーン mejiro mcqueen 大西沙織 onishi saori oonishi マイクスギヤマ mike sugiyama 東大路憲太 higashiooji kenta team
BeatmapID:3052242
BeatmapSetID:1430235

[Difficulty]
HPDrainRate:4
CircleSize:3
OverallDifficulty:4
ApproachRate:5
SliderMultiplier:1
SliderTickRate:1

[Events]
//Background and Video events
0,0,"mcqueenteio.jpg",0,0
Video,-238,"Op-1.mp4"
//Break Periods
//Storyboard Layer 0 (Background)
//Storyboard Layer 1 (Fail)
//Storyboard Layer 2 (Pass)
//Storyboard Layer 3 (Foreground)
//Storyboard Layer 4 (Overlay)
//Storyboard Sound Samples

[TimingPoints]
388,348.837209302326,4,2,1,50,1,0
736,-100,4,2,1,5,0,0
853,-100,4,2,1,50,0,0
1434,-100,4,2,1,5,0,0
1550,-100,4,2,1,50,0,0
2917,-100,4,2,1,60,0,0
3004,307.692307692308,4,2,1,50,1,0
4388,-100,4,2,1,65,0,0
5465,-100,4,2,1,65,0,0
6696,-100,4,2,2,65,0,0
7619,-100,4,2,1,65,0,0
8696,-100,4,2,2,65,0,0
9004,-100,4,2,1,65,0,0
9619,-100,4,2,2,65,0,0
9773,-100,4,2,2,65,0,0
10388,-100,4,2,1,65,0,0
11080,-100,4,2,1,5,0,0
11157,-100,4,2,1,65,0,0
13465,-100,4,2,1,75,0,0
18387,-100,4,2,2,75,0,0
18542,-100,4,2,1,75,0,0
21618,-100,4,2,2,75,0,0
22388,-100,4,2,1,75,0,0
23465,-100,4,2,2,65,0,0
23773,-100,4,2,1,65,0,0
23927,-100,4,2,1,65,0,0
44080,-100,4,2,2,65,0,0
44234,-100,4,2,3,65,0,0
44696,-100,4,2,1,65,0,0
45004,-100,4,2,2,65,0,0
45311,-100,4,2,3,65,0,0
45618,-100,4,2,2,65,0,0
45773,-100,4,2,1,65,0,0
47465,-100,4,2,2,65,0,0
47773,-100,4,2,1,65,0,0
49080,-100,4,2,1,5,0,0
49157,-100,4,2,1,65,0,0
50387,-100,4,2,2,65,0,0
50541,-100,4,2,2,65,0,0
50696,-100,4,2,1,65,0,0
50850,-100,4,2,1,65,0,0
51541,-100,4,2,1,5,0,0
51619,-100,4,2,1,65,0,0
52696,-100,4,2,2,65,0,0
53311,-100,4,2,1,65,0,0
55927,-100,4,2,1,75,0,1
64696,-100,4,2,2,75,0,1
64849,-100,4,2,1,75,0,1
65927,-100,4,2,2,75,0,1
66080,-100,4,2,1,75,0,1
66541,-100,4,2,2,75,0,1
66850,-100,4,2,1,75,0,1
67080,-100,4,2,1,5,0,1
67157,-100,4,2,1,75,0,1
67387,-100,4,2,1,5,0,1
67465,-100,4,2,1,75,0,1
68696,-100,4,2,2,75,0,1
69311,-100,4,2,1,75,0,1
70849,-100,4,2,2,75,0,1
71004,-100,4,2,1,75,0,1
71696,-100,4,2,2,75,0,1
71927,-100,4,2,1,75,0,1
75772,-100,4,2,2,75,0,1
75927,-100,4,2,1,75,0,1
76850,-100,4,2,2,75,0,1
77157,-100,4,2,1,75,0,1
79541,-100,4,2,1,5,0,1
79619,-100,4,2,1,75,0,1
81157,-100,4,2,2,75,0,1
81465,-100,4,2,1,75,0,1
83772,-100,4,2,2,75,0,1
84080,-100,4,2,1,75,0,1
85157,-100,4,2,1,75,0,0
86388,-100,4,2,1,5,0,0

[Colours]
Combo1 : 248,158,217
Combo2 : 244,64,64
Combo3 : 241,130,97
Combo4 : 233,170,249

[HitObjects]
256,192,3004,12,8,4080,2:0:0:0:
376,27,5465,6,0,P|359:98|365:178,1,150,14|0,3:0|2:0,2:0:0:0:
331,211,6080,2,0,P|260:197|222:202,1,100,2|0,2:0|2:0,2:0:0:0:
137,169,6696,2,0,P|147:243|141:336,2,150,8|6|8,3:0|3:0|3:0,2:0:0:0:
57,107,7927,6,0,P|108:73|145:70,1,100,14|0,3:0|0:0,2:0:0:0:
191,89,8388,1,2,2:0:0:0:
264,20,8696,1,10,3:0:0:0:
330,94,9004,6,0,B|324:157|324:157|338:183|338:183|331:254,1,150,14|2,3:0|2:0,2:0:0:0:
291,331,9773,1,10,3:0:0:0:
212,269,10080,1,6,3:0:0:0:
136,334,10388,6,0,P|83:349|25:321,1,100,10|2,2:0|2:0,2:0:0:0:
22,288,10850,2,0,L|33:178,1,100,10|10,2:0|2:0,2:0:0:0:
0,93,11465,2,0,B|78:64|76:130|168:90,1,150,14|8,3:0|2:0,2:0:0:0:
222,33,12234,5,8,2:0:0:0:
300,95,12542,1,8,2:0:0:0:
245,179,12850,2,0,P|243:243|249:289,1,100,8|8,2:0|2:0,0:0:0:0:
312,361,13465,1,10,2:0:0:0:
312,361,13619,1,10,2:0:0:0:
370,279,13927,6,0,P|420:232|505:232,1,150,14|10,3:0|2:0,2:0:0:0:
508,178,14542,1,10,3:0:0:0:
454,93,14850,2,0,L|459:41,1,50,10|8,3:0|2:0,2:0:0:0:
421,9,15157,2,0,B|345:-9|364:43|272:18,1,150,10|10,3:0|2:0,2:0:0:0:
228,0,15773,1,10,3:0:0:0:
182,88,16080,2,0,L|185:144,1,50,10|10,3:0|2:0,0:0:0:0:
175,190,16388,5,2,2:0:0:0:
175,190,16542,2,0,P|104:183|67:200,1,100,8|10,3:0|2:0,0:0:0:0:
61,240,17004,1,10,3:0:0:0:
101,331,17311,2,0,L|158:335,1,50,10|8,3:0|2:0,2:0:0:0:
182,295,17619,2,0,B|229:326|229:326|328:311,1,150,8|10,3:0|2:0,2:0:0:0:
350,271,18234,1,2,2:0:0:0:
437,319,18542,2,0,L|449:254,1,50,10|10,2:0|2:0,0:0:0:0:
469,225,18850,6,0,L|451:68,1,150,14|10,3:0|2:0,2:0:0:0:
461,26,19465,1,10,3:0:0:0:
360,29,19773,2,0,P|328:33|296:22,1,50,10|8,3:0|2:0,2:0:0:0:
260,28,20080,2,0,P|184:12|117:48,1,150,10|10,3:0|2:0,2:0:0:0:
136,91,20696,1,2,2:0:0:0:
214,153,21004,2,0,L|214:211,1,50,10|10,2:0|2:0,0:0:0:0:
206,252,21311,6,0,B|161:225|161:225|105:230,1,100,14|8,3:0|3:0,2:0:0:0:
23,272,21927,1,8,3:0:0:0:
23,272,22080,2,0,L|25:213,1,50,4|4,3:0|3:0,0:0:0:0:
7,174,22388,1,8,3:0:0:0:
54,87,22696,1,10,2:0:0:0:
54,87,22850,2,0,P|100:64|167:80,1,100,10|14,2:0|2:0,0:0:0:0:
219,143,23465,1,8,3:0:0:0:
219,143,23619,1,4,3:0:0:0:
312,107,23927,5,14,3:0:0:0:
403,69,24234,2,0,P|454:30|493:25,2,100,10|10|8,3:0|3:0|3:0,2:0:0:0:
411,123,25004,1,2,2:0:0:0:
411,123,25157,2,0,L|432:232,1,100,10|8,3:0|3:0,0:0:0:0:
419,270,25619,1,2,2:0:0:0:
331,318,25927,1,2,2:0:0:0:
237,286,26234,1,2,2:0:0:0:
237,286,26388,6,0,P|228:342|239:392,2,100,8|10|10,3:0|3:0|3:0,0:0:0:0:
192,194,27311,1,8,3:0:0:0:
126,259,27619,2,0,B|89:239|89:239|23:251,1,100,10|8,3:0|3:0,0:0:0:0:
8,204,28081,2,0,P|-15:145|5:101,2,100,2|2|0,2:0|2:0|2:0,2:0:0:0:
58,201,28850,6,0,L|214:173,1,150,10|2,3:0|2:0,2:0:0:0:
254,165,29465,1,10,3:0:0:0:
333,104,29773,2,0,L|395:116,1,50,8|2,3:0|2:0,0:0:0:0:
430,100,30080,6,0,P|460:55|455:2,2,100,10|8|10,3:0|3:0|3:0,2:0:0:0:
385,190,31004,1,8,3:0:0:0:
385,190,31157,2,0,P|398:248|406:299,1,100,2|2,2:0|2:0,2:0:0:0:
328,354,31773,2,0,P|273:370|197:320,1,150,2|8,2:0|3:0,2:0:0:0:
144,239,32542,1,8,2:0:0:0:
144,239,32696,2,0,P|90:246|44:256,2,100,10|10|10,2:0|2:0|3:0,0:0:0:0:
172,197,33465,1,8,2:0:0:0:
124,109,33773,5,12,3:0:0:0:
171,21,34080,2,0,P|230:14|279:11,2,100,10|10|8,2:0|3:0|2:0,2:0:0:0:
70,17,35004,2,0,P|29:50|12:101,1,100,10|8,3:0|2:0,0:0:0:0:
21,142,35465,2,0,P|33:198|42:251,2,100,10|10|2,3:0|3:0|2:0,2:0:0:0:
58,108,36234,5,10,3:0:0:0:
143,160,36542,2,0,B|195:147|195:147|244:165,2,100,10|10|8,2:0|3:0|2:0,2:0:0:0:
139,260,37465,2,0,P|179:281|237:271,1,100,2|8,2:0|2:0,0:0:0:0:
276,250,37927,1,2,2:0:0:0:
341,174,38234,1,2,2:0:0:0:
288,88,38542,1,2,2:0:0:0:
288,88,38696,6,0,P|222:65|174:81,1,100,10|8,2:3|2:0,2:0:0:0:
125,143,39311,2,0,L|139:249,1,100,10|8,2:3|2:0,2:0:0:0:
145,342,39927,1,10,2:3:0:0:
145,342,40080,2,0,P|175:329|205:328,1,50,10|8,2:3|2:0,2:0:0:0:
242,328,40388,2,0,P|294:353|341:341,1,100,10|10,2:3|2:3,2:0:0:0:
370,311,40850,1,8,2:0:0:0:
313,228,41157,6,0,L|304:172,1,50,10|10,2:0|2:0,0:0:0:0:
240,101,41619,2,0,L|191:88,1,50,10|10,2:0|2:0,0:0:0:0:
104,137,42080,2,0,L|55:149,1,50,10|10,2:0|2:0,0:0:0:0:
15,241,42542,2,0,L|33:295,1,50,10|10,2:0|2:0,0:0:0:0:
83,305,42850,1,8,3:0:0:0:
82,305,43004,2,0,P|152:291|196:347,1,150,10|0,2:0|2:0,0:0:0:0:
235,378,43619,6,0,B|267:336|267:336|255:222,1,150,14|10,2:3|2:3,2:0:0:0:
227,199,44234,2,0,P|215:144|228:99,1,100,14|0,2:0|2:0,2:0:0:0:
258,64,44696,1,12,3:0:0:0:
337,125,45004,1,8,3:0:0:0:
421,72,45311,2,0,P|437:117|428:170,1,100,14|10,3:0|3:0,2:0:0:0:
388,197,45773,1,10,2:0:0:0:
443,280,46080,6,0,B|339:294,1,100,14|0,3:0|2:0,2:0:0:0:
300,267,46542,1,10,2:3:0:0:
258,358,46850,2,0,P|227:348|191:355,1,50,0|10,0:0|2:3,0:0:0:0:
168,377,47157,1,14,2:0:0:0:
95,308,47465,2,0,L|99:249,1,50,8|6,2:3|2:3,0:0:0:0:
131,220,47773,2,0,L|116:111,1,100,10|10,2:0|2:3,2:0:0:0:
36,72,48388,5,10,2:0:0:0:
36,71,48542,2,0,P|70:36|119:25,1,100,12|8,2:3|2:0,2:0:0:0:
192,94,49157,1,10,2:0:0:0:
279,153,49465,1,2,2:0:0:0:
279,153,49619,2,0,B|329:165|329:165|380:142,1,100,10|10,2:0|2:3,2:0:0:0:
461,193,50234,2,0,P|459:251|446:291,1,100,10|4,2:3|2:3,2:0:0:0:
363,347,50850,6,0,P|305:327|328:242,1,150,14|10,2:3|2:0,2:0:0:0:
342,154,51619,1,10,2:0:0:0:
254,118,51927,1,10,2:3:0:0:
254,118,52080,2,0,P|210:154|205:212,1,100,10|10,2:0|3:0,2:0:0:0:
144,277,52696,1,10,2:3:0:0:
217,345,53004,1,10,2:3:0:0:
297,286,53311,6,0,L|399:264,1,100,14|10,2:3|2:0,2:0:0:0:
436,237,53773,2,0,L|442:185,1,50,10|10,2:0|2:0,0:0:0:0:
411,147,54080,2,0,L|405:95,1,50,10|10,2:0|2:0,0:0:0:0:
443,64,54388,1,10,2:0:0:0:
443,64,54542,1,10,2:0:0:0:
443,64,55927,6,0,B|398:44|398:44|337:55,1,100,12|8,3:0|2:0,2:0:0:0:
315,90,56388,1,2,2:0:0:0:
315,90,56542,2,0,P|322:139|319:189,1,100,10|8,2:3|2:0,2:0:0:0:
304,237,57004,5,10,2:3:0:0:
214,193,57311,1,10,2:3:0:0:
171,283,57619,2,0,P|118:301|74:283,1,100,10|10,2:3|2:3,2:0:0:0:
40,193,58234,1,2,2:0:0:0:
40,193,58388,6,0,B|52:135|52:135|43:94,1,100,10|10,2:3|2:0,2:0:0:0:
62,48,58850,2,0,L|164:30,1,100,2|10,2:0|2:3,2:0:0:0:
229,102,59465,1,10,2:3:0:0:
299,31,59773,5,10,2:3:0:0:
299,31,59927,2,0,L|315:86,1,50,10|10,2:0|2:3,0:0:0:0:
319,128,60234,2,0,L|313:185,1,50,2|10,2:0|2:3,0:0:0:0:
336,222,60542,1,10,2:0:0:0:
282,306,60850,6,0,P|233:298|192:325,1,100,14|8,3:0|2:0,2:0:0:0:
157,359,61311,1,2,2:0:0:0:
157,359,61465,2,0,P|104:362|58:322,1,100,10|8,2:3|2:0,2:0:0:0:
82,291,61927,1,10,2:3:0:0:
82,291,62080,6,0,L|87:226,1,50,2|10,2:0|2:3,0:0:0:0:
41,150,62542,1,10,2:3:0:0:
66,53,62850,1,10,2:3:0:0:
169,47,63157,1,2,2:0:0:0:
169,47,63311,6,0,P|224:32|276:38,1,100,10|8,2:3|2:0,2:0:0:0:
308,72,63773,1,2,2:0:0:0:
308,72,63927,2,0,B|295:123|295:123|302:178,1,100,10|10,2:3|2:0,0:0:0:0:
332,209,64388,5,14,2:3:0:0:
297,303,64696,2,0,L|240:312,1,50,10|10,2:3|2:0,0:0:0:0:
197,315,65004,2,0,P|181:260|126:231,1,100,14|10,2:3|2:3,2:0:0:0:
100,249,65465,1,10,2:0:0:0:
47,163,65773,6,0,B|55:112|55:112|109:78,1,100,8|8,2:3|2:0,0:0:0:0:
145,86,66234,2,0,P|177:125|176:185,1,100,14|10,2:3|2:3,2:0:0:0:
204,222,66696,1,6,2:3:0:0:
204,222,66850,5,10,2:3:0:0:
280,290,67157,1,10,2:3:0:0:
377,268,67465,1,14,2:3:0:0:
419,179,67773,1,10,2:3:0:0:
419,179,67927,2,0,L|412:113,1,50,10|10,2:0|2:0,0:0:0:0:
434,83,68234,6,0,P|386:46|338:56,1,100,14|2,2:3|2:0,2:0:0:0:
311,82,68696,2,0,L|202:93,1,100,10|6,2:3|2:3,2:0:0:0:
142,27,69311,1,10,2:3:0:0:
142,27,69465,2,0,P|151:87|140:137,1,100,14|8,2:3|2:0,2:0:0:0:
118,170,69927,1,10,2:3:0:0:
118,170,70080,2,0,B|105:222|105:222|120:270,1,100,14|8,2:3|2:0,2:0:0:0:
189,339,70696,6,0,P|247:343|294:322,1,100,10|10,2:3|2:3,2:0:0:0:
315,289,71157,1,10,2:0:0:0:
315,289,71311,1,10,2:0:0:0:
409,322,71619,1,10,2:0:0:0:
441,227,71927,6,0,P|429:176|433:128,1,100,14|8,3:0|2:0,2:0:0:0:
421,85,72388,1,2,2:0:0:0:
421,85,72542,2,0,B|371:95|371:95|322:75,1,100,10|8,2:3|2:0,2:0:0:0:
283,48,73004,6,0,P|242:71|228:138,1,100,10|10,2:3|2:3,2:0:0:0:
260,212,73619,1,10,2:3:0:0:
194,287,73927,1,10,2:3:0:0:
117,231,74234,1,2,2:0:0:0:
117,231,74388,6,0,L|2:248,1,100,10|10,2:3|2:0,2:0:0:0:
4,197,74850,2,0,P|19:152|11:97,1,100,2|10,2:0|2:3,2:0:0:0:
70,19,75465,2,0,P|136:-2|223:42,1,150,12|10,3:0|2:0,3:0:0:0:
261,111,76234,1,10,2:3:0:0:
211,198,76542,1,10,2:0:0:0:
275,274,76850,6,0,P|318:259|376:272,1,100,10|10,2:3|2:3,0:0:0:0:
418,257,77311,2,0,L|411:147,1,100,10|10,2:0|2:0,2:0:0:0:
475,79,77927,1,14,2:3:0:0:
412,8,78234,1,8,2:3:0:0:
412,8,78388,2,0,P|360:21|311:12,1,100,8|10,2:0|2:3,2:0:0:0:
246,87,79004,5,10,2:0:0:0:
246,87,79157,2,0,B|257:136|257:136|245:184,1,100,10|0,2:0|0:0,2:0:0:0:
255,232,79619,1,10,2:0:0:0:
224,327,79927,1,10,2:0:0:0:
124,333,80234,1,2,2:0:0:0:
48,267,80542,2,0,L|-5:278,2,50,0|10|10,2:0|2:3|2:0,0:0:0:0:
83,230,81004,2,0,P|93:176|73:125,1,100,10|2,2:3|2:0,0:0:0:0:
65,91,81465,5,10,2:0:0:0:
65,91,81619,2,2,B|105:52|105:52|171:50,1,100,14|10,2:3|2:3,2:0:0:0:
186,84,82080,1,8,2:0:0:0:
275,39,82388,1,8,2:0:0:0:
333,120,82696,1,8,2:0:0:0:
281,207,83004,5,8,2:0:0:0:
281,207,83157,2,0,P|231:198|183:213,2,100,8|12|8,2:0|2:3|2:3,2:0:0:0:
367,267,84080,1,8,2:3:0:0:
367,267,84234,6,0,B|358:317|358:317|370:369,1,100,8|8,2:0|2:0,0:0:0:0:
321,381,84696,2,0,L|219:369,1,100,8|8,2:0|2:0,0:0:0:0:
173,383,85157,5,12,2:3:0:0:
256,192,85311,12,0,86388,2:0:0:0:
