osu file format v14

[General]
AudioFilename: audio.mp3
AudioLeadIn: 0
PreviewTime: 54811
Countdown: 0
SampleSet: Soft
StackLeniency: 0.4
Mode: 0
LetterboxInBreaks: 0
WidescreenStoryboard: 1

[Editor]
Bookmarks: 344,5446,13907,23907,33754,43600,55907,71907,85138
DistanceSpacing: 1
BeatDivisor: 4
GridSize: 16
TimelineZoom: 2.16

[Metadata]
Title:Yume o Kakeru! (TV Size)
TitleUnicode:ユメヲカケル! (TV Size)
Artist:Spica
ArtistUnicode:スピカ
Creator:Huzz
Version:Severon's Hard!
Source:ウマ娘 プリティーダービー Season 2
Tags:tv anime japanese uma musume pretty derby season two 2 opening theme op jrock j rock horse girls animation cygames zan zan1to severon スペシャルウィーク special week 和氣あず未 waki azumi ajuju サイレンススズカ silence suzuka 高野麻里佳 kouno marika トウカイテイオー tokai teio machico toukai teiou ウオッカ vodka 大橋彩香 ohashi ayaka ダイワスカーレット daiwa scarlet 木村千咲 kimura chisa ゴールドシップ gold ship 上田瞳 ueda hitomi メジロマックイーン mejiro mcqueen 大西沙織 onishi saori oonishi マイクスギヤマ mike sugiyama 東大路憲太 higashiooji kenta team
BeatmapID:3055938
BeatmapSetID:1430235

[Difficulty]
HPDrainRate:4.5
CircleSize:3.8
OverallDifficulty:6
ApproachRate:8
SliderMultiplier:1.4
SliderTickRate:1

[Events]
//Background and Video events
Video,-238,"Op-1.mp4"
0,0,"mcqueenteio.jpg",0,0
//Break Periods
//Storyboard Layer 0 (Background)
//Storyboard Layer 1 (Fail)
//Storyboard Layer 2 (Pass)
//Storyboard Layer 3 (Foreground)
//Storyboard Layer 4 (Overlay)
//Storyboard Sound Samples

[TimingPoints]
388,348.837209302326,4,2,1,50,1,0
3004,307.692307692308,4,2,1,50,1,0
5465,-125,4,2,1,65,0,0
6695,-125,4,2,2,65,0,0
7619,-125,4,2,1,65,0,0
8696,-125,4,2,2,65,0,0
9004,-125,4,2,1,65,0,0
9619,-125,4,2,2,65,0,0
10388,-125,4,2,1,65,0,0
13465,-125,4,2,1,75,0,0
13927,-105.263157894737,4,2,1,75,0,0
18387,-105.263157894737,4,2,2,75,0,0
18542,-105.263157894737,4,2,1,75,0,0
21618,-105.263157894737,4,2,2,75,0,0
22388,-105.263157894737,4,2,1,75,0,0
23465,-105.263157894737,4,2,2,65,0,0
23772,-105.263157894737,4,2,1,65,0,0
23927,-125,4,2,1,65,0,0
31157,-105.263157894737,4,2,1,65,0,0
32388,-90.9090909090909,4,2,1,65,0,0
33773,-105.263157894737,4,2,1,65,0,0
43619,-125,4,2,1,65,0,0
44080,-125,4,2,2,65,0,0
44234,-125,4,2,3,65,0,0
44696,-125,4,2,1,65,0,0
45003,-125,4,2,2,65,0,0
45311,-125,4,2,3,65,0,0
45618,-125,4,2,2,65,0,0
45773,-125,4,2,1,65,0,0
47157,-105.263157894737,4,2,1,65,0,0
47464,-105.263157894737,4,2,2,65,0,0
47773,-105.263157894737,4,2,1,65,0,0
48850,-90.9090909090909,4,2,1,65,0,0
49619,-105.263157894737,4,2,1,65,0,0
50387,-105.263157894737,4,2,2,65,0,0
50695,-105.263157894737,4,2,1,65,0,0
51311,-90.9090909090909,4,2,1,65,0,0
52080,-105.263157894737,4,2,1,65,0,0
52696,-105.263157894737,4,2,2,65,0,0
53311,-105.263157894737,4,2,1,65,0,0
55927,-90.9090909090909,4,2,1,75,0,1
64695,-90.9090909090909,4,2,2,75,0,1
64850,-90.9090909090909,4,2,1,75,0,1
65926,-90.9090909090909,4,2,2,75,0,1
66080,-90.9090909090909,4,2,1,75,0,1
66542,-90.9090909090909,4,2,2,75,0,1
66850,-90.9090909090909,4,2,1,75,0,1
68234,-125,4,2,1,75,0,1
68696,-125,4,2,2,75,0,1
69311,-125,4,2,1,75,0,1
70850,-105.263157894737,4,2,2,75,0,1
71003,-105.263157894737,4,2,1,75,0,1
71695,-105.263157894737,4,2,2,75,0,1
71927,-90.9090909090909,4,2,1,75,0,1
75772,-90.9090909090909,4,2,2,75,0,1
75927,-90.9090909090909,4,2,1,75,0,1
76850,-90.9090909090909,4,2,2,75,0,1
77157,-90.9090909090909,4,2,1,75,0,1
81157,-90.9090909090909,4,2,2,75,0,1
81465,-90.9090909090909,4,2,1,75,0,1
83773,-90.9090909090909,4,2,2,75,0,1
84080,-90.9090909090909,4,2,1,75,0,1
85157,-90.9090909090909,4,2,1,75,0,0
86388,-90.9090909090909,4,2,1,5,0,0

[Colours]
Combo1 : 248,158,217
Combo2 : 244,64,64
Combo3 : 241,130,97
Combo4 : 233,170,249

[HitObjects]
41,172,5465,6,0,P|118:191|175:134,1,168,14|0,3:0|2:0,2:0:0:0:
140,62,6080,2,0,P|185:93|240:89,1,112,2|0,2:0|2:0,2:0:0:0:
287,27,6542,2,0,L|282:-1,2,28,10|0|8,3:0|2:0|3:0,2:0:0:0:
359,58,6850,2,0,L|349:113,1,56,0|0,2:0|2:0,2:0:0:0:
335,190,7157,1,6,3:0:0:0:
441,58,7465,1,2,2:0:0:0:
441,58,7619,1,8,3:0:0:0:
508,100,7773,1,0,2:0:0:0:
444,176,7927,6,0,B|370:169|401:196|335:190,1,112,14|0,3:0|2:0,2:0:0:0:
286,262,8388,2,0,P|313:264|338:276,1,56,2|0,2:0|2:0,2:0:0:0:
375,352,8696,1,10,3:0:0:0:
375,352,8850,1,4,3:0:0:0:
281,381,9004,6,0,B|172:390|231:337|123:346,1,168,14|2,3:0|2:0,2:0:0:0:
49,372,9619,1,8,3:0:0:0:
49,372,9696,1,8,3:0:0:0:
49,372,9773,2,0,B|39:346|39:346|50:318,1,56,10|8,3:0|3:0,2:0:0:0:
78,247,10080,1,6,3:0:0:0:
78,247,10234,1,4,3:0:0:0:
4,173,10388,1,10,2:0:0:0:
4,173,10850,5,10,2:0:0:0:
151,128,11157,5,10,2:0:0:0:
298,83,11465,6,0,P|373:58|428:116,1,168,14|8,3:0|2:0,2:0:0:0:
374,173,12080,1,8,2:0:0:0:
374,173,12234,2,0,L|319:158,1,56,8|8,2:0|2:0,2:0:0:0:
266,215,12542,2,0,L|280:269,1,56,8|8,2:0|2:0,2:0:0:0:
357,288,12850,1,8,2:0:0:0:
425,246,13004,1,8,2:0:0:0:
425,246,13080,1,8,2:0:0:0:
425,246,13157,2,0,L|452:238,3,28,8|8|8|8,2:0|2:0|2:0|2:0,2:0:0:0:
491,229,13465,5,10,2:0:0:0:
427,324,13619,1,10,2:0:0:0:
427,324,13927,6,0,B|386:325|361:292|361:292|341:311|311:314,1,133,14|10,3:0|3:0,2:0:0:0:
240,279,14388,1,10,2:0:0:0:
188,364,14542,2,0,L|121:358,1,66.4999999999999,10|0,3:0|2:0,2:0:0:0:
66,304,14850,2,0,L|0:309,1,66.4999999999999,10|8,3:0|2:0,2:0:0:0:
21,217,15157,6,0,P|85:207|141:240,1,133,10|2,3:0|2:0,2:0:0:0:
204,287,15619,1,10,2:0:0:0:
184,173,15773,2,0,L|172:107,1,66.4999999999999,10|0,3:0|2:0,2:0:0:0:
215,41,16080,1,10,3:0:0:0:
215,41,16234,1,10,2:0:0:0:
308,99,16388,6,0,L|284:229,1,133,2|10,2:0|3:0,2:0:0:0:
242,295,16850,1,10,2:0:0:0:
337,350,17004,2,0,L|402:338,1,66.4999999999999,10|0,3:0|2:0,2:0:0:0:
447,274,17311,2,0,L|512:285,1,66.4999999999999,10|8,3:0|2:0,2:0:0:0:
497,182,17619,6,0,P|447:223|383:214,1,133,8|10,3:0|3:0,2:0:0:0:
377,209,18004,1,0,2:0:0:0:
371,203,18080,1,10,2:0:0:0:
425,132,18234,2,0,L|436:66,1,66.4999999999999,2|8,2:0|3:0,2:0:0:0:
354,32,18542,2,0,L|348:0,2,33.25,10|8|10,2:0|2:0|2:0,2:0:0:0:
313,122,18850,6,0,B|228:107|267:146|184:131,1,133,14|10,3:0|3:0,2:0:0:0:
106,113,19311,1,10,2:0:0:0:
10,150,19465,2,0,P|27:177|32:210,1,66.4999999999999,10|0,3:0|2:0,2:0:0:0:
124,210,19773,2,0,P|106:237|101:270,1,66.4999999999999,10|8,3:0|2:0,2:0:0:0:
6,297,20080,6,0,L|138:308,1,133,10|10,3:0|3:0,2:0:0:0:
210,339,20542,1,10,2:0:0:0:
242,245,20696,2,0,P|237:212|219:184,1,66.4999999999999,2|8,2:0|3:0,2:0:0:0:
306,133,21004,2,0,L|311:100,2,33.25,10|8|10,2:0|2:0|2:0,2:0:0:0:
385,193,21311,6,0,P|446:169|512:169,2,133,14|8|8,3:0|3:0|3:0,2:0:0:0:
340,257,22080,1,4,3:0:0:0:
299,325,22234,1,4,3:0:0:0:
299,325,22388,2,0,L|233:319,1,66.4999999999999,8|8,3:0|3:0,2:0:0:0:
141,356,22696,5,10,2:0:0:0:
82,275,22850,1,10,2:0:0:0:
82,275,23157,6,0,B|257:244|154:351|329:320,1,266,14|8,2:0|3:0,2:0:0:0:
378,257,23927,6,0,L|368:201,1,56,14|0,3:0|2:0,2:0:0:0:
320,139,24234,2,0,L|329:83,1,56,10|0,3:0|2:0,2:0:0:0:
282,21,24542,2,0,P|227:12|179:38,1,112,10|8,3:0|3:0,2:0:0:0:
179,37,25004,1,2,2:0:0:0:
143,110,25157,5,10,3:0:0:0:
143,110,25311,2,0,P|116:101|88:101,1,56,2|8,2:0|3:0,2:0:0:0:
24,145,25619,2,0,L|33:200,1,56,2|8,2:0|3:0,2:0:0:0:
103,237,25927,2,0,L|93:292,1,56,2|8,2:0|3:0,2:0:0:0:
24,329,26234,2,0,L|33:384,1,56,2|8,2:0|3:0,2:0:0:0:
33,384,26696,6,0,P|60:375|88:375,1,56,10|0,3:0|2:0,2:0:0:0:
138,314,27004,2,0,P|184:344|238:339,1,112,10|8,3:0|3:0,2:0:0:0:
238,338,27465,1,2,2:0:0:0:
299,288,27619,5,10,3:0:0:0:
299,288,27773,2,0,L|289:232,1,56,2|8,2:0|3:0,2:0:0:0:
381,274,28080,2,0,L|371:329,1,56,2|8,2:0|3:0,2:0:0:0:
427,383,28388,2,0,P|480:371|507:324,1,112,2|0,2:0|2:0,2:0:0:0:
471,242,28850,6,0,B|444:210|444:210|457:141,1,112,10|8,3:0|3:0,2:0:0:0:
493,71,29311,1,2,2:0:0:0:
493,71,29465,2,0,P|446:101|392:95,1,112,10|8,3:0|3:0,2:0:0:0:
325,55,29927,1,2,2:0:0:0:
325,55,30080,6,0,B|357:101|357:101|341:154,1,112,10|8,3:0|3:0,2:0:0:0:
265,171,30542,1,2,2:0:0:0:
265,171,30696,2,0,B|232:124|232:124|248:71,1,112,10|8,3:0|3:0,2:0:0:0:
195,0,31157,6,0,L|130:14,1,66.4999999999999,2|8,2:0|3:0,2:0:0:0:
95,96,31465,2,0,L|139:144,1,66.4999999999999,2|8,2:0|3:0,2:0:0:0:
190,218,31773,2,0,B|130:254|77:208|77:208|62:245|20:255,1,199.5,2|8,2:0|3:0,2:0:0:0:
53,339,32388,6,0,L|15:345,2,38.5,10|8|8,2:0|2:0|2:0,2:0:0:0:
151,322,32696,1,10,2:0:0:0:
325,363,33004,5,10,2:0:0:0:
274,192,33311,5,10,3:0:0:0:
299,278,33465,1,8,2:0:0:0:
394,306,33619,1,0,2:0:0:0:
394,306,33696,1,8,2:0:0:0:
394,306,33773,6,0,L|405:240,1,66.4999999999999,12|0,3:0|2:0,2:0:0:0:
331,201,34080,2,0,L|320:135,1,66.4999999999999,10|0,2:0|2:0,2:0:0:0:
390,86,34388,1,10,3:0:0:0:
389,86,34542,2,0,P|453:83|488:136,1,132.999996448517,8|2,2:3|2:0,2:0:0:0:
397,195,35004,5,10,2:3:0:0:
397,195,35157,2,0,L|330:200,1,66.4999999999999,10|8,3:0|2:0,2:0:0:0:
286,129,35465,2,0,P|290:96|308:68,1,66.4999999999999,10|0,3:0|2:0,2:0:0:0:
189,7,35773,2,0,P|206:34|211:67,1,66.4999999999999,10|8,3:0|2:0,2:0:0:0:
166,138,36080,2,0,L|99:132,1,66.4999999999999,2|10,2:0|3:0,2:0:0:0:
100,132,36542,6,0,P|82:159|78:192,1,66.4999999999999,10|0,2:0|2:0,2:0:0:0:
63,290,36850,1,10,2:3:0:0:
63,290,37004,2,0,L|194:278,1,132.999996448517,8|2,2:3|2:0,2:0:0:0:
279,271,37465,5,10,2:3:0:0:
279,271,37619,2,0,P|274:238|257:210,1,66.4999999999999,2|8,2:0|2:0,2:0:0:0:
367,253,37927,2,0,L|355:318,1,66.4999999999999,2|0,2:0|2:0,2:0:0:0:
444,299,38234,2,0,P|454:267|476:242,1,66.4999999999999,2|8,2:0|2:0,2:0:0:0:
508,163,38542,1,2,2:0:0:0:
508,163,38619,1,2,2:0:0:0:
508,163,38696,6,0,B|423:146|461:186|378:169,1,133,10|8,2:3|2:0,2:0:0:0:
300,139,39157,1,2,2:0:0:0:
257,210,39311,1,10,2:3:0:0:
257,210,39465,2,0,L|190:215,1,66.4999999999999,0|8,2:0|2:0,2:0:0:0:
126,268,39773,1,2,2:0:0:0:
119,173,39927,5,10,2:3:0:0:
119,173,40080,2,0,P|120:139|136:109,1,66.4999999999999,10|8,2:3|2:0,2:0:0:0:
30,163,40388,2,0,L|47:227,1,66.4999999999999,10|0,2:3|2:0,2:0:0:0:
126,268,40696,2,0,L|109:332,1,66.4999999999999,10|8,2:3|2:0,2:0:0:0:
230,330,41004,6,0,L|197:321,2,33.25,10|8|10,2:3|2:3|2:0,2:0:0:0:
311,352,41311,1,10,2:0:0:0:
204,238,41619,5,10,2:0:0:0:
204,238,41773,1,10,2:0:0:0:
318,131,42080,5,10,2:0:0:0:
318,131,42234,1,10,2:0:0:0:
425,245,42542,5,10,2:0:0:0:
425,245,42696,1,10,2:0:0:0:
399,151,42850,2,0,L|431:159,2,33.25,8|8|10,3:0|3:0|2:0,2:0:0:0:
318,129,43157,2,0,P|331:99|356:78,1,66.4999982242585,10|2,2:3|0:0,0:0:0:0:
211,17,43619,6,0,B|147:22|147:22|117:49|117:49|53:54,1,168,14|10,2:3|2:3,2:0:0:0:
47,59,44157,1,4,2:3:0:0:
42,65,44234,2,0,P|38:120|76:158,1,112,14|0,2:0|2:0,2:0:0:0:
165,111,44696,6,0,L|145:221,1,112,12|8,3:0|3:0,2:0:0:0:
179,305,45157,1,4,3:0:0:0:
179,305,45311,2,0,P|217:266|271:271,1,112,14|10,3:0|3:0,2:0:0:0:
279,276,45696,1,4,3:0:0:0:
285,282,45773,2,0,P|311:291|339:292,1,56,10|2,2:0|2:0,2:0:0:0:
416,247,46080,6,0,L|406:136,1,112,14|0,3:0|2:0,2:0:0:0:
333,107,46542,2,0,P|305:107|278:116,1,56,10|8,2:3|2:0,2:0:0:0:
206,87,46850,2,0,P|179:78|151:78,1,56,0|10,2:0|2:3,2:0:0:0:
143,80,47080,1,8,2:3:0:0:
135,83,47157,6,0,B|91:106|91:106|11:82,1,133,14|8,2:0|2:3,2:0:0:0:
0,185,47619,1,6,2:3:0:0:
0,185,47773,2,0,L|66:180,1,66.4999999999999,10|0,2:0|2:0,2:0:0:0:
136,216,48080,2,0,L|169:218,2,33.25,10|0|8,2:3|2:0|2:0,2:0:0:0:
46,268,48388,1,10,2:0:0:0:
46,268,48465,1,8,2:0:0:0:
46,268,48542,6,0,P|42:300|52:332,1,66.4999999999999,12|0,2:3|2:0,2:0:0:0:
135,365,48850,2,0,P|169:348|207:346,1,77,8|0,2:0|2:0,2:0:0:0:
286,305,49157,2,0,P|351:342|426:328,1,154,10|2,2:0|2:0,2:0:0:0:
473,266,49619,6,0,L|461:200,1,66.4999999999999,10|0,2:0|2:0,2:0:0:0:
404,147,49927,2,0,L|409:114,2,33.25,10|0|8,2:3|2:0|2:0,2:0:0:0:
339,191,50234,2,0,P|307:179|274:179,1,66.4999999999999,10|8,2:3|2:3,2:0:0:0:
210,223,50542,2,0,P|178:234|145:234,1,66.4999999999999,4|8,2:3|2:0,2:0:0:0:
81,190,50850,6,0,B|45:146|45:146|71:74,1,133,14|8,2:3|2:3,2:0:0:0:
152,22,51311,2,0,L|165:97,1,77,10|8,2:0|2:3,2:0:0:0:
173,103,51542,1,8,2:3:0:0:
181,108,51619,2,0,P|217:119|255:114,1,77,10|0,2:0|2:0,2:0:0:0:
319,69,51927,1,10,2:3:0:0:
396,114,52080,6,0,L|384:179,1,66.4999999999999,10|0,2:0|2:0,2:0:0:0:
454,215,52388,2,0,L|494:208,2,33.25,10|8|8,3:0|3:0|3:0,2:0:0:0:
389,259,52696,2,0,L|349:252,2,33.25,10|4|0,2:3|2:3|2:0,2:0:0:0:
447,358,53004,2,0,L|459:293,1,66.4999999999999,10|4,2:3|2:3,2:0:0:0:
389,259,53311,6,0,B|304:241|342:281|259:263,1,133,14|10,2:3|2:0,2:0:0:0:
182,250,53773,1,10,2:0:0:0:
144,181,53927,1,10,2:0:0:0:
174,108,54080,1,10,2:0:0:0:
249,86,54234,2,0,L|281:91,2,33.25,10|8|10,2:0|2:0|2:0,2:0:0:0:
111,62,54542,1,10,2:0:0:0:
111,62,55927,6,0,P|39:75|26:146,1,154,12|8,3:0|2:0,2:0:0:0:
111,175,56388,1,2,2:0:0:0:
183,122,56542,1,10,2:3:0:0:
183,122,56696,2,0,P|217:107|256:108,1,77,8|8,2:3|2:0,2:0:0:0:
342,135,57004,6,0,L|328:210,1,77,10|0,2:3|2:0,2:0:0:0:
249,249,57311,2,0,L|262:324,1,77,10|8,2:3|2:0,2:0:0:0:
342,363,57619,2,0,P|374:343|412:337,1,77,10|0,2:3|2:0,2:0:0:0:
478,278,57927,2,0,P|446:256|408:249,1,77,10|8,2:3|2:0,2:0:0:0:
328,211,58234,1,2,2:0:0:0:
343,123,58388,6,0,L|356:47,1,77,10|0,2:3|2:0,2:0:0:0:
248,0,58696,1,10,2:0:0:0:
248,0,58850,2,0,L|261:75,1,77,2|8,2:0|2:3,2:0:0:0:
214,150,59157,2,0,P|176:155|139:143,1,77,10|8,2:3|2:0,2:0:0:0:
77,80,59465,6,0,P|56:112|51:150,1,77,10|0,2:3|2:0,2:0:0:0:
0,223,59773,1,10,2:3:0:0:
0,223,59927,2,0,P|20:255|25:293,1,77,10|10,2:0|2:3,2:0:0:0:
92,352,60234,2,0,L|168:345,1,77,2|10,2:0|2:3,2:0:0:0:
251,313,60542,2,0,L|327:319,1,77,10|10,2:0|2:0,2:0:0:0:
345,312,60773,1,8,2:0:0:0:
359,299,60850,6,0,P|373:227|316:180,1,154,14|8,3:0|2:0,2:0:0:0:
239,137,61311,1,2,2:0:0:0:
256,50,61465,1,10,2:3:0:0:
256,50,61619,2,0,P|289:31|327:30,1,77,8|8,2:3|2:0,2:0:0:0:
412,71,61927,1,10,2:3:0:0:
492,109,62080,5,2,2:0:0:0:
492,109,62234,2,0,L|478:184,1,77,10|8,2:3|2:0,2:0:0:0:
408,238,62542,2,0,L|421:313,1,77,10|0,2:3|2:0,2:0:0:0:
350,367,62850,2,0,P|312:371|275:360,1,77,10|8,2:3|2:0,2:0:0:0:
216,295,63157,1,2,2:0:0:0:
121,364,63311,6,0,L|134:210,1,154,10|8,2:3|2:0,2:0:0:0:
185,138,63773,1,2,2:0:0:0:
131,66,63927,2,0,P|94:73|65:98,1,77,10|10,2:3|2:3,2:0:0:0:
48,185,64234,1,10,2:0:0:0:
134,211,64388,6,0,B|229:219|185:175|280:183,1,154,14|10,2:3|2:3,2:0:0:0:
369,199,64850,1,10,2:0:0:0:
473,139,65004,2,0,P|410:98|338:116,1,154,14|10,2:3|2:3,2:0:0:0:
285,188,65465,1,10,2:0:0:0:
285,188,65619,1,2,2:0:0:0:
351,262,65773,6,0,B|407:257|407:257|437:278|437:278|497:273,1,154,14|8,2:3|2:0,2:0:0:0:
468,369,66234,2,0,L|391:362,1,77,14|0,2:3|2:0,2:0:0:0:
303,355,66542,1,10,2:3:0:0:
303,355,66696,1,6,2:3:0:0:
211,347,66850,5,10,2:3:0:0:
30,332,67157,1,10,2:3:0:0:
133,182,67465,2,0,P|205:168|251:225,1,154,14|10,2:3|2:3,2:0:0:0:
340,218,67927,1,10,2:0:0:0:
435,218,68080,1,10,2:0:0:0:
435,218,68157,1,8,2:0:0:0:
435,218,68234,6,0,B|456:181|456:181|431:116,1,112,14|2,2:3|2:0,2:0:0:0:
358,76,68696,2,0,L|348:131,1,56,10|0,2:3|2:0,2:0:0:0:
276,89,69004,2,0,P|248:87|221:94,1,56,6|0,2:3|2:0,2:0:0:0:
144,50,69311,1,10,2:3:0:0:
144,50,69465,6,0,P|96:76|41:67,1,112,14|8,2:3|2:0,2:0:0:0:
0,148,69927,1,10,2:3:0:0:
0,148,70080,2,0,P|37:187|43:243,1,112,14|8,2:3|2:0,2:0:0:0:
0,322,70542,1,2,2:0:0:0:
0,322,70696,5,10,2:3:0:0:
93,357,70850,2,0,L|159:351,1,66.4999999999999,10|10,2:3|2:3,2:0:0:0:
175,357,71080,1,8,2:0:0:0:
191,363,71157,2,0,L|257:357,1,66.4999999999999,10|10,2:0|2:0,2:0:0:0:
341,349,71465,1,10,2:0:0:0:
357,355,71542,1,8,2:0:0:0:
373,361,71619,2,0,L|406:358,3,33.25,10|8|6|4,2:0|2:3|2:3|2:3,2:0:0:0:
440,338,71927,6,0,P|453:265|397:219,1,154,14|8,3:0|2:0,2:0:0:0:
308,212,72388,1,2,2:0:0:0:
269,131,72542,1,10,2:3:0:0:
269,131,72696,2,0,L|282:55,1,77,8|8,2:3|2:0,2:0:0:0:
175,2,73004,6,0,L|188:78,1,77,10|0,2:3|2:0,2:0:0:0:
188,168,73311,2,0,L|112:154,1,77,10|8,2:3|2:0,2:0:0:0:
7,162,73619,2,0,P|31:192|39:230,1,77,10|0,2:3|2:0,2:0:0:0:
138,249,73927,2,0,P|114:278|106:315,1,77,10|8,2:3|2:0,2:0:0:0:
181,370,74234,1,2,2:0:0:0:
181,370,74388,6,0,B|273:345|237:396|329:372,1,154,10|10,2:3|2:0,2:0:0:0:
409,329,74850,2,0,L|395:253,1,77,2|8,2:0|2:3,2:0:0:0:
324,201,75157,2,0,L|337:125,1,77,10|8,2:3|2:0,2:0:0:0:
412,45,75465,6,0,P|359:96|288:77,1,154,12|8,3:0|3:0,3:0:0:0:
211,32,75927,2,0,L|134:38,1,77,10|2,2:0|2:3,2:0:0:0:
38,56,76234,2,0,P|59:87|63:126,1,77,10|8,2:3|2:3,2:0:0:0:
170,124,76542,2,0,P|148:155|143:193,1,77,10|8,2:0|2:3,2:0:0:0:
148,213,76773,1,8,2:3:0:0:
157,230,76850,2,0,L|234:236,1,77,10|4,2:3|2:3,2:0:0:0:
251,245,77080,1,4,2:3:0:0:
269,254,77157,1,10,2:3:0:0:
361,216,77311,5,10,2:0:0:0:
307,346,77619,1,10,2:0:0:0:
166,331,77927,2,0,P|91:320|34:368,1,154,14|8,2:3|2:3,2:0:0:0:
0,272,78388,2,0,P|30:248|66:235,1,77,8|0,2:0|2:3,2:0:0:0:
155,232,78696,2,0,L|231:238,1,77,10|8,2:3|2:3,2:0:0:0:
249,247,78927,1,8,2:3:0:0:
267,256,79004,2,0,L|305:259,3,38.5,10|8|10|8,2:0|2:0|2:0|2:0,2:0:0:0:
336,235,79311,6,0,P|339:197|361:165,1,77,12|0,2:3|2:0,2:0:0:0:
448,174,79619,2,0,P|464:208|461:246,1,77,10|0,2:0|2:0,2:0:0:0:
393,303,79927,1,10,2:0:0:0:
305,259,80080,2,0,L|267:256,2,38.5,10|0|2,2:3|2:0|2:0,2:0:0:0:
360,166,80388,1,10,2:0:0:0:
301,98,80542,6,0,P|278:129|270:166,1,77,0|10,2:0|2:3,2:0:0:0:
189,214,80850,1,10,2:0:0:0:
118,150,81004,2,0,P|117:111|100:77,1,77,0|10,2:0|2:3,2:0:0:0:
31,132,81311,1,0,2:0:0:0:
30,221,81465,1,10,2:0:0:0:
80,294,81619,6,2,B|172:269|136:320|228:296,1,154,14|10,2:3|2:3,2:0:0:0:
314,358,82080,2,0,P|314:319|333:286,1,77,8|8,2:0|2:3,2:0:0:0:
368,205,82388,2,0,P|367:166|348:133,1,77,8|8,2:0|2:3,2:0:0:0:
334,121,82619,1,8,2:3:0:0:
316,113,82696,2,0,L|239:106,1,77,8|8,2:0|2:3,2:0:0:0:
221,98,82927,1,8,2:3:0:0:
203,90,83004,1,8,2:0:0:0:
103,134,83157,5,8,2:0:0:0:
270,206,83465,5,12,2:3:0:0:
445,286,83773,6,0,L|451:209,1,77,8|4,2:3|2:3,2:0:0:0:
460,111,84080,5,8,2:3:0:0:
460,111,84234,1,8,2:0:0:0:
274,210,84542,5,8,2:0:0:0:
274,210,84696,1,8,2:0:0:0:
88,309,85004,5,8,2:0:0:0:
88,309,85157,1,12,2:3:0:0:
256,192,85234,12,0,86388,2:0:0:0:
