osu file format v14

[General]
AudioFilename: audio.mp3
AudioLeadIn: 0
PreviewTime: 54811
Countdown: 0
SampleSet: Soft
StackLeniency: 0.4
Mode: 0
LetterboxInBreaks: 0
WidescreenStoryboard: 0

[Editor]
DistanceSpacing: 1.3
BeatDivisor: 4
GridSize: 16
TimelineZoom: 1.860001

[Metadata]
Title:Yume o Kakeru! (TV Size)
TitleUnicode:ユメヲカケル! (TV Size)
Artist:Spica
ArtistUnicode:スピカ
Creator:Huzz
Version:Queen & Emperor
Source:ウマ娘 プリティーダービー Season 2
Tags:tv anime japanese uma musume pretty derby season two 2 opening theme op jrock j rock horse girls animation cygames zan zan1to severon スペシャルウィーク special week 和氣あず未 waki azumi ajuju サイレンススズカ silence suzuka 高野麻里佳 kouno marika トウカイテイオー tokai teio machico toukai teiou ウオッカ vodka 大橋彩香 ohashi ayaka ダイワスカーレット daiwa scarlet 木村千咲 kimura chisa ゴールドシップ gold ship 上田瞳 ueda hitomi メジロマックイーン mejiro mcqueen 大西沙織 onishi saori oonishi マイクスギヤマ mike sugiyama 東大路憲太 higashiooji kenta team
BeatmapID:2944289
BeatmapSetID:1430235

[Difficulty]
HPDrainRate:5.5
CircleSize:4
OverallDifficulty:9
ApproachRate:9.3
SliderMultiplier:1.4
SliderTickRate:1

[Events]
//Background and Video events
Video,-238,"Op-1.mp4"
0,0,"mcqueenteio.jpg",0,0
//Break Periods
//Storyboard Layer 0 (Background)
//Storyboard Layer 1 (Fail)
//Storyboard Layer 2 (Pass)
//Storyboard Layer 3 (Foreground)
//Storyboard Layer 4 (Overlay)
//Storyboard Sound Samples

[TimingPoints]
388,348.837209302326,4,2,1,50,1,0
388,-125,4,2,1,50,0,0
736,-125,4,2,1,5,0,0
853,-125,4,2,1,50,0,0
1434,-125,4,2,1,5,0,0
1550,-125,4,2,1,50,0,0
2917,-125,4,2,1,60,0,0
3004,307.692307692308,4,2,1,50,1,0
4388,-111.111111111111,4,2,1,65,0,0
5465,-125,4,2,1,65,0,0
6696,-125,4,2,2,65,0,0
7619,-125,4,2,1,65,0,0
8696,-125,4,2,2,65,0,0
9004,-125,4,2,1,65,0,0
9619,-125,4,2,2,65,0,0
10388,-100,4,2,1,65,0,0
11080,-100,4,2,1,5,0,0
11157,-100,4,2,1,65,0,0
13311,-83.3333333333333,4,2,1,65,0,0
13465,-83.3333333333333,4,2,1,75,0,0
13927,-83.3333333333333,4,2,1,75,0,1
18387,-83.3333333333333,4,2,2,75,0,1
18542,-83.3333333333333,4,2,1,75,0,1
21311,-83.3333333333333,4,2,1,75,0,0
21619,-100,4,2,2,75,0,0
22388,-100,4,2,1,75,0,0
23465,-100,4,2,2,65,0,0
23773,-100,4,2,1,65,0,0
24234,-125,4,2,1,65,0,0
31157,-111.111111111111,4,2,1,65,0,0
33465,-99.9999999999999,4,2,1,65,0,0
43157,-125,4,2,1,65,0,0
43619,-111.111111111111,4,2,1,65,0,0
44080,-111.111111111111,4,2,2,65,0,0
44234,-111.111111111111,4,2,3,65,0,0
44696,-111.111111111111,4,2,1,65,0,0
45003,-111.111111111111,4,2,2,65,0,0
45311,-111.111111111111,4,2,3,65,0,0
45618,-111.111111111111,4,2,2,65,0,0
45773,-111.111111111111,4,2,1,65,0,0
47464,-111.111111111111,4,2,2,65,0,0
47773,-111.111111111111,4,2,1,65,0,0
48542,-99.9999999999999,4,2,1,65,0,0
49080,-99.9999999999999,4,2,1,5,0,0
49157,-99.9999999999999,4,2,1,65,0,0
50387,-99.9999999999999,4,2,2,65,0,0
50696,-99.9999999999999,4,2,1,65,0,0
51541,-99.9999999999999,4,2,1,5,0,0
51619,-99.9999999999999,4,2,1,65,0,0
52696,-99.9999999999999,4,2,2,65,0,0
53311,-90.9090909090909,4,2,1,65,0,0
55927,-83.3333333333333,4,2,1,75,0,1
64696,-83.3333333333333,4,2,2,75,0,1
64850,-83.3333333333333,4,2,1,75,0,1
65927,-83.3333333333333,4,2,2,75,0,1
66080,-83.3333333333333,4,2,1,75,0,1
66541,-83.3333333333333,4,2,2,75,0,1
66850,-71.4285714285714,4,2,1,75,0,1
67080,-71.4285714285714,4,2,1,5,0,1
67157,-71.4285714285714,4,2,1,75,0,1
67387,-71.4285714285714,4,2,1,5,0,1
67465,-71.4285714285714,4,2,1,75,0,1
68234,-83.3333333333333,4,2,1,75,0,1
68696,-90.9090909090909,4,2,2,75,0,1
69311,-90.9090909090909,4,2,1,75,0,1
69465,-83.3333333333333,4,2,1,75,0,1
70849,-83.3333333333333,4,2,2,75,0,1
71004,-83.3333333333333,4,2,1,75,0,1
71696,-83.3333333333333,4,2,2,75,0,1
71927,-76.9230769230769,4,2,1,75,0,1
72542,-83.3333333333333,4,2,1,75,0,1
75772,-83.3333333333333,4,2,2,75,0,1
75927,-83.3333333333333,4,2,1,75,0,1
76850,-83.3333333333333,4,2,2,75,0,1
77157,-83.3333333333333,4,2,1,75,0,1
77311,-76.9230769230769,4,2,1,75,0,1
78388,-83.3333333333333,4,2,1,75,0,1
79541,-83.3333333333333,4,2,1,5,0,1
79619,-76.9230769230769,4,2,1,75,0,1
81157,-76.9230769230769,4,2,2,75,0,1
81465,-76.9230769230769,4,2,1,75,0,1
81619,-71.4285714285714,4,2,1,75,0,1
83157,-76.9230769230769,4,2,1,75,0,1
83772,-76.9230769230769,4,2,2,75,0,1
84080,-76.9230769230769,4,2,1,75,0,1
85157,-76.9230769230769,4,2,1,75,0,0
86388,-76.9230769230769,4,2,1,5,0,0

[Colours]
Combo1 : 248,158,217
Combo2 : 244,64,64
Combo3 : 241,130,97
Combo4 : 233,170,249

[HitObjects]
33,190,388,6,0,B|70:181|70:181|103:196|103:196|141:187,1,112,2|0,2:0|2:0,2:0:0:0:
212,110,853,2,0,L|218:81,2,28,2|2|2,2:0|2:0|2:0,2:0:0:0:
228,138,1085,6,0,L|251:15,1,112,2|0,2:0|2:0,2:0:0:0:
334,81,1550,2,0,L|340:48,2,28,2|2|2,2:0|2:0|2:0,2:0:0:0:
350,109,1783,6,0,L|363:40,1,65.3333333333333,2|2,2:0|2:0,2:0:0:0:
440,153,2190,2,0,L|506:129,1,65.3333333333333,2|2,2:0|2:0,2:0:0:0:
429,248,2597,2,0,L|482:295,1,65.3333333333333,2|10,2:0|2:0,2:0:0:0:
491,305,2917,1,8,2:0:0:0:
491,305,3004,1,8,2:0:0:0:
256,192,3080,12,8,4080,2:0:0:0:
354,309,4388,6,0,L|366:371,2,63.0000000000001,2|2|2,2:0|2:0|2:0,2:0:0:0:
442,221,4850,2,0,L|454:158,1,63.0000000000001,2|2,2:0|2:0,2:0:0:0:
338,220,5157,1,2,2:0:0:0:
474,318,5311,1,2,2:0:0:0:
326,116,5465,6,0,B|268:127|268:127|231:164|231:164|174:175,1,168,14|0,3:0|2:0,2:0:0:0:
77,66,6080,2,0,P|133:49|180:87,1,112,2|0,2:0|2:0,2:0:0:0:
95,237,6542,1,10,3:0:0:0:
175,175,6696,6,0,L|284:196,1,112,8|0,3:0|2:0,2:0:0:0:
163,309,7157,2,0,L|53:330,1,112,6|2,3:0|2:0,2:0:0:0:
53,330,7619,1,8,3:0:0:0:
376,384,7927,6,0,B|387:326|387:326|366:277|366:277|378:219,1,168,14|2,3:0|2:0,2:0:0:0:
498,80,8696,1,10,3:0:0:0:
498,80,8850,1,4,3:0:0:0:
512,165,9004,6,0,B|428:178|441:113|354:132,1,168,14|2,3:0|2:0,2:0:0:0:
243,183,9619,1,8,3:0:0:0:
243,183,9696,1,8,3:0:0:0:
243,183,9773,1,10,3:0:0:0:
295,29,9927,1,8,3:0:0:0:
377,217,10080,1,6,3:0:0:0:
202,89,10234,1,4,3:0:0:0:
397,38,10388,6,0,P|380:112|371:180,1,140,10|2,2:0|2:0,2:0:0:0:
281,265,10850,2,0,P|226:277|174:242,1,105,10|0,2:0|2:0,2:0:0:0:
161,231,11157,2,0,L|148:162,1,70,10|0,2:0|2:0,2:0:0:0:
0,350,11465,6,0,B|48:359|48:359|89:342|89:342|138:351,1,140,14|0,3:0|2:0,2:0:0:0:
243,183,11927,2,0,L|227:104,1,70,8|8,2:0|2:0,2:0:0:0:
125,48,12234,1,8,2:0:0:0:
55,214,12388,1,8,2:0:0:0:
206,0,12542,1,8,2:0:0:0:
263,273,12696,1,8,2:0:0:0:
112,143,12850,5,8,2:0:0:0:
344,0,13004,1,8,2:0:0:0:
392,15,13080,1,8,2:0:0:0:
418,59,13157,1,8,2:0:0:0:
407,108,13234,1,8,2:0:0:0:
366,139,13311,2,0,L|318:129,1,42,8|8,2:0|2:0,2:0:0:0:
196,5,13465,5,10,2:0:0:0:
474,222,13619,1,10,2:0:0:0:
489,225,13927,6,0,B|432:213|432:213|383:234|383:234|326:223,1,168,14|10,3:0|3:0,2:0:0:0:
132,188,14388,1,10,2:0:0:0:
244,304,14542,2,0,L|225:209,1,84,10|0,3:0|2:0,2:0:0:0:
54,291,14850,2,0,L|37:373,1,84,10|8,3:0|2:0,2:0:0:0:
153,45,15157,6,0,P|75:23|22:88,1,168,10|2,3:0|2:0,2:0:0:0:
142,199,15619,1,10,2:0:0:0:
276,101,15773,2,0,P|317:108|358:118,1,84,10|0,3:0|2:0,2:0:0:0:
238,8,16080,1,10,3:0:0:0:
321,204,16234,1,10,2:0:0:0:
425,47,16388,1,2,2:0:0:0:
256,283,16542,5,8,3:0:0:0:
256,283,16696,1,10,3:0:0:0:
358,118,16850,1,10,2:0:0:0:
429,325,17004,2,0,P|475:331|511:310,1,84,10|0,3:0|2:0,2:0:0:0:
309,199,17311,2,0,P|267:192|226:183,1,84,10|8,3:0|2:0,2:0:0:0:
26,357,17619,6,0,P|91:314|82:214,1,168,8|10,3:0|3:0,2:0:0:0:
0,135,18080,1,10,2:0:0:0:
162,35,18234,2,0,P|153:76|145:117,1,84,2|8,2:0|3:0,2:0:0:0:
28,33,18542,1,10,2:0:0:0:
28,33,18619,1,8,2:0:0:0:
28,33,18696,1,10,2:0:0:0:
218,197,18850,6,0,B|274:186|274:186|322:206|322:206|378:195,1,168,14|10,3:0|3:0,2:0:0:0:
512,111,19311,1,10,2:0:0:0:
357,18,19465,2,0,L|340:100,1,84,10|0,3:0|2:0,2:0:0:0:
493,278,19773,2,0,L|476:195,1,84,10|8,3:0|2:0,2:0:0:0:
264,339,20080,6,0,P|341:356|382:266,1,168,10|10,3:0|3:0,2:0:0:0:
265,167,20542,1,10,2:0:0:0:
139,320,20696,2,0,P|132:278|123:237,1,84,2|8,2:0|3:0,2:0:0:0:
35,25,21004,1,10,2:0:0:0:
35,25,21080,1,8,2:0:0:0:
35,25,21157,1,10,2:0:0:0:
174,132,21311,6,0,P|131:125|91:115,1,84,14|0,3:0|2:0,2:0:0:0:
12,208,21619,2,0,L|27:286,1,70,8|0,3:0|2:0,2:0:0:0:
174,132,21927,2,0,L|189:53,1,70,8|4,3:0|3:0,2:0:0:0:
69,121,22234,1,4,3:0:0:0:
249,233,22388,1,8,3:0:0:0:
249,233,22542,1,8,3:0:0:0:
17,236,22696,5,10,2:0:0:0:
331,130,22850,1,10,2:0:0:0:
158,306,23157,5,14,2:0:0:0:
456,381,23465,5,8,3:0:0:0:
375,218,23619,1,4,3:0:0:0:
486,262,23773,1,8,3:0:0:0:
321,384,23927,5,14,3:0:0:0:
316,367,24234,2,0,L|303:304,1,56,10|0,3:0|2:0,2:0:0:0:
237,231,24542,2,0,L|258:121,1,112,10|8,3:0|3:0,2:0:0:0:
328,0,25004,1,2,2:0:0:0:
234,26,25157,5,10,3:0:0:0:
358,112,25311,2,0,L|436:96,1,56,2|8,2:0|3:0,2:0:0:0:
220,23,25619,2,0,L|157:10,1,56,2|8,2:0|3:0,2:0:0:0:
56,145,25927,2,0,L|118:132,1,56,2|8,2:0|3:0,2:0:0:0:
45,42,26234,1,2,2:0:0:0:
178,198,26388,5,8,3:0:0:0:
176,211,26696,2,0,L|163:273,1,56,10|0,3:0|2:0,2:0:0:0:
56,384,27004,2,0,P|100:355|168:388,1,112,10|8,3:0|3:0,2:0:0:0:
260,255,27465,1,2,2:0:0:0:
159,284,27619,5,10,3:0:0:0:
279,367,27773,2,0,P|308:361|341:354,1,56,2|8,2:0|3:0,2:0:0:0:
367,213,28080,2,0,P|358:243|346:273,1,56,2|8,2:0|3:0,2:0:0:0:
475,384,28388,2,0,P|441:340|441:285,1,112,2|0,2:0|2:0,2:0:0:0:
512,143,28850,6,0,B|469:134|469:134|445:141|445:141|402:132,1,112,10|8,3:0|3:0,2:0:0:0:
343,14,29311,1,2,2:0:0:0:
343,14,29465,2,0,P|381:2|434:53,1,112,10|8,3:0|3:0,2:0:0:0:
322,209,29927,1,2,2:0:0:0:
322,209,30080,6,0,P|312:156|300:99,1,112,10|8,3:0|3:0,2:0:0:0:
188,13,30542,1,2,2:0:0:0:
188,13,30696,2,0,B|129:9|143:47|83:43,1,112,10|8,3:0|3:0,2:0:0:0:
0,188,31157,6,0,P|33:193|78:203,1,63.0000000000001,2|8,2:0|3:0,2:0:0:0:
192,103,31465,2,0,P|171:129|139:163,1,63.0000000000001,2|8,2:0|3:0,2:0:0:0:
170,308,31773,2,0,P|157:276|143:232,2,63.0000000000001,2|8|0,2:0|3:0|2:0,2:0:0:0:
114,380,32234,1,8,3:0:0:0:
259,203,32388,5,10,2:0:0:0:
259,203,32465,1,8,2:0:0:0:
259,203,32542,2,0,L|215:222,1,31.5,8|8,2:0|2:3,2:3:0:0:
53,305,32696,1,10,2:0:0:0:
420,384,33004,5,10,2:0:0:0:
192,103,33311,5,10,3:0:0:0:
350,170,33465,2,0,L|337:101,1,70.0000000000001,8|0,2:0|2:0,2:0:0:0:
350,65,33696,1,8,2:0:0:0:
350,65,33773,5,12,3:0:0:0:
494,268,34080,2,0,L|399:249,1,70.0000000000001,10|0,2:0|2:0,2:0:0:0:
262,372,34388,2,0,P|309:338|295:251,1,140,10|8,3:0|2:0,2:0:0:0:
94,160,34850,1,2,2:0:0:0:
179,297,35004,5,10,3:0:0:0:
256,152,35157,2,0,L|240:73,1,70.0000000000001,10|8,3:0|2:0,2:0:0:0:
91,175,35465,2,0,L|75:253,1,70.0000000000001,10|0,3:0|2:0,2:0:0:0:
263,137,35773,2,0,L|247:58,1,70.0000000000001,10|8,3:0|2:0,2:0:0:0:
142,0,36080,1,2,2:0:0:0:
367,159,36234,5,10,3:0:0:0:
383,157,36542,2,0,L|461:141,1,70.0000000000001,10|0,2:0|2:0,2:0:0:0:
289,0,36850,2,0,L|261:141,1,140,10|8,3:0|2:0,2:0:0:0:
370,51,37311,1,2,2:0:0:0:
159,110,37465,5,2,2:0:0:0:
380,227,37619,2,0,P|373:192|366:158,1,70.0000000000001,2|8,2:0|2:0,2:0:0:0:
240,287,37927,2,0,P|273:298|306:310,1,70.0000000000001,2|0,2:0|2:0,2:0:0:0:
262,137,38234,2,0,P|234:159|208:182,1,70.0000000000001,2|8,2:0|2:0,2:0:0:0:
96,328,38542,1,2,2:0:0:0:
96,328,38619,1,2,2:0:0:0:
96,328,38696,6,0,P|82:255|68:186,1,140,10|8,2:3|2:0,2:0:0:0:
126,0,39157,1,2,2:0:0:0:
0,90,39311,2,0,B|47:99|47:99|87:82|87:82|135:91,1,140,10|8,2:3|2:0,2:0:0:0:
308,154,39773,1,2,2:0:0:0:
186,191,39927,5,10,2:3:0:0:
303,50,40080,2,0,L|368:73,1,70.0000000000001,10|8,2:3|2:0,2:0:0:0:
215,197,40388,2,0,L|201:128,1,70.0000000000001,10|0,2:3|2:0,2:0:0:0:
384,206,40696,2,0,L|332:253,1,70.0000000000001,10|8,2:3|2:0,2:0:0:0:
124,236,41004,1,10,2:3:0:0:
124,236,41080,1,8,2:3:0:0:
124,236,41157,5,10,2:0:0:0:
308,154,41311,1,10,2:0:0:0:
443,300,41619,5,10,2:0:0:0:
215,197,41773,1,10,2:0:0:0:
123,326,42080,5,10,2:0:0:0:
384,206,42234,1,10,2:0:0:0:
512,371,42542,5,10,2:0:0:0:
301,263,42696,1,10,2:0:0:0:
492,209,42850,1,8,3:0:0:0:
492,209,42927,1,8,3:0:0:0:
492,209,43004,5,10,2:0:0:0:
321,373,43157,2,0,P|312:317|301:263,1,112,10|0,2:0|2:0,2:0:0:0:
65,86,43619,6,0,P|40:140|80:185,1,126,14|0,2:3|2:0,2:0:0:0:
279,136,44080,1,10,2:3:0:0:
279,136,44157,1,4,2:3:0:0:
279,136,44234,2,0,P|343:147|404:160,1,126,14|0,2:0|2:0,2:0:0:0:
206,281,44696,6,0,P|194:218|181:157,1,126,12|8,3:0|3:0,2:0:0:0:
280,37,45157,1,4,3:0:0:0:
371,244,45311,2,0,P|430:257|478:220,1,126,14|10,3:0|3:0,2:0:0:0:
488,200,45696,1,4,3:0:0:0:
488,200,45773,1,10,2:0:0:0:
380,101,45927,1,2,2:0:0:0:
504,77,46080,6,0,P|444:90|362:104,1,126,14|0,3:0|2:0,2:0:0:0:
286,18,46542,1,10,2:3:0:0:
163,157,46696,2,0,P|220:140|276:198,1,126,8|10,2:0|2:3,2:0:0:0:
112,369,47157,6,0,B|68:360|68:360|39:332|39:332|-4:323,1,126,14|8,2:0|2:3,2:0:0:0:
106,241,47619,1,6,2:3:0:0:
232,383,47773,2,0,P|226:346|216:304,1,63.0000000000001,10|0,2:0|2:0,2:0:0:0:
354,239,48080,2,0,P|347:269|342:300,1,63.0000000000001,10|8,2:3|2:0,2:0:0:0:
189,186,48388,1,10,2:0:0:0:
189,186,48465,1,8,2:0:0:0:
189,186,48542,6,0,L|267:170,1,70.0000000000001,12|0,2:3|2:0,2:0:0:0:
403,16,48850,2,0,P|358:27|336:86,1,105,8|0,2:0|2:0,2:0:0:0:
388,148,49157,2,0,P|424:154|466:163,1,70.0000000000001,10|8,2:0|2:3,2:0:0:0:
512,93,49465,1,2,2:0:0:0:
382,244,49619,6,0,P|343:236|303:228,1,70.0000000000001,10|0,2:0|2:0,2:0:0:0:
182,145,49927,2,0,P|216:138|250:131,1,70.0000000000001,10|8,2:3|2:0,2:0:0:0:
310,329,50234,2,0,P|271:321|231:313,1,70.0000000000001,10|8,2:3|2:3,2:0:0:0:
80,161,50542,1,4,2:3:0:0:
237,232,50696,1,8,2:0:0:0:
102,384,50850,6,0,B|111:336|111:336|94:296|94:296|103:248,1,140,14|8,2:3|2:3,2:0:0:0:
261,97,51311,2,0,P|221:144|162:135,1,105,10|0,2:0|2:0,2:0:0:0:
112,70,51619,2,0,L|96:-8,1,70.0000000000001,10|0,2:0|2:0,2:0:0:0:
261,82,51927,1,10,2:3:0:0:
80,161,52080,6,0,L|1:145,1,70.0000000000001,10|0,2:0|2:0,2:0:0:0:
183,237,52388,1,10,3:0:0:0:
183,237,52465,1,8,3:0:0:0:
183,237,52542,1,8,3:0:0:0:
34,345,52696,2,0,L|24:297,2,35,10|4|0,2:3|2:3|2:0,2:0:0:0:
197,233,53004,1,10,2:3:0:0:
143,326,53157,1,4,2:3:0:0:
194,132,53311,6,0,B|248:142|248:142|284:177|284:177|338:188,1,154,14|10,2:3|2:0,2:0:0:0:
509,18,53773,1,10,2:0:0:0:
334,92,53927,1,10,2:0:0:0:
512,159,54080,1,10,2:0:0:0:
405,0,54234,1,10,2:0:0:0:
405,0,54311,1,8,2:0:0:0:
405,0,54388,2,0,L|414:47,1,38.5,10|8,2:0|2:0,2:0:0:0:
470,314,54542,5,10,2:0:0:0:
472,326,54850,5,2,2:0:0:0:
400,296,55004,1,2,2:0:0:0:
327,329,55157,1,2,2:0:0:0:
245,317,55311,5,2,2:0:0:0:
202,240,55465,1,2,2:0:0:0:
246,157,55619,1,2,2:0:0:0:
351,148,55773,1,2,2:0:0:0:
160,384,55927,6,0,B|137:292|198:316|175:221,1,168,12|8,3:0|2:0,2:0:0:0:
118,82,56388,1,2,2:0:0:0:
0,232,56542,2,0,P|47:239|94:250,1,84,10|8,2:3|2:3,2:0:0:0:
253,150,56850,1,8,2:0:0:0:
102,0,57004,6,0,P|108:41|117:82,1,84,10|0,2:3|2:0,2:0:0:0:
318,33,57311,2,0,P|273:16|227:1,1,84,10|8,2:3|2:0,2:0:0:0:
189,205,57619,2,0,P|225:174|261:142,1,84,10|0,2:3|2:0,2:0:0:0:
17,67,57927,2,0,P|26:108|32:149,1,84,10|8,2:3|2:0,2:0:0:0:
189,205,58234,1,2,2:0:0:0:
0,344,58388,6,0,B|26:313|66:316|66:316|99:360|145:357,1,168,10|10,2:3|2:0,2:0:0:0:
345,185,58850,2,0,P|390:188|434:229,1,84,2|8,2:0|2:3,2:0:0:0:
292,384,59157,2,0,P|285:340|273:289,1,84,10|8,2:3|2:0,2:0:0:0:
512,86,59465,6,0,B|500:144|500:144|521:193|521:193|509:247,1,168,10|10,2:3|2:3,2:0:0:0:
248,194,59927,1,10,2:0:0:0:
411,106,60080,1,10,2:3:0:0:
221,70,60234,5,2,2:0:0:0:
304,277,60388,1,10,2:3:0:0:
381,9,60542,1,10,2:0:0:0:
166,144,60696,5,10,2:0:0:0:
166,144,60773,1,8,2:0:0:0:
166,144,60850,2,0,P|257:156|313:85,1,168,14|8,3:0|2:0,2:0:0:0:
144,0,61311,1,2,2:0:0:0:
35,167,61465,2,0,P|44:208|52:250,1,84,10|8,2:3|2:3,2:0:0:0:
252,158,61773,1,8,2:0:0:0:
69,71,61927,1,10,2:3:0:0:
314,24,62080,5,2,2:0:0:0:
156,185,62234,2,0,P|155:141|174:90,1,84,10|8,2:3|2:0,2:0:0:0:
278,328,62542,2,0,P|240:350|186:359,1,84,10|0,2:3|2:0,2:0:0:0:
335,137,62850,2,0,P|373:158|408:200,1,84,10|8,2:3|2:0,2:0:0:0:
261,229,63157,1,2,2:0:0:0:
453,384,63311,6,0,P|514:333|499:254,1,168,10|8,2:3|2:0,2:0:0:0:
392,87,63773,1,2,2:0:0:0:
278,328,63927,5,10,2:3:0:0:
507,140,64080,1,10,2:3:0:0:
253,83,64234,1,10,2:0:0:0:
390,311,64388,6,0,P|396:269|405:228,1,84,14|0,2:3|2:0,2:0:0:0:
347,0,64696,1,10,2:3:0:0:
249,187,64850,1,10,2:0:0:0:
92,84,65004,6,0,B|149:72|149:72|198:93|198:93|254:83,1,168,14|10,2:3|2:3,2:0:0:0:
399,198,65465,1,10,2:0:0:0:
247,280,65619,1,2,2:0:0:0:
447,336,65773,5,8,2:3:0:0:
447,336,65927,1,8,2:3:0:0:
340,125,66080,1,8,2:0:0:0:
119,324,66234,6,0,P|197:342|247:280,1,168,14|10,2:3|2:3,2:0:0:0:
210,156,66696,1,6,2:3:0:0:
22,293,66850,6,0,B|32:241|32:241|13:197|13:197|23:145,1,147,10|0,2:3|2:0,2:0:0:0:
114,33,67157,6,0,B|103:84|103:84|122:128|122:128|113:174,1,147,10|0,2:3|2:0,2:0:0:0:
260,229,67465,6,0,P|292:153|210:156,1,196,14|10,2:3|2:3,2:0:0:0:
338,384,67927,1,10,2:0:0:0:
512,295,68080,1,10,2:0:0:0:
512,295,68157,1,8,2:0:0:0:
512,295,68234,6,0,B|455:283|455:283|407:304|407:304|350:293,1,168,14|2,2:3|2:0,2:0:0:0:
375,96,68696,2,0,P|383:133|390:171,1,77,10|0,2:3|2:0,2:0:0:0:
204,269,69004,2,0,P|211:231|219:193,1,77,6|0,2:3|2:0,2:0:0:0:
262,6,69311,1,10,2:3:0:0:
395,188,69465,6,0,P|473:200|513:132,1,168,14|8,2:3|2:0,2:0:0:0:
413,0,69927,1,10,2:3:0:0:
239,157,70080,6,0,P|152:139|66:123,1,168,14|8,2:3|2:0,2:0:0:0:
0,240,70542,1,2,2:0:0:0:
163,336,70696,2,0,P|153:289|144:241,1,84,10|10,2:3|2:3,2:0:0:0:
119,222,70927,1,4,2:3:0:0:
119,222,71004,2,0,L|106:284,1,42,10|8,2:3|2:0,2:0:0:0:
285,355,71157,1,10,2:0:0:0:
161,131,71311,1,10,2:0:0:0:
38,334,71465,5,10,2:0:0:0:
75,359,71542,1,8,2:0:0:0:
122,359,71619,1,10,2:0:0:0:
163,336,71696,1,8,2:3:0:0:
205,313,71773,1,6,2:3:0:0:
250,321,71850,1,4,2:3:0:0:
285,355,71927,6,0,P|266:265|250:176,1,182,14|8,3:0|2:0,2:0:0:0:
407,0,72388,1,2,2:0:0:0:
471,175,72542,2,0,P|426:165|381:157,1,84,10|8,2:3|2:3,2:0:0:0:
306,0,72850,1,8,2:0:0:0:
175,116,73004,6,0,P|167:71|157:26,1,84,10|0,2:3|2:0,2:0:0:0:
174,248,73311,2,0,P|216:263|259:277,1,84,10|8,2:3|2:0,2:0:0:0:
64,183,73619,2,0,P|28:212|-4:242,1,84,10|0,2:3|2:0,2:0:0:0:
272,295,73927,2,0,P|264:250|254:205,1,84,10|8,2:3|2:0,2:0:0:0:
107,330,74234,1,2,2:0:0:0:
362,222,74388,6,0,B|418:232|418:232|455:269|455:269|511:280,1,168,10|10,2:3|2:0,2:0:0:0:
455,29,74850,2,0,P|409:54|394:101,1,84,2|8,2:0|2:3,2:0:0:0:
508,190,75157,1,10,2:3:0:0:
508,190,75234,1,8,2:3:0:0:
508,190,75311,1,8,2:0:0:0:
310,29,75465,6,0,P|227:44|145:60,1,168,12|8,3:0|3:0,3:0:0:0:
0,142,75927,1,10,2:0:0:0:
202,205,76080,1,2,2:3:0:0:
78,286,76234,6,0,P|86:244|94:203,1,84,10|8,2:3|2:3,2:0:0:0:
290,119,76542,2,0,P|297:160|306:201,1,84,10|0,2:0|2:0,2:0:0:0:
377,352,76850,5,10,2:3:0:0:
413,372,76927,1,8,2:3:0:0:
454,372,77004,1,4,2:3:0:0:
490,351,77080,1,4,2:3:0:0:
512,316,77157,1,10,2:3:0:0:
270,302,77311,6,0,P|226:316|185:334,1,91,10|0,2:0|2:0,2:0:0:0:
447,233,77619,6,0,P|455:188|462:137,1,91,10|0,2:0|2:0,2:0:0:0:
178,172,77927,6,0,P|197:187|292:97,1,182,14|8,2:3|2:3,2:0:0:0:
145,0,78388,2,0,P|101:8|50:18,1,84,8|0,2:0|2:3,2:0:0:0:
21,153,78696,1,10,2:3:0:0:
217,87,78850,1,8,2:3:0:0:
217,87,78927,1,8,2:3:0:0:
217,87,79004,2,0,L|226:39,1,42,10|8,2:0|2:0,2:0:0:0:
8,162,79157,2,0,L|17:209,1,42,10|8,2:0|2:0,2:0:0:0:
207,269,79311,6,0,P|223:211|178:172,1,126,12|0,2:3|2:0,2:0:0:0:
106,279,79619,2,0,B|138:272|138:272|161:279|161:279|194:273,1,91,10|0,2:0|2:0,2:0:0:0:
392,202,79927,1,10,2:0:0:0:
293,150,80080,1,10,2:3:0:0:
383,308,80234,1,2,2:0:0:0:
479,158,80388,2,0,P|470:113|461:68,1,91,10|0,2:0|2:0,2:0:0:0:
280,241,80696,5,10,2:3:0:0:
478,297,80850,1,10,2:0:0:0:
309,384,81004,1,10,2:3:0:0:
392,202,81157,1,8,2:3:0:0:
392,202,81234,1,4,2:3:0:0:
392,202,81311,1,2,2:0:0:0:
199,307,81465,2,0,P|168:301|152:291,1,45.5,10|0,2:0|2:0,2:0:0:0:
254,150,81619,6,2,B|313:116|313:116|279:240,1,196,14|10,2:3|2:3,2:0:0:0:
9,368,82080,5,8,2:0:0:0:
73,178,82234,1,8,2:3:0:0:
134,384,82388,5,8,2:0:0:0:
68,162,82542,1,8,2:3:0:0:
0,384,82696,5,8,2:0:0:0:
160,110,82850,1,8,2:3:0:0:
160,110,82927,1,8,2:3:0:0:
160,110,83004,5,8,2:0:0:0:
312,266,83157,2,0,P|359:256|406:247,1,91,8|0,2:0|2:0,2:0:0:0:
454,52,83465,2,0,P|400:37|337:129,1,182,12|8,2:3|2:3,2:0:0:0:
512,246,83927,1,4,2:3:0:0:
442,150,84080,1,8,2:3:0:0:
332,382,84234,5,8,2:0:0:0:
386,251,84542,5,8,2:0:0:0:
178,364,84696,1,8,2:0:0:0:
73,221,85004,5,8,2:0:0:0:
263,301,85157,1,12,2:3:0:0:
256,192,85234,12,0,86388,2:0:0:0:
