osu file format v14

[General]
AudioFilename: audio.mp3
AudioLeadIn: 0
PreviewTime: 64582
Countdown: 0
SampleSet: Normal
StackLeniency: 0.7
Mode: 3
LetterboxInBreaks: 0
SpecialStyle: 0
WidescreenStoryboard: 0

[Editor]
DistanceSpacing: 0.6
BeatDivisor: 4
GridSize: 32
TimelineZoom: 1.2

[Metadata]
Title:Make debut! (TV Size)
TitleUnicode:Make debut! (TV Size)
Artist:Spica
ArtistUnicode:スピカ
Creator:Faputa
Version:Normal
Source:ウマ娘 プリティーダービー
Tags:Cygames スペシャルウィーク Special Week 和氣あず未 Waki Azumi サイレンススズカ Silence Suzuka 高野麻里佳 Kouno Marika トウカイテイオー Tokai Teio Machico ウオッカ Vodka 大橋彩香 Oohashi Ayaka ダイワスカーレット Daiwa Scarlet 木村千咲 Kimura Chisa ゴールドシップ Gold Ship 上田瞳 Ueda Hitomi メジロマックイーン Mejiro McQueen 大西沙織 Oonishi Saori Umamusume Pretty Derby Puritii Daabii ANIMATION DERBY 01 opening season 1 Japanese Video Game Anime J-pop Jpop
BeatmapID:2915063
BeatmapSetID:1414044

[Difficulty]
HPDrainRate:7.5
CircleSize:4
OverallDifficulty:7.5
ApproachRate:5
SliderMultiplier:1.4
SliderTickRate:1

[Events]
//Background and Video events
0,0,"uma.jpg",0,0
Video,-83,"video.mp4"
//Break Periods
//Storyboard Layer 0 (Background)
//Storyboard Layer 1 (Fail)
//Storyboard Layer 2 (Pass)
//Storyboard Layer 3 (Foreground)
//Storyboard Layer 4 (Overlay)
//Storyboard Sound Samples
Sample,75332,0,"Tom1.wav",50

[TimingPoints]
5333,333.333333333333,4,1,1,50,1,0
65166,-100,4,1,1,50,0,1
85499,-100,4,1,1,50,0,0

[HitObjects]
64,192,5999,5,0,0:0:0:0:
192,192,6166,1,0,0:0:0:0:
448,192,6332,1,0,0:0:0:0:
320,192,6499,1,0,0:0:0:0:
192,192,7166,1,0,0:0:0:0:
320,192,7499,1,0,0:0:0:0:
192,192,7832,128,0,8416:0:0:0:0:
64,192,8666,1,0,0:0:0:0:
192,192,8832,1,0,0:0:0:0:
320,192,8999,1,0,0:0:0:0:
448,192,9166,1,0,0:0:0:0:
320,192,9666,1,0,0:0:0:0:
192,192,9832,1,0,0:0:0:0:
64,192,10166,1,0,0:0:0:0:
448,192,10499,128,0,10916:0:0:0:0:
64,192,11166,1,0,0:0:0:0:
320,192,11332,1,0,0:0:0:0:
192,192,11499,1,0,0:0:0:0:
448,192,11666,1,0,0:0:0:0:
320,192,11832,1,0,0:0:0:0:
192,192,11999,1,0,0:0:0:0:
320,192,12332,1,0,0:0:0:0:
448,192,12499,128,0,12832:0:0:0:0:
192,192,13166,1,0,0:0:0:0:
64,192,13332,1,0,0:0:0:0:
320,192,13666,1,0,0:0:0:0:
192,192,13999,1,0,0:0:0:0:
448,192,14332,1,0,0:0:0:0:
320,192,14666,1,0,0:0:0:0:
64,192,14999,1,0,0:0:0:0:
192,192,15166,128,0,17332:0:0:0:0:
64,192,17332,1,4,0:0:0:0:
448,192,17332,1,2,0:0:0:0:
192,192,17666,1,0,0:0:0:0:
320,192,17999,1,0,0:0:0:0:
192,192,18332,1,0,0:0:0:0:
64,192,18499,1,4,0:0:0:0:
448,192,18499,1,2,0:0:0:0:
320,192,18999,1,0,0:0:0:0:
192,192,19166,1,0,0:0:0:0:
448,192,19499,1,0,0:0:0:0:
320,192,19832,1,0,0:0:0:0:
64,192,19999,1,2,0:0:0:0:
448,192,19999,1,4,0:0:0:0:
192,192,20499,1,0,0:0:0:0:
320,192,20916,1,0,0:0:0:0:
64,192,21166,1,0,0:0:0:50:Tom1.wav
192,192,21249,1,0,0:0:0:50:Tom1.wav
320,192,21332,1,0,0:0:0:50:Tom1.wav
448,192,21499,1,0,0:0:0:50:Tom2.wav
192,192,21666,1,0,0:0:0:50:Tom2.wav
64,192,21832,1,0,0:0:0:50:Tom3.wav
320,192,22166,1,0,0:0:0:50:Tom3.wav
64,192,22332,1,4,0:0:0:0:
448,192,22332,1,8,0:0:0:0:
448,192,22666,1,4,0:0:0:0:
64,192,22666,1,2,0:0:0:0:
192,192,22999,1,8,0:0:0:0:
320,192,22999,1,0,0:0:0:0:
64,192,23332,1,2,0:0:0:0:
448,192,23499,1,2,0:0:0:0:
320,192,23666,1,8,0:0:0:0:
192,192,23666,1,0,0:0:0:0:
64,192,23832,1,4,0:0:0:0:
448,192,23832,1,2,0:0:0:0:
192,192,24166,1,2,0:0:0:0:
64,192,24332,1,8,0:0:0:0:
320,192,24332,1,0,0:0:0:0:
192,192,24499,1,0,0:0:0:0:
64,192,24666,1,2,0:0:0:0:
320,192,24832,1,2,0:0:0:0:
192,192,24999,1,8,0:0:0:0:
448,192,24999,1,0,0:0:0:0:
320,192,25166,1,0,0:0:0:0:
64,192,25332,1,4,0:0:0:0:
448,192,25332,1,2,0:0:0:0:
192,192,25666,1,8,0:0:0:0:
320,192,25666,1,0,0:0:0:0:
64,192,25832,1,4,0:0:0:0:
448,192,25832,1,2,0:0:0:0:
448,192,26166,1,2,0:0:0:0:
64,192,26332,1,8,0:0:0:0:
192,192,26332,1,0,0:0:0:0:
64,192,26666,1,4,0:0:0:0:
448,192,26666,1,2,0:0:0:0:
192,192,26999,1,8,0:0:0:0:
320,192,26999,1,0,0:0:0:0:
64,192,27166,1,4,0:0:0:0:
448,192,27166,1,2,0:0:0:0:
64,192,27499,1,2,0:0:0:0:
320,192,27666,1,8,0:0:0:0:
448,192,27666,1,0,0:0:0:0:
192,192,27832,1,8,0:0:0:0:
64,192,27999,1,4,0:0:0:0:
448,192,27999,1,2,0:0:0:0:
64,192,28332,1,2,0:0:0:0:
192,192,28666,1,2,0:0:0:0:
320,192,28999,1,2,0:0:0:0:
448,192,29332,1,2,0:0:0:0:
448,192,29666,1,2,0:0:0:0:
192,192,29999,1,2,0:0:0:0:
192,192,30332,1,2,0:0:0:0:
320,192,30666,1,2,0:0:0:0:
320,192,30999,1,2,0:0:0:0:
320,192,31332,1,2,0:0:0:0:
192,192,31666,1,2,0:0:0:0:
448,192,31999,1,2,0:0:0:0:
448,192,32332,1,2,0:0:0:0:
320,192,32666,1,2,0:0:0:0:
320,192,32999,1,2,0:0:0:0:
192,192,33332,1,2,0:0:0:0:
192,192,33666,1,2,0:0:0:0:
64,192,33999,1,2,0:0:0:0:
64,192,34332,1,2,0:0:0:0:
320,192,34666,1,2,0:0:0:0:
320,192,34999,1,2,0:0:0:0:
320,192,35332,1,2,0:0:0:0:
320,192,35666,1,2,0:0:0:0:
192,192,35999,1,2,0:0:0:0:
192,192,36332,1,2,0:0:0:0:
320,192,36666,1,2,0:0:0:0:
320,192,36999,1,8,0:0:0:0:
448,192,36999,1,2,0:0:0:0:
64,192,37166,1,2,0:0:0:0:
192,192,37332,1,8,0:0:0:0:
448,192,37332,1,2,0:0:0:0:
320,192,37499,1,2,0:0:0:0:
192,192,37666,1,2,0:0:0:0:
64,192,37832,1,8,0:0:0:0:
320,192,37832,1,2,0:0:0:0:
448,192,37999,1,2,0:0:0:0:
192,192,38166,1,2,0:0:0:0:
320,192,38332,1,8,0:0:0:0:
64,192,38332,1,2,0:0:0:0:
64,192,38666,1,4,0:0:0:0:
448,192,38666,1,2,0:0:0:0:
320,192,38999,1,8,0:0:0:0:
448,192,38999,1,0,0:0:0:0:
320,192,39332,1,2,0:0:0:0:
192,192,39499,1,0,0:0:0:0:
64,192,39666,1,8,0:0:0:0:
448,192,39666,1,0,0:0:0:0:
320,192,39999,1,2,0:0:0:0:
64,192,40332,1,8,0:0:0:0:
192,192,40332,1,0,0:0:0:0:
320,192,40666,1,2,0:0:0:0:
448,192,40832,1,0,0:0:0:0:
64,192,40999,1,8,0:0:0:0:
192,192,40999,1,0,0:0:0:0:
64,192,41332,1,2,0:0:0:0:
320,192,41666,1,8,0:0:0:0:
448,192,41666,1,0,0:0:0:0:
192,192,41999,1,2,0:0:0:0:
64,192,42166,1,0,0:0:0:0:
320,192,42332,1,8,0:0:0:0:
448,192,42332,1,0,0:0:0:0:
448,192,42666,1,2,0:0:0:0:
192,192,42999,1,0,0:0:0:0:
64,192,42999,1,8,0:0:0:0:
320,192,43332,1,2,0:0:0:0:
448,192,43499,1,0,0:0:0:0:
64,192,43666,1,8,0:0:0:0:
192,192,43666,1,0,0:0:0:0:
64,192,43999,1,2,0:0:0:0:
192,192,44332,1,8,0:0:0:0:
448,192,44332,1,0,0:0:0:0:
64,192,44666,1,2,0:0:0:0:
320,192,44832,1,0,0:0:0:0:
192,192,44999,1,8,0:0:0:0:
448,192,44999,1,0,0:0:0:0:
320,192,45332,1,2,0:0:0:0:
64,192,45666,1,8,0:0:0:0:
320,192,45666,1,0,0:0:0:0:
448,192,45999,1,2,0:0:0:0:
192,192,46166,1,0,0:0:0:0:
64,192,46332,1,8,0:0:0:0:
320,192,46332,1,2,0:0:0:0:
192,192,46499,1,8,0:0:0:0:
64,192,46666,1,4,0:0:0:0:
448,192,46666,1,2,0:0:0:0:
64,192,46999,1,8,0:0:0:0:
192,192,46999,1,0,0:0:0:0:
448,192,47166,1,0,0:0:0:0:
320,192,47332,1,2,0:0:0:0:
192,192,47499,1,0,0:0:0:0:
320,192,47666,1,8,0:0:0:0:
448,192,47666,1,0,0:0:0:0:
64,192,47999,1,2,0:0:0:0:
320,192,48332,1,8,0:0:0:0:
448,192,48332,1,0,0:0:0:0:
192,192,48666,1,2,0:0:0:0:
320,192,48832,1,0,0:0:0:0:
64,192,48999,1,8,0:0:0:0:
192,192,48999,1,0,0:0:0:0:
320,192,49332,1,2,0:0:0:0:
64,192,49666,1,4,0:0:0:0:
448,192,49666,1,8,0:0:0:0:
64,192,49999,1,4,0:0:0:0:
448,192,49999,1,8,0:0:0:0:
320,192,50166,1,8,0:0:0:0:
192,192,50332,1,2,0:0:0:0:
64,192,50499,1,4,0:0:0:0:
448,192,50499,1,8,0:0:0:0:
192,192,50832,1,2,0:0:0:0:
320,192,50999,1,8,0:0:0:0:
64,192,51166,1,4,0:0:0:0:
448,192,51166,1,2,0:0:0:0:
320,192,51499,1,0,0:0:0:0:
448,192,51499,1,0,0:0:0:0:
192,192,51666,1,0,0:0:0:0:
64,192,51666,1,0,0:0:0:50:Tom1.wav
64,192,51999,1,4,0:0:0:0:
448,192,51999,1,2,0:0:0:0:
320,192,52332,1,8,0:0:0:0:
448,192,52332,1,0,0:0:0:0:
64,192,52499,1,0,0:0:0:0:
192,192,52832,1,0,0:0:0:0:
320,192,52999,1,8,0:0:0:0:
448,192,52999,1,0,0:0:0:0:
64,192,53166,1,0,0:0:0:0:
192,192,53332,1,2,0:0:0:0:
64,192,53666,1,8,0:0:0:0:
320,192,53666,1,0,0:0:0:0:
448,192,53832,1,8,0:0:0:0:
192,192,53832,1,0,0:0:0:0:
320,192,53999,1,2,0:0:0:0:
192,192,54166,1,0,0:0:0:0:
64,192,54332,1,8,0:0:0:0:
320,192,54332,1,0,0:0:0:0:
448,192,54499,1,0,0:0:0:0:
320,192,54666,1,2,0:0:0:0:
64,192,54999,1,8,0:0:0:0:
192,192,54999,1,0,0:0:0:0:
320,192,55166,1,8,0:0:0:0:
448,192,55166,1,0,0:0:0:0:
192,192,55332,1,2,0:0:0:0:
320,192,55666,1,8,0:0:0:0:
448,192,55666,1,0,0:0:0:0:
64,192,55832,1,0,0:0:0:0:
192,192,55999,1,2,0:0:0:0:
320,192,56166,1,0,0:0:0:0:
64,192,56332,1,8,0:0:0:0:
192,192,56332,1,0,0:0:0:0:
448,192,56499,1,0,0:0:0:0:
320,192,56666,1,2,0:0:0:0:
448,192,56832,1,0,0:0:0:0:
64,192,56999,1,8,0:0:0:0:
192,192,56999,1,0,0:0:0:0:
320,192,57166,1,8,0:0:0:0:
64,192,57332,1,4,0:0:0:0:
448,192,57332,1,2,0:0:0:0:
64,192,57666,1,8,0:0:0:0:
320,192,57666,1,0,0:0:0:0:
192,192,57832,1,0,0:0:0:0:
192,192,58166,1,0,0:0:0:0:
64,192,58332,1,8,0:0:0:0:
320,192,58332,1,0,0:0:0:0:
448,192,58499,1,0,0:0:0:0:
192,192,58666,1,2,0:0:0:0:
320,192,58999,1,8,0:0:0:0:
448,192,58999,1,0,0:0:0:0:
192,192,59166,1,0,0:0:0:0:
320,192,59332,1,2,0:0:0:0:
64,192,59499,1,0,0:0:0:0:
320,192,59666,1,8,0:0:0:0:
448,192,59666,1,0,0:0:0:0:
64,192,59999,1,4,0:0:0:0:
448,192,59999,1,2,0:0:0:0:
192,192,60166,1,2,0:0:0:0:
320,192,60332,1,8,0:0:0:0:
448,192,60332,1,0,0:0:0:0:
64,192,60499,1,2,0:0:0:0:
192,192,60666,1,2,0:0:0:0:
320,192,60832,1,2,0:0:0:0:
64,192,60999,1,8,0:0:0:0:
192,192,60999,1,0,0:0:0:0:
448,192,61166,1,2,0:0:0:0:
320,192,61332,1,2,0:0:0:0:
192,192,61499,1,2,0:0:0:0:
320,192,61666,1,8,0:0:0:0:
448,192,61666,1,0,0:0:0:0:
64,192,61832,1,2,0:0:0:0:
192,192,61999,1,2,0:0:0:0:
448,192,62166,1,10,0:0:0:0:
192,192,62332,1,8,0:0:0:0:
320,192,62332,1,2,0:0:0:0:
64,192,62499,1,2,0:0:0:0:
320,192,62666,1,8,0:0:0:0:
448,192,62666,1,2,0:0:0:0:
64,192,62832,1,8,0:0:0:0:
192,192,62832,1,2,0:0:0:0:
64,192,63166,1,8,0:0:0:0:
192,192,63166,1,2,0:0:0:0:
320,192,63332,1,8,0:0:0:0:
448,192,63332,1,2,0:0:0:0:
192,192,63666,1,8,0:0:0:0:
448,192,63666,1,2,0:0:0:0:
64,192,63832,1,8,0:0:0:0:
320,192,63832,1,2,0:0:0:0:
64,192,64166,1,8,0:0:0:0:
320,192,64166,1,2,0:0:0:0:
192,192,64332,1,8,0:0:0:0:
448,192,64332,1,2,0:0:0:0:
320,192,64666,1,8,0:0:0:0:
448,192,64666,1,0,0:0:0:0:
64,192,64832,1,8,0:0:0:0:
192,192,64832,1,0,0:0:0:0:
320,192,64999,1,8,0:0:0:0:
64,192,65166,1,4,0:0:0:0:
448,192,65166,1,2,0:0:0:0:
64,192,65666,1,8,0:0:0:0:
192,192,65666,1,0,0:0:0:0:
448,192,65832,128,0,66166:0:0:0:0:
192,192,66166,1,0,0:0:0:0:
64,192,66332,1,8,0:0:0:0:
320,192,66332,1,0,0:0:0:0:
448,192,66499,1,0,0:0:0:0:
192,192,66666,1,2,0:0:0:0:
320,192,66999,1,8,0:0:0:0:
448,192,66999,1,0,0:0:0:0:
192,192,67166,1,0,0:0:0:0:
64,192,67332,1,2,0:0:0:0:
448,192,67499,1,0,0:0:0:0:
192,192,67666,1,8,0:0:0:0:
320,192,67666,1,0,0:0:0:0:
64,192,67832,1,4,0:0:0:0:
448,192,67832,1,2,0:0:0:0:
320,192,68332,1,8,0:0:0:0:
448,192,68332,1,0,0:0:0:0:
64,192,68499,1,0,0:0:0:0:
192,192,68666,1,2,0:0:0:0:
448,192,68832,1,0,0:0:0:0:
64,192,68999,1,8,0:0:0:0:
320,192,68999,1,0,0:0:0:0:
448,192,69166,1,0,0:0:0:0:
192,192,69332,1,2,0:0:0:0:
64,192,69499,1,0,0:0:0:0:
320,192,69666,1,8,0:0:0:0:
448,192,69666,1,0,0:0:0:0:
192,192,69832,1,0,0:0:0:0:
448,192,69999,1,2,0:0:0:0:
320,192,70166,1,0,0:0:0:0:
64,192,70332,1,8,0:0:0:0:
448,192,70332,1,0,0:0:0:0:
320,192,70499,1,8,0:0:0:0:
192,192,70499,1,0,0:0:0:0:
448,192,70666,1,4,0:0:0:0:
64,192,70666,128,2,70999:0:0:0:0:
320,192,70999,1,8,0:0:0:0:
448,192,70999,1,0,0:0:0:0:
192,192,71166,1,0,0:0:0:0:
64,192,71332,1,2,0:0:0:0:
320,192,71499,1,0,0:0:0:0:
192,192,71666,1,8,0:0:0:0:
448,192,71666,1,0,0:0:0:0:
320,192,71832,1,0,0:0:0:0:
64,192,71999,1,2,0:0:0:0:
320,192,72332,1,8,0:0:0:0:
448,192,72332,1,0,0:0:0:0:
448,192,72666,1,2,0:0:0:0:
320,192,72832,1,0,0:0:0:0:
64,192,72999,1,8,0:0:0:0:
192,192,72999,1,0,0:0:0:0:
320,192,73332,1,2,0:0:0:0:
192,192,73666,1,8,0:0:0:0:
448,192,73666,1,0,0:0:0:0:
320,192,73832,1,0,0:0:0:0:
64,192,73999,1,2,0:0:0:0:
192,192,74166,1,0,0:0:0:0:
320,192,74332,1,8,0:0:0:0:
448,192,74332,1,0,0:0:0:0:
64,192,74499,1,0,0:0:0:0:
448,192,74666,1,2,0:0:0:0:
64,192,74999,1,8,0:0:0:0:
192,192,74999,1,0,0:0:0:0:
320,192,75166,1,0,0:0:0:0:
448,192,75332,1,2,0:0:0:0:
64,192,75499,1,0,0:0:0:0:
320,192,75666,1,8,0:0:0:0:
192,192,75666,1,0,0:0:0:0:
64,192,75832,1,4,0:0:0:0:
448,192,75832,1,2,0:0:0:0:
320,192,76332,1,8,0:0:0:0:
448,192,76332,1,0,0:0:0:0:
64,192,76499,1,0,0:0:0:0:
320,192,76666,1,2,0:0:0:0:
192,192,76832,1,0,0:0:0:0:
320,192,76999,1,8,0:0:0:0:
448,192,76999,1,0,0:0:0:0:
64,192,77166,1,0,0:0:0:0:
192,192,77332,1,2,0:0:0:0:
320,192,77666,1,8,0:0:0:0:
448,192,77666,1,0,0:0:0:0:
192,192,77832,1,0,0:0:0:0:
64,192,77999,1,2,0:0:0:0:
448,192,78166,1,0,0:0:0:0:
320,192,78332,1,8,0:0:0:0:
192,192,78332,1,0,0:0:0:0:
64,192,78499,1,4,0:0:0:0:
448,192,78499,1,0,0:0:0:0:
320,192,78999,1,8,0:0:0:0:
448,192,78999,1,0,0:0:0:0:
192,192,79166,1,0,0:0:0:0:
192,192,79499,1,0,0:0:0:0:
64,192,79666,1,8,0:0:0:0:
448,192,79666,1,0,0:0:0:0:
320,192,79832,1,0,0:0:0:0:
320,192,80166,1,0,0:0:0:0:
64,192,80332,1,8,0:0:0:0:
192,192,80332,1,0,0:0:0:0:
448,192,80499,1,0,0:0:0:0:
448,192,80832,1,0,0:0:0:0:
64,192,80999,1,8,0:0:0:0:
192,192,80999,1,0,0:0:0:0:
320,192,81166,1,8,0:0:0:0:
64,192,81332,1,4,0:0:0:0:
448,192,81332,1,2,0:0:0:0:
192,192,81499,1,2,0:0:0:0:
320,192,81666,1,8,0:0:0:0:
448,192,81666,1,0,0:0:0:0:
64,192,81832,1,8,0:0:0:0:
192,192,81999,1,2,0:0:0:0:
320,192,82166,1,8,0:0:0:0:
64,192,82332,1,8,0:0:0:0:
192,192,82332,1,0,0:0:0:0:
448,192,82499,1,0,0:0:0:0:
64,192,82666,1,2,0:0:0:0:
192,192,82832,1,2,0:0:0:0:
320,192,82999,1,8,0:0:0:0:
448,192,82999,1,0,0:0:0:0:
64,192,83166,1,8,0:0:0:0:
320,192,83332,1,2,0:0:0:0:
192,192,83499,1,2,0:0:0:0:
64,192,83666,1,8,0:0:0:0:
448,192,83666,1,0,0:0:0:0:
320,192,83832,1,2,0:0:0:0:
64,192,83999,1,4,0:0:0:0:
448,192,83999,1,2,0:0:0:0:
320,192,84332,1,8,0:0:0:0:
448,192,84332,1,2,0:0:0:0:
64,192,84499,1,8,0:0:0:0:
192,192,84499,1,2,0:0:0:0:
320,192,84666,1,8,0:0:0:0:
448,192,84666,1,2,0:0:0:0:
64,192,84832,1,8,0:0:0:0:
192,192,84832,1,2,0:0:0:0:
320,192,84999,1,8,0:0:0:0:
448,192,84999,1,2,0:0:0:0:
192,192,85166,1,10,0:0:0:0:
64,192,85332,1,8,0:0:0:0:
320,192,85332,1,2,0:0:0:0:
192,192,85499,1,8,0:0:0:0:
448,192,85499,1,2,0:0:0:0:
320,192,85791,1,0,0:0:0:0:
192,192,85957,1,0,0:0:0:0:
64,192,86124,1,0,0:0:0:0:
448,192,86624,128,0,87916:0:0:0:0:
