osu file format v14

[General]
AudioFilename: audio.mp3
AudioLeadIn: 0
PreviewTime:58560
Countdown: 0
SampleSet: Soft
StackLeniency: 0.4
Mode: 0
LetterboxInBreaks: 0
WidescreenStoryboard: 1

[Editor]
DistanceSpacing: 1
BeatDivisor: 4
GridSize: 16
TimelineZoom: 2.05

[Metadata]
Title:Grow Up-Shine! (TV Size)
TitleUnicode:グロウアップ・シャイン! (TV Size)
Artist:Spica
ArtistUnicode:スピカ
Creator:Huzz
Version:Normal!
Source:ウマ娘 プリティーダービー
Tags:tv anime japanese uma musume pretty derby season one 1 ending theme j pop jpop j-pop horse girls スペシャルウィーク special week 和氣あず未 waki azumi ajuju サイレンススズカ silence suzuka 高野麻里佳 kouno marika トウカイテイオー tokai teio machico toukai teiou ウオッカ vodka 大橋彩香 ohashi ayaka ダイワスカーレット daiwa scarlet 木村千咲 kimura chisa ゴールドシップ gold ship 上田瞳 ueda hitomi メジロマックイーン mejiro mcqueen 大西沙織 onishi saori oonishi team
BeatmapID:2942068
BeatmapSetID:1425992

[Difficulty]
HPDrainRate:3.2
CircleSize:3.6
OverallDifficulty:5
ApproachRate:6
SliderMultiplier:1
SliderTickRate:1

[Events]
//Background and Video events
0,0,"bg.jpg",0,0
Video,-205,"edmp4.mp4"
//Break Periods
//Storyboard Layer 0 (Background)
//Storyboard Layer 1 (Fail)
//Storyboard Layer 2 (Pass)
//Storyboard Layer 3 (Foreground)
//Storyboard Layer 4 (Overlay)
//Storyboard Sound Samples

[TimingPoints]
-190,344.827586206897,4,2,1,65,1,0
672,-111.111111111111,4,2,1,45,0,0
8861,-111.111111111111,4,2,1,5,0,0
8947,-111.111111111111,4,2,1,55,0,0
10844,-111.111111111111,4,2,1,65,0,0
12051,-90.9090909090908,4,2,1,70,0,0
16447,-90.9090909090908,4,2,1,5,0,0
16534,-90.9090909090908,4,2,1,70,0,0
17051,-90.9090909090908,4,2,2,70,0,0
17223,-90.9090909090908,4,2,1,70,0,0
18085,-90.9090909090908,4,2,1,60,0,0
20155,-90.9090909090908,4,2,3,60,0,0
20499,-90.9090909090908,4,2,1,60,0,0
21534,-90.9090909090908,4,2,2,60,0,0
21706,-90.9090909090908,4,2,1,60,0,0
23603,-111.111111111111,4,2,1,60,0,0
27913,-111.111111111111,4,2,2,60,0,0
28430,-111.111111111111,4,2,1,60,0,0
31189,-111.111111111111,4,2,3,60,0,0
31534,-111.111111111111,4,2,1,60,0,0
41189,-111.111111111111,4,2,3,60,0,0
41361,-111.111111111111,4,2,1,60,0,0
42568,-111.111111111111,4,2,3,60,0,0
42741,-111.111111111111,4,2,1,60,0,0
43775,-111.111111111111,4,2,3,60,0,0
44292,-111.111111111111,4,2,1,60,0,0
44982,-111.111111111111,4,2,2,60,0,0
45154,-111.111111111111,4,2,1,60,0,0
48430,-99.9999999999999,4,2,1,60,0,0
48602,-99.9999999999999,4,2,2,60,0,0
48947,-99.9999999999999,4,2,1,60,0,0
51189,-111.111111111111,4,2,1,60,0,0
53947,-100,4,2,1,60,0,0
54119,-100,4,2,2,60,0,0
54292,-100,4,2,1,60,0,0
55499,-100,4,2,2,60,0,0
55672,-100,4,2,1,60,0,0
58947,-90.9090909090909,4,2,1,75,0,1
67051,-90.9090909090909,4,2,3,75,0,1
67396,-90.9090909090909,4,2,1,75,0,1
68430,-90.9090909090909,4,2,2,75,0,1
68603,-90.9090909090909,4,2,1,75,0,1
79810,-90.9090909090909,4,2,1,75,0,0
80154,-90.9090909090909,4,2,2,75,0,0
80499,-100,4,2,1,75,0,0
84120,-100,4,2,2,75,0,0
84465,-100,4,2,1,75,0,0
84637,-100,4,2,2,75,0,0
84982,-100,4,2,1,75,0,0
85671,-100,4,2,2,75,0,0
86016,-100,4,2,1,75,0,0
87741,-100,4,2,2,75,0,0
87913,-125,4,2,1,75,0,0
88085,-125,4,2,1,35,0,0

[Colours]
Combo1 : 239,202,90
Combo2 : 240,66,166
Combo3 : 50,222,119
Combo4 : 65,187,233

[HitObjects]
53,99,672,6,0,L|-9:111,2,45.1079986267091,2|2|2,2:0|2:0|2:0,2:0:0:0:
78,61,1189,2,0,P|113:50|176:79,1,90.2159972534182,2|2,2:0|2:0,2:0:0:0:
183,105,1706,2,0,L|164:201,1,90.2159972534182,2|2,2:0|2:0,2:0:0:0:
209,272,2396,1,2,2:0:0:0:
209,272,2568,6,0,P|242:290|302:277,1,90.2159972534182,2|2,2:0|2:0,2:0:0:0:
322,249,3085,2,0,P|364:235|418:262,1,90.2159972534182,2|0,2:0|2:0,2:0:0:0:
438,281,3603,1,2,2:0:0:0:
495,212,3947,6,0,L|515:104,1,90.2159972534182,2|2,2:0|2:0,2:0:0:0:
478,93,4465,2,0,B|431:87|436:114|391:110,1,90.2159972534182,2|2,2:0|2:0,2:0:0:0:
282,29,5327,2,0,P|300:63|239:126,2,135.062995880127,2|2|2,2:0|2:0|2:0,2:0:0:0:
192,40,6706,6,0,L|91:20,1,89.9999972534181,2|2,2:0|2:0,2:0:0:0:
71,53,7223,1,2,2:0:0:0:
71,53,7396,2,0,L|8:65,2,44.999998626709,2|2|2,2:0|2:0|2:0,2:0:0:0:
59,142,8085,6,0,L|49:189,2,45.1079986267091,2|2|2,2:0|2:0|2:0,2:0:0:0:
94,170,8603,2,0,P|141:192|190:178,1,89.9999972534181,2|2,2:0|2:0,2:0:0:0:
247,250,9292,1,2,2:0:0:0:
247,250,9465,5,2,2:0:0:0:
303,319,9810,1,2,2:0:0:0:
391,329,10154,1,2,2:0:0:0:
449,260,10499,1,2,2:0:0:0:
449,169,10844,6,0,P|398:177|354:187,2,90.0854972534182,2|2|2,2:0|2:0|3:0,2:0:0:0:
506,100,11878,1,10,2:0:0:0:
506,100,12051,6,0,P|465:61|406:66,1,110.264003356934,6|0,3:0|3:0,2:0:0:0:
370,95,12568,2,0,L|307:82,1,55.1320016784669,10|0,2:0|3:0,2:0:0:0:
277,46,12913,2,0,P|220:54|158:68,1,110.264003356934,10|8,2:0|2:0,2:0:0:0:
72,11,13603,5,8,2:0:0:0:
15,104,13947,2,0,L|27:166,1,55.1320016784669,10|0,2:0|3:0,2:0:0:0:
78,173,14292,2,0,L|53:298,1,110.264003356934,10|8,2:0|2:0,2:0:0:0:
126,366,14982,5,10,2:0:0:0:
126,366,15154,2,0,P|163:373|189:359,1,55.1320016784669,2|8,3:0|2:0,2:0:0:0:
208,321,15499,1,2,3:0:0:0:
301,262,15844,2,0,L|363:274,1,55.1320016784669,2|8,3:0|2:0,2:0:0:0:
406,251,16189,2,0,P|430:217|411:141,1,110.264003356934,6|10,3:0|2:0,2:0:0:0:
373,124,16706,2,0,L|310:136,1,55.1320016784669,2|10,3:0|2:0,2:0:0:0:
276,108,17051,1,10,3:0:0:0:
276,108,17223,2,0,L|213:95,1,55.1320016784669,10|10,2:0|2:0,2:0:0:0:
175,126,17568,5,6,3:0:0:0:
123,224,17913,1,0,3:0:0:0:
123,224,18085,2,0,L|138:302,1,55.1320016784669,10|0,2:0|3:0,2:0:0:0:
151,330,18430,2,0,P|186:351|263:326,1,110.264003356934,10|8,2:0|2:0,2:0:0:0:
317,250,19120,5,8,2:0:0:0:
393,328,19465,2,0,L|455:340,1,55.1320016784669,10|0,2:0|3:0,2:0:0:0:
488,302,19810,2,0,B|480:263|480:263|494:230|494:230|486:192,1,110.264003356934,10|12,2:0|2:0,2:0:0:0:
405,122,20499,6,0,L|417:59,1,55.1320016784669,14|2,2:0|3:0,2:0:0:0:
399,20,20844,1,10,2:0:0:0:
399,20,21016,2,0,P|338:0|287:32,1,110.264003356934,6|10,3:0|2:0,2:0:0:0:
259,57,21534,1,10,3:0:0:0:
259,57,21706,1,2,3:0:0:0:
178,131,22051,5,2,2:0:0:0:
178,131,22223,1,2,2:0:0:0:
94,98,22568,1,2,2:0:0:0:
35,166,22913,1,2,2:0:0:0:
80,243,23258,5,12,3:0:0:0:
168,224,23603,2,0,P|215:232|262:242,2,90.0854972534182,10|10|10,3:0|3:0|3:0,2:0:0:0:
79,243,24637,2,0,P|43:267|-1:268,2,90.0854972534182,8|8|8,3:0|3:0|3:0,2:0:0:0:
73,202,25499,1,2,2:0:0:0:
73,202,25672,2,0,L|85:139,1,45.1079986267091,10|2,3:0|2:0,2:0:0:0:
63,111,26016,6,0,L|157:92,1,90.2159972534182,10|8,3:0|3:0,2:0:0:0:
183,55,26534,1,2,2:0:0:0:
183,55,26706,1,10,3:0:0:0:
252,112,27051,2,0,L|299:121,1,45.1079986267091,8|2,3:0|2:0,2:0:0:0:
337,101,27396,2,0,P|376:78|426:91,1,90.2159972534182,10|2,3:0|3:0,2:0:0:0:
450,124,27913,1,8,3:0:0:0:
450,124,28085,2,0,L|462:186,2,45.1079986267091,10|4|10,3:0|3:0|2:0,2:0:0:0:
486,97,28603,5,6,3:0:0:0:
437,27,28947,1,2,3:0:0:0:
437,27,29120,1,10,2:0:0:0:
351,56,29465,2,0,L|288:43,1,45.1079986267091,2|2,3:0|3:0,2:0:0:0:
267,64,29810,1,10,2:0:0:0:
267,64,29982,2,0,P|276:107|284:152,1,90.2159972534182,2|2,2:0|3:0,2:0:0:0:
229,224,30672,2,0,P|172:240|133:220,1,90.2159972534182,2|2,2:0|3:0,2:0:0:0:
112,198,31189,1,12,2:0:0:0:
46,259,31534,6,0,L|64:353,1,90.2159972534182,4|10,3:0|2:0,2:0:0:0:
107,379,32051,1,2,2:0:0:0:
107,379,32223,2,0,L|119:316,2,45.1079986267091,2|2|10,3:0|3:0|2:0,2:0:0:0:
197,384,32913,2,0,L|244:374,1,45.1079986267091,10|10,2:0|2:0,2:0:0:0:
276,346,33258,1,10,2:0:0:0:
276,346,33430,1,10,2:0:0:0:
359,380,33775,2,0,P|392:383|438:347,1,90.2159972534182,2|0,2:0|2:0,2:0:0:0:
433,305,34292,5,14,3:0:0:0:
497,242,34637,1,10,3:0:0:0:
442,169,34982,2,0,L|432:121,1,45.1079986267091,10|2,3:0|2:0,2:0:0:0:
437,83,35327,1,10,3:0:0:0:
437,83,35499,6,0,L|389:73,1,45.1079986267091,2|8,2:0|3:0,2:0:0:0:
360,42,35844,2,0,L|297:54,1,45.1079986267091,2|8,2:0|3:0,2:0:0:0:
280,78,36189,1,2,2:0:0:0:
200,36,36534,1,2,2:0:0:0:
141,104,36878,1,2,2:0:0:0:
141,104,37051,5,8,3:0:0:0:
85,33,37396,2,0,P|55:28|30:37,1,44.999998626709,0|0,2:0|2:0,2:0:0:0:
15,68,37741,2,0,P|0:96|-1:118,1,45.1079986267091,10|2,3:0|2:0,2:0:0:0:
30,147,38085,1,10,3:0:0:0:
30,147,38258,5,2,2:0:0:0:
92,212,38603,1,2,2:0:0:0:
64,300,38947,1,10,2:0:0:0:
64,300,39120,2,0,L|126:287,2,45.1079986267091,10|2|2,2:0|3:0|2:0,2:0:0:0:
22,283,39637,6,0,P|-1:246|4:187,1,90.2159972534182,6|2,3:0|3:0,2:0:0:0:
29,167,40154,1,10,2:0:0:0:
122,161,40499,1,2,3:0:0:0:
122,161,40672,2,0,L|169:170,2,45.1079986267091,2|10|2,3:0|2:0|2:0,2:0:0:0:
109,117,41189,2,0,P|95:75|115:29,1,90.2159972534182,6|10,3:0|2:0,2:0:0:0:
154,22,41706,2,0,L|248:3,1,90.2159972534182,6|0,3:0|3:0,2:0:0:0:
303,77,42396,1,10,2:0:0:0:
303,77,42568,6,0,P|288:133|280:183,1,90.2159972534182,6|10,3:0|2:0,2:0:0:0:
305,203,43085,2,0,P|342:225|394:213,1,89.9999972534181,6|2,3:0|3:0,2:0:0:0:
429,198,43603,1,10,2:0:0:0:
429,198,43775,1,6,3:0:0:0:
500,267,44120,1,2,3:0:0:0:
500,267,44292,2,0,L|487:329,1,45.1079986267091,10|0,2:0|3:0,2:0:0:0:
479,354,44637,2,0,L|416:366,1,45.1079986267091,10|0,2:0|3:0,2:0:0:0:
398,335,44982,2,0,L|335:322,1,45.1079986267091,10|2,3:0|2:0,2:0:0:0:
314,358,45327,5,4,3:0:0:0:
243,301,45672,2,0,L|180:313,2,45.1079986267091,2|2|2,3:0|2:0|3:0,2:0:0:0:
292,226,46361,2,0,L|354:238,2,45.1079986267091,2|2|2,3:0|2:0|3:0,2:0:0:0:
240,152,47051,2,0,L|195:160,1,45.1079986267091,2|2,3:0|2:0,2:0:0:0:
153,145,47396,2,0,P|122:119|120:57,1,90.2159972534182,2|10,3:0|2:0,2:0:0:0:
140,35,47913,5,6,3:0:0:0:
228,9,48258,1,2,3:0:0:0:
228,9,48430,2,0,L|290:21,1,50.1200000000001,10|8,2:0|3:0,2:0:0:0:
312,53,48775,2,0,L|374:40,1,50.1200000000001,6|10,3:0|2:0,2:0:0:0:
403,16,49120,1,2,2:0:0:0:
403,16,49292,1,6,3:0:0:0:
475,147,49810,5,10,2:0:0:0:
503,242,50154,2,0,L|490:304,1,50.1200000000001,2|0,3:0|3:0,2:0:0:0:
454,323,50499,2,0,P|420:332|387:324,1,50,10|2,2:0|2:0,2:0:0:0:
367,298,50844,5,6,3:0:0:0:
331,215,51189,2,0,L|343:152,2,45.1079986267091,2|2|2,3:0|2:0|3:0,2:0:0:0:
270,281,51878,2,0,L|282:343,2,45.1079986267091,2|2|2,3:0|2:0|3:0,2:0:0:0:
216,208,52568,2,0,L|228:145,1,45.1079986267091,2|2,3:0|2:0,2:0:0:0:
206,122,52913,2,0,P|164:103|113:116,1,89.9999972534181,2|10,3:0|2:0,2:0:0:0:
89,141,53430,1,6,3:0:0:0:
52,225,53775,5,2,3:0:0:0:
52,225,53947,2,0,L|64:287,1,50.1200000000001,10|8,2:0|3:0,2:0:0:0:
62,328,54292,1,0,3:0:0:0:
62,328,54465,2,0,L|124:340,1,50.1200000000001,2|10,3:0|2:0,2:0:0:0:
158,319,54810,1,6,3:0:0:0:
254,358,55154,1,2,3:0:0:0:
254,358,55327,2,0,L|240:289,1,50.1200000000001,10|10,2:0|3:0,2:0:0:0:
239,259,55672,2,0,P|276:218|338:228,1,100.24,10|10,2:0|2:0,2:0:0:0:
396,278,56361,5,6,3:0:0:0:
473,214,56706,2,0,B|479:178|479:178|472:151|472:151|479:116,1,100.24,10|8,2:0|2:0,2:0:0:0:
461,67,57223,2,0,P|420:42|372:51,1,100.24,2|0,3:0|3:0,2:0:0:0:
344,93,57741,2,0,L|281:105,1,50.1200000000001,10|10,2:0|2:0,2:0:0:0:
250,79,58085,1,10,2:0:0:0:
123,229,58947,6,0,L|60:216,1,55.1320016784669,6|0,3:0|2:0,2:0:0:0:
27,181,59292,2,0,P|16:151|30:111,1,55.1320016784669,10|2,2:0|3:0,2:0:0:0:
60,91,59637,2,0,L|185:66,1,110.264003356934,10|10,2:0|2:0,2:0:0:0:
247,153,60327,1,10,2:0:0:0:
247,153,60499,2,0,L|325:168,1,55.1320016784669,2|10,3:0|2:0,2:0:0:0:
349,137,60844,2,0,L|411:124,1,55.1320016784669,2|10,3:0|2:0,2:0:0:0:
447,93,61189,1,2,3:0:0:0:
512,182,61534,2,0,L|499:244,1,55.1320016784669,2|10,3:0|2:0,2:0:0:0:
465,277,61878,6,0,L|480:355,1,55.1320016784669,2|10,3:0|2:0,2:0:0:0:
448,380,62223,1,2,3:0:0:0:
448,380,62396,2,0,B|407:372|407:372|383:353|383:353|342:345,1,110.264003356934,10|8,2:0|2:0,2:0:0:0:
296,370,62913,2,0,L|234:386,1,55.0000016784668,2|10,3:0|2:0,2:0:0:0:
210,339,63258,5,2,3:0:0:0:
271,247,63603,1,2,3:0:0:0:
229,145,63947,2,0,L|240:91,1,55.1320016784669,2|10,3:0|2:0,2:0:0:0:
290,69,64292,2,0,L|277:6,1,55.1320016784669,2|10,3:0|2:0,2:0:0:0:
226,0,64637,6,0,P|174:-1|125:54,1,110.264003356934,2|2,3:0|3:0,2:0:0:0:
108,87,65154,1,10,2:0:0:0:
108,87,65327,2,0,L|45:74,1,55.1320016784669,2|10,3:0|2:0,2:0:0:0:
11,111,65672,1,2,3:0:0:0:
34,218,66016,6,0,L|46:280,1,55.1320016784669,2|10,3:0|2:0,2:0:0:0:
14,318,66361,1,2,3:0:0:0:
103,382,66706,2,0,P|133:382|165:369,1,55.1320016784669,2|8,3:0|2:0,2:0:0:0:
183,326,67051,2,0,L|170:263,1,55.1320016784669,6|8,3:0|2:0,2:0:0:0:
210,231,67396,6,0,B|250:238|250:238|274:257|274:257|315:265,1,110.264003356934,6|2,3:0|3:0,2:0:0:0:
355,230,67913,1,10,2:0:0:0:
355,230,68085,2,0,L|417:217,2,55.1320016784669,2|10|10,3:0|2:0|3:0,2:0:0:0:
317,188,68603,1,14,2:0:0:0:
381,98,68947,1,8,2:0:0:0:
381,98,69120,2,0,L|459:113,1,55.1320016784669,0|8,3:0|2:0,2:0:0:0:
486,87,69465,1,0,3:0:0:0:
341,6,69982,6,0,P|296:-1|240:47,1,110.264003356934,6|10,3:0|2:0,2:0:0:0:
266,90,70499,1,2,3:0:0:0:
266,90,70672,2,0,L|253:152,1,55.1320016784669,10|0,2:0|3:0,2:0:0:0:
214,180,71016,1,10,2:0:0:0:
301,255,71361,1,10,2:0:0:0:
301,255,71534,2,0,L|313:317,1,55.1320016784669,2|10,3:0|2:0,2:0:0:0:
287,358,71878,2,0,P|256:370|226:364,1,55.1320016784669,2|10,3:0|2:0,2:0:0:0:
196,327,72223,1,2,3:0:0:0:
97,375,72568,2,0,L|34:362,1,55.1320016784669,2|10,3:0|2:0,2:0:0:0:
10,319,72913,6,0,P|-4:286|28:213,1,110.264003356934,2|2,3:0|3:0,2:0:0:0:
66,189,73430,2,0,L|127:205,1,55.0000016784668,10|0,2:0|3:0,2:0:0:0:
226,191,73947,2,0,P|243:166|249:130,1,55.1320016784669,2|10,3:0|2:0,2:0:0:0:
231,95,74292,1,2,3:0:0:0:
231,95,74465,2,0,L|309:79,2,55.1320016784669,10|2|10,2:0|3:0|2:0,2:0:0:0:
188,59,74982,1,2,3:0:0:0:
97,0,75327,1,2,3:2:0:0:
9,56,75672,6,0,L|-3:118,1,55.1320016784669,2|10,3:0|2:0,2:0:0:0:
41,143,76016,2,0,L|53:205,1,55.1320016784669,2|10,3:0|2:0,2:0:0:0:
19,241,76361,2,0,L|6:303,1,55.0000016784668,2|10,3:0|2:0,2:0:0:0:
47,334,76706,1,2,3:0:0:0:
150,297,77051,6,0,L|170:219,1,55.0000016784668,4|8,3:0|2:0,2:0:0:0:
152,195,77396,1,0,3:0:0:0:
152,195,77568,2,0,P|146:159|201:104,1,110.264003356934,14|8,2:0|2:0,2:0:0:0:
241,126,78085,2,0,L|303:113,1,55.1320016784669,8|10,2:0|2:0,2:0:0:0:
331,74,78430,5,6,3:0:0:0:
422,29,78775,1,2,3:0:0:0:
490,114,79120,2,0,L|477:176,1,55.1320016784669,2|8,3:0|2:0,2:0:0:0:
444,210,79465,2,0,L|456:272,1,55.1320016784669,2|8,3:0|2:0,2:0:0:0:
493,295,79810,1,2,3:0:0:0:
413,355,80154,1,6,3:0:0:0:
328,300,80499,2,0,L|340:237,2,50.1200000000001,10|8|2,2:0|2:0|3:0,2:0:0:0:
299,340,81016,6,0,P|269:358|197:346,1,100.24,6|0,3:0|3:0,2:0:0:0:
171,315,81534,2,0,L|158:252,1,50.1200000000001,10|0,2:0|3:0,2:0:0:0:
198,232,81878,2,0,L|219:122,1,100.24,10|8,2:0|2:0,2:0:0:0:
171,44,82568,1,8,2:0:0:0:
264,8,82913,2,0,L|326:-4,1,50.1200000000001,10|0,2:0|3:0,2:0:0:0:
352,29,83258,2,0,L|461:50,1,100.24,10|8,2:0|2:0,2:0:0:0:
502,139,83947,5,6,3:0:0:0:
502,139,84120,2,0,L|514:201,1,50.1200000000001,10|10,3:0|3:0,2:0:0:0:
488,234,84465,1,10,2:0:0:0:
488,234,84637,2,0,L|475:296,1,50.1200000000001,6|6,3:0|3:0,2:0:0:0:
506,324,84982,1,8,2:0:0:0:
506,324,85154,1,2,3:0:0:0:
423,379,85499,2,0,L|360:366,1,50.1200000000001,10|10,2:0|3:0,2:0:0:0:
338,341,85844,1,6,3:0:0:0:
338,341,86016,2,0,P|313:361|261:365,2,75.0350000000001,2|2|2,3:0|3:0|3:0,2:0:0:0:
355,293,86706,6,0,L|333:183,1,100.24,14|0,2:0|2:0,2:0:0:0:
358,150,87223,1,2,3:0:0:0:
358,150,87396,1,10,2:0:0:0:
282,84,87741,1,4,3:0:0:0:
282,84,87913,6,0,B|177:54|194:143|93:118,1,200.016,6|0,3:0|2:0,2:0:0:0:
