osu file format v14

[General]
AudioFilename: audio.ogg
AudioLeadIn: 0
PreviewTime: 57926
Countdown: 0
SampleSet: Normal
StackLeniency: 0.7
Mode: 1
LetterboxInBreaks: 0
WidescreenStoryboard: 0

[Editor]
DistanceSpacing: 0.3
BeatDivisor: 2
GridSize: 32
TimelineZoom: 1.4

[Metadata]
Title:Akogare Challenge Dash!! (TV Size)
TitleUnicode:アコガレChallenge Dash!! (TV Size)
Artist:Spica
ArtistUnicode:スピカ
Creator:komasy
Version:Futsuu!!
Source:ウマ娘 プリティーダービー Season 3
Tags:Anime Japanese J-POP JPOP J POP Umamusume Pretty Derby Ending ED Theme 真崎エリカ Masaki Erika Erica 桑原聖 Kuwabara Satoru 酒井拓也 Sakai Takuya Arte Refact キタサンブラック Kitasan Black 矢野妃菜喜 Yano Hinaki スペシャルウィーク Special Week 和氣あず未 Waki Azumi サイレンススズカ Silence Suzuka 高野麻里佳 Kono Kouno Kohno Marika トウカイテイオー Tokai Teio Machico ウオッカ Vodka 大橋彩香 Ohashi Oohashi Ayaka ダイワスカーレット Daiwa Scarlet 木村千咲 Kimura Chisa ゴールドシップ Gold Ship 上田瞳 Ueda Hitomi メジロマックイーン Mejiro McQueen 大西沙織 Onishi Ohnishi Oonishi Saori Cygames Animation vol.2 LACM-24453 pottee PoxTeyChiz
BeatmapID:4341091
BeatmapSetID:2073975

[Difficulty]
HPDrainRate:7
CircleSize:7
OverallDifficulty:4
ApproachRate:10
SliderMultiplier:1.4
SliderTickRate:1

[Events]
//Background and Video events
0,0,"Futsuu.jpg",0,60
//Break Periods
//Storyboard Layer 0 (Background)
//Storyboard Layer 1 (Fail)
//Storyboard Layer 2 (Pass)
//Storyboard Layer 3 (Foreground)
//Storyboard Layer 4 (Overlay)
//Storyboard Sound Samples

[TimingPoints]
505,312.5,4,1,0,30,1,0
5505,-100,4,1,0,80,0,0
12985,-100,4,1,0,90,0,0
13005,-100,4,1,0,90,0,1
22985,-100,4,1,0,70,0,1
23005,-100,4,1,0,70,0,0
32985,-100,4,1,0,80,0,0
57985,-100,4,1,0,90,0,0
58005,-100,4,1,0,90,0,1
67380,-100,4,1,0,90,0,0
68005,-100,4,1,0,90,0,1
87926,-100,4,1,0,50,0,1
89176,-100,4,1,0,90,0,0

[HitObjects]
160,96,5505,5,0,0:0:0:0:
352,96,5817,5,8,0:0:0:0:
352,96,6130,5,8,0:0:0:0:
352,96,6442,5,8,0:0:0:0:
160,96,6755,5,0,0:0:0:0:
352,96,7067,5,8,0:0:0:0:
352,96,7380,5,8,0:0:0:0:
160,96,8005,5,0,0:0:0:0:
352,96,8317,5,8,0:0:0:0:
352,96,8630,5,8,0:0:0:0:
352,96,8942,5,8,0:0:0:0:
160,96,9255,5,0,0:0:0:0:
160,96,9411,5,0,0:0:0:0:
352,96,9723,5,8,0:0:0:0:
352,96,9880,5,8,0:0:0:0:
160,96,10192,5,0,0:0:0:0:
352,288,10505,5,12,0:0:0:0:
352,288,10973,5,12,0:0:0:0:
352,288,11442,5,12,0:0:0:0:
185,245,11755,6,0,L|246:159,4,70
352,288,12692,5,12,0:0:0:0:
160,288,13005,5,4,0:0:0:0:
352,96,13317,5,8,0:0:0:0:
352,96,13942,5,8,0:0:0:0:
160,96,14255,5,0,0:0:0:0:
352,96,14567,5,8,0:0:0:0:
160,96,14723,5,0,0:0:0:0:
160,96,15036,5,0,0:0:0:0:
352,96,15192,5,8,0:0:0:0:
160,96,15505,5,0,0:0:0:0:
352,96,15817,5,8,0:0:0:0:
160,96,16286,5,0,0:0:0:0:
352,96,16442,5,8,0:0:0:0:
160,96,16755,5,0,0:0:0:0:
352,96,17067,5,8,0:0:0:0:
160,96,17223,5,0,0:0:0:0:
160,96,17536,5,0,0:0:0:0:
352,96,17692,5,8,0:0:0:0:
160,96,18005,5,0,0:0:0:0:
352,288,18317,5,12,0:0:0:0:
160,96,18630,5,0,0:0:0:0:
352,288,18942,5,12,0:0:0:0:
160,96,19255,5,0,0:0:0:0:
352,288,19567,5,12,0:0:0:0:
160,96,19880,5,0,0:0:0:0:
352,288,20192,5,12,0:0:0:0:
352,96,20505,5,8,0:0:0:0:
352,96,20817,5,8,0:0:0:0:
160,96,21130,5,0,0:0:0:0:
160,96,21442,5,0,0:0:0:0:
352,96,21755,5,8,0:0:0:0:
160,96,21911,5,0,0:0:0:0:
352,96,22223,5,8,0:0:0:0:
160,96,22536,5,0,0:0:0:0:
352,96,22692,5,8,0:0:0:0:
160,288,23005,5,4,0:0:0:0:
160,96,23630,5,0,0:0:0:0:
160,96,24255,5,0,0:0:0:0:
160,96,24567,5,0,0:0:0:0:
352,96,24723,5,8,0:0:0:0:
160,96,24880,5,0,0:0:0:0:
352,96,25192,5,8,0:0:0:0:
160,96,25505,5,0,0:0:0:0:
160,96,26130,5,0,0:0:0:0:
160,96,26755,5,0,0:0:0:0:
352,96,26911,5,8,0:0:0:0:
160,96,27067,5,0,0:0:0:0:
160,96,27380,5,0,0:0:0:0:
352,96,27692,5,8,0:0:0:0:
160,96,28005,5,0,0:0:0:0:
352,96,28630,5,8,0:0:0:0:
160,96,29255,5,0,0:0:0:0:
352,96,29567,5,8,0:0:0:0:
352,96,29723,5,8,0:0:0:0:
160,96,29880,5,0,0:0:0:0:
352,96,30192,5,8,0:0:0:0:
160,96,30505,5,0,0:0:0:0:
352,96,31130,5,8,0:0:0:0:
160,288,31598,5,4,0:0:0:0:
352,288,32380,5,12,0:0:0:0:
352,288,32692,5,12,0:0:0:0:
160,288,33005,5,4,0:0:0:0:
352,96,33317,5,8,0:0:0:0:
352,96,33630,5,8,0:0:0:0:
160,96,34255,5,0,0:0:0:0:
352,96,34567,5,8,0:0:0:0:
160,96,34723,5,0,0:0:0:0:
160,96,35036,5,0,0:0:0:0:
352,96,35192,5,8,0:0:0:0:
160,96,35505,5,0,0:0:0:0:
352,96,35817,5,8,0:0:0:0:
352,96,36130,5,8,0:0:0:0:
160,96,36755,5,0,0:0:0:0:
352,96,37067,5,8,0:0:0:0:
160,96,37223,5,0,0:0:0:0:
352,96,37536,5,8,0:0:0:0:
160,96,37848,5,0,0:0:0:0:
160,96,38005,5,0,0:0:0:0:
352,96,38317,5,8,0:0:0:0:
160,96,38630,5,0,0:0:0:0:
160,96,38942,5,0,0:0:0:0:
352,288,39255,5,12,0:0:0:0:
352,96,39880,5,8,0:0:0:0:
160,96,40192,5,0,0:0:0:0:
352,288,40505,5,12,0:0:0:0:
352,288,40973,5,12,0:0:0:0:
352,288,41442,5,12,0:0:0:0:
352,288,41911,5,12,0:0:0:0:
352,288,42380,5,12,0:0:0:0:
352,96,42692,5,8,0:0:0:0:
160,288,43005,5,4,0:0:0:0:
352,96,43317,5,8,0:0:0:0:
352,96,43942,5,8,0:0:0:0:
160,96,44255,5,0,0:0:0:0:
352,96,44567,5,8,0:0:0:0:
160,96,44723,5,0,0:0:0:0:
160,96,45036,5,0,0:0:0:0:
352,96,45192,5,8,0:0:0:0:
160,96,45505,5,0,0:0:0:0:
352,96,45817,5,8,0:0:0:0:
352,96,46442,5,8,0:0:0:0:
160,96,46755,5,0,0:0:0:0:
352,96,47067,5,8,0:0:0:0:
160,96,47223,5,0,0:0:0:0:
352,96,47536,5,8,0:0:0:0:
160,96,47848,5,0,0:0:0:0:
160,288,48161,5,4,0:0:0:0:
352,288,48473,5,12,0:0:0:0:
160,96,48786,5,0,0:0:0:0:
352,96,49098,5,8,0:0:0:0:
160,288,49411,5,4,0:0:0:0:
352,288,49723,5,12,0:0:0:0:
352,96,50505,5,8,0:0:0:0:
352,96,50817,5,8,0:0:0:0:
160,96,51130,5,0,0:0:0:0:
160,96,51442,5,0,0:0:0:0:
352,96,51755,5,8,0:0:0:0:
160,96,52067,5,0,0:0:0:0:
352,96,52380,5,8,0:0:0:0:
352,288,53005,5,12,0:0:0:0:
352,288,53473,5,12,0:0:0:0:
352,288,53942,5,12,0:0:0:0:
352,288,54411,5,12,0:0:0:0:
352,288,54880,5,12,0:0:0:0:
352,96,55192,5,8,0:0:0:0:
160,288,55505,5,4,0:0:0:0:
352,96,56130,5,8,0:0:0:0:
160,288,56598,5,4,0:0:0:0:
352,288,57380,5,12,0:0:0:0:
352,288,57692,5,12,0:0:0:0:
160,288,58005,5,4,0:0:0:0:
352,96,58317,5,8,0:0:0:0:
352,96,58473,5,8,0:0:0:0:
160,96,58630,5,0,0:0:0:0:
352,96,58942,5,8,0:0:0:0:
160,96,59098,5,0,0:0:0:0:
352,288,59567,5,12,0:0:0:0:
352,288,59880,5,12,0:0:0:0:
160,96,60192,5,0,0:0:0:0:
352,96,60505,5,8,0:0:0:0:
160,96,60817,5,0,0:0:0:0:
160,96,60973,5,0,0:0:0:0:
352,96,61130,5,8,0:0:0:0:
352,96,61442,5,8,0:0:0:0:
160,96,61598,5,0,0:0:0:0:
352,288,62067,5,12,0:0:0:0:
352,288,62380,5,12,0:0:0:0:
352,96,62692,5,8,0:0:0:0:
160,96,63005,5,0,0:0:0:0:
352,96,63630,5,8,0:0:0:0:
160,96,63942,5,0,0:0:0:0:
160,96,64098,5,0,0:0:0:0:
352,96,64255,5,8,0:0:0:0:
352,96,64567,5,8,0:0:0:0:
160,96,64723,5,0,0:0:0:0:
352,96,65036,5,8,0:0:0:0:
160,96,65348,5,0,0:0:0:0:
352,96,65505,5,8,0:0:0:0:
352,96,65817,5,8,0:0:0:0:
160,96,66130,5,0,0:0:0:0:
160,96,66442,5,0,0:0:0:0:
352,96,66755,5,8,0:0:0:0:
352,288,67380,5,12,0:0:0:0:
352,288,67692,5,12,0:0:0:0:
160,288,68005,5,4,0:0:0:0:
352,96,68317,5,8,0:0:0:0:
352,96,68473,5,8,0:0:0:0:
160,96,68630,5,0,0:0:0:0:
352,96,68942,5,8,0:0:0:0:
160,96,69098,5,0,0:0:0:0:
352,288,69567,5,12,0:0:0:0:
352,288,69880,5,12,0:0:0:0:
160,96,70192,5,0,0:0:0:0:
352,96,70505,5,8,0:0:0:0:
160,96,70817,5,0,0:0:0:0:
160,96,70973,5,0,0:0:0:0:
352,96,71130,5,8,0:0:0:0:
352,96,71442,5,8,0:0:0:0:
160,96,71598,5,0,0:0:0:0:
352,288,72067,5,12,0:0:0:0:
352,288,72380,5,12,0:0:0:0:
352,96,72692,5,8,0:0:0:0:
160,288,73005,5,4,0:0:0:0:
160,288,73473,5,4,0:0:0:0:
160,288,73942,5,4,0:0:0:0:
160,288,74411,5,4,0:0:0:0:
352,96,74723,5,8,0:0:0:0:
160,96,74880,5,0,0:0:0:0:
160,96,75192,5,0,0:0:0:0:
352,288,75505,5,12,0:0:0:0:
352,96,75817,5,8,0:0:0:0:
160,96,76130,5,0,0:0:0:0:
160,96,76442,5,0,0:0:0:0:
352,96,76755,5,8,0:0:0:0:
352,96,77067,5,8,0:0:0:0:
160,96,77223,5,0,0:0:0:0:
352,96,77380,5,8,0:0:0:0:
160,96,77692,5,0,0:0:0:0:
352,288,78005,5,12,0:0:0:0:
352,96,78630,5,8,0:0:0:0:
160,96,78942,5,0,0:0:0:0:
352,96,79255,5,8,0:0:0:0:
352,96,79880,5,8,0:0:0:0:
160,96,80192,5,0,0:0:0:0:
352,96,80505,5,8,0:0:0:0:
352,96,80817,5,8,0:0:0:0:
352,96,80973,5,8,0:0:0:0:
160,96,81130,5,0,0:0:0:0:
352,96,81442,5,8,0:0:0:0:
160,96,81755,5,0,0:0:0:0:
160,96,81911,5,0,0:0:0:0:
352,96,82067,5,8,0:0:0:0:
352,96,82380,5,8,0:0:0:0:
160,96,82536,5,0,0:0:0:0:
352,288,83005,5,12,0:0:0:0:
352,96,83317,5,8,0:0:0:0:
352,96,83630,5,8,0:0:0:0:
352,96,83942,5,8,0:0:0:0:
160,96,84098,5,0,0:0:0:0:
352,96,84255,5,8,0:0:0:0:
352,96,84567,5,8,0:0:0:0:
352,96,84880,5,8,0:0:0:0:
352,96,85192,5,8,0:0:0:0:
160,96,85348,5,0,0:0:0:0:
352,96,85505,5,8,0:0:0:0:
160,96,85817,5,0,0:0:0:0:
160,96,86130,5,0,0:0:0:0:
160,96,86442,5,0,0:0:0:0:
352,288,86755,5,12,0:0:0:0:
160,288,87223,5,4,0:0:0:0:
160,288,87536,5,4,0:0:0:0:
352,288,87848,5,12,0:0:0:0:
256,192,88005,12,8,89176,0:0:0:0:
