osu file format v14

[General]
AudioFilename: audio.mp3
AudioLeadIn: 0
PreviewTime: 207601
Countdown: 0
SampleSet: Soft
StackLeniency: 0.4
Mode: 0
LetterboxInBreaks: 0
WidescreenStoryboard: 1

[Editor]
Bookmarks: 8695,33725,56447,82009,101890,113251,134908,164376,184257,207689,233961,267157
DistanceSpacing: 0.6
BeatDivisor: 4
GridSize: 32
TimelineZoom: 2.2

[Metadata]
Title:Super Noisy Nova (Xmas ver.)
TitleUnicode:Super Noisy Nova (Xmas ver.)
Artist:Sphere
ArtistUnicode:スフィア
Creator:Kujinn
Version:Panda Collab Expert
Source:宙のまにまに
Tags:Reform Nymphe Kiyoshi Guarden Kang Sae-byeok My Angel Ram Maaadbot a r m i n A_r_M_i_N Armin Halgoh Eli Elinor [_Eli_] Booliix Vaporfly red crewmate God Haachama Yumerios Pachiru Panacotta Basensorex MakiDonalds Kirishima- alevi Pincus HonigFNA torriru skro Chuu Sora no Manimani At The Mercy of the Sky op Opening Full ver version Christmas winter jpop j-pop japanese anime j pop female vocalist vocals スクランブルデイズ
BeatmapID:3381394
BeatmapSetID:1646994

[Difficulty]
HPDrainRate:5
CircleSize:4
OverallDifficulty:8.5
ApproachRate:9.1
SliderMultiplier:1.7
SliderTickRate:1

[Events]
//Background and Video events
0,0,"BG.jpeg",0,0
//Break Periods
//Storyboard Layer 0 (Background)
//Storyboard Layer 1 (Fail)
//Storyboard Layer 2 (Pass)
//Storyboard Layer 3 (Foreground)
//Storyboard Layer 4 (Overlay)
//Storyboard Sound Samples

[TimingPoints]
8695,1000,4,2,22,30,1,0
8695,-71.4285714285714,4,2,22,30,0,0
8945,-71.4285714285714,4,2,22,30,0,0
12194,-71.4285714285714,4,2,22,5,0,0
12695,-52.6315789473684,4,2,22,30,0,0
12945,-52.6315789473684,4,2,22,30,0,0
14444,-52.6315789473684,4,2,22,5,0,0
14695,-83.3333333333333,4,2,22,30,0,0
14945,-83.3333333333333,4,2,22,30,0,0
18444,-83.3333333333333,4,2,22,5,0,0
19524,355.029585798817,4,2,22,45,1,0
19524,-1000,4,2,22,45,0,0
22009,-200,4,2,22,45,0,0
22364,-200,4,2,22,65,0,0
24316,-133.333333333333,4,2,22,65,0,0
27689,-100,4,2,22,65,0,0
28044,-100,4,2,22,75,0,0
33370,-200,4,2,22,75,0,0
33725,-111.111111111111,4,2,22,65,0,0
55381,-125,4,2,22,65,0,0
56447,-133.333333333333,4,2,2,55,0,0
61772,-125,4,2,2,55,0,0
62127,-111.111111111111,4,2,22,65,0,0
64612,-90.9090909090909,4,2,22,65,0,0
64967,-166.666666666667,4,2,22,45,0,0
67452,-166.666666666667,4,2,22,65,0,0
67630,-90.9090909090909,4,2,22,65,0,0
69050,-86.9565217391304,4,2,22,65,0,0
69938,-133.333333333333,4,2,22,65,0,0
70648,-83.3333333333333,4,2,22,85,0,1
71003,-100,4,2,22,85,0,1
81476,-100,4,2,22,85,0,0
82009,-100,4,2,22,85,0,1
87689,-142.857142857143,4,2,22,65,0,0
90529,-100,4,2,22,85,0,1
96210,-111.111111111111,4,2,22,85,0,0
101890,-100,4,2,22,75,0,0
113251,-111.111111111111,4,2,22,65,0,0
118932,-111.111111111111,4,2,22,55,0,0
121772,-111.111111111111,4,2,22,65,0,0
134908,-142.857142857143,4,2,22,65,0,0
135973,-125,4,2,2,55,0,0
136239,-125,4,2,2,5,0,0
136328,-125,4,2,2,55,0,0
139080,-125,4,2,2,55,0,0
139168,-125,4,2,2,55,0,0
141299,-200,4,2,2,55,0,0
141565,-200,4,2,2,5,0,0
141654,-111.111111111111,4,2,22,65,0,0
141920,-111.111111111111,4,2,22,65,0,0
142009,-111.111111111111,4,2,22,65,0,0
144494,-166.666666666667,4,2,22,45,0,0
146624,-111.111111111111,4,2,22,45,0,0
146979,-111.111111111111,4,2,22,75,0,0
147157,-99.9999999999999,4,2,22,75,0,0
148932,-100,4,2,22,75,0,0
152305,-125,4,2,22,75,0,0
153015,-90.9090909090909,4,2,22,85,0,1
153281,-90.9090909090909,4,2,22,5,0,1
153370,-90.9090909090909,4,2,22,85,0,1
160914,-90.9090909090909,4,2,22,5,0,1
161003,-90.9090909090909,4,2,22,85,0,1
163843,-100,4,2,22,85,0,0
164376,-90.9090909090909,4,2,22,85,0,1
170056,-111.111111111111,4,2,22,65,0,0
172896,-90.9090909090909,4,2,22,85,0,1
178577,-100,4,2,22,85,0,0
184257,-111.111111111111,4,2,22,65,0,0
195618,-100,4,2,22,75,0,0
201299,-83.3333333333333,4,2,22,75,0,0
203784,-149.253731343284,4,2,22,75,0,0
204139,-66.6666666666667,4,2,22,75,0,0
205204,-83.3333333333333,4,2,22,75,0,0
207689,-125,4,2,22,55,0,0
209819,-153.846153846154,4,2,22,55,0,0
212660,-80,4,2,22,55,0,0
213370,-54.054054054054,4,2,22,55,0,0
213725,-80,4,2,22,55,0,0
214080,-117.647058823529,4,2,22,55,0,0
218340,-117.647058823529,4,2,22,75,0,0
219760,-86.9565217391304,4,2,22,85,0,1
225441,-111.111111111111,4,2,22,65,0,0
228281,-76.9230769230769,4,2,22,85,0,1
228636,-90.9090909090909,4,2,22,85,0,1
233961,-111.111111111111,4,2,22,85,0,0
234316,-66.6666666666667,4,2,22,85,0,1
234671,-90.9090909090909,4,2,22,85,0,1
244790,-90.9090909090909,4,2,22,85,0,0
245322,-90.9090909090909,4,2,22,85,0,1
251003,-105.263157894737,4,2,22,65,0,0
253843,-86.9565217391304,4,2,22,85,0,1
259524,-90.9090909090909,4,2,22,85,0,0
267157,-80,4,2,22,85,0,0

[Colours]
Combo1 : 104,151,102
Combo2 : 175,44,33
Combo3 : 237,63,63
Combo4 : 252,216,216
Combo5 : 249,211,162
Combo6 : 224,150,75
Combo7 : 165,95,61

[HitObjects]
63,90,8695,6,0,B|52:1|52:1|125:53|125:53|125:54|125:54|206:16|206:16|177:101|177:101|177:102|177:102|238:169|238:169|147:168|147:168|146:168|146:168|102:246|102:246|74:160|74:160|74:159|74:159|-13:142|-13:142|59:90,1,892.499972763062,2|0,0:0|0:0,0:0:0:0:
165,299,12695,6,0,B|267:111|267:111|319:15|427:32|487:109|446:207|388:225,1,565.249984906197,2|0,0:0|0:0,0:0:0:0:
392,224,14695,6,0,B|279:243|279:243|327:215|317:159|317:159|307:100|294:99|293:42|329:25|358:-9|395:22|438:17|448:71|437:77|447:137|447:137|456:188|516:202|516:202|398:223,1,764.999976654054,2|0,0:0|0:0,0:0:0:0:
37,188,19524,6,0,L|31:172,6,17,2|2|2|2|2|2|2,0:0|0:0|0:0|0:0|0:0|0:0|0:0,0:0:0:0:
60,259,21831,1,0,0:0:0:0:
70,264,22009,2,0,P|98:250|116:224,1,63.75,2|0,0:0|0:0,0:0:0:0:
124,147,22364,5,8,0:0:0:0:
173,293,22541,1,8,0:0:0:0:
295,161,23074,5,8,0:0:0:0:
239,325,23251,1,8,0:0:0:0:
452,230,23784,5,8,0:0:0:0:
305,357,23961,1,8,0:0:0:0:
324,81,24316,6,0,P|261:83|217:127,1,127.500004863739,4|8,1:2|0:0,0:0:0:0:
228,206,24849,1,8,0:3:0:0:
233,12,25026,1,8,0:0:0:0:
233,12,25115,1,8,0:0:0:0:
233,12,25204,5,8,0:0:0:0:
295,161,25381,1,8,0:0:0:0:
217,126,25915,5,8,0:0:0:0:
161,290,26092,1,8,0:0:0:0:
295,161,26624,5,8,0:0:0:0:
358,344,26801,1,8,0:0:0:0:
468,23,27157,6,0,P|454:87|396:112,1,127.500004863739,4|0,1:2|1:2,0:0:0:0:
393,109,27600,1,0,1:2:0:0:
386,106,27689,2,0,P|367:74|383:24,1,85,8|0,0:0|0:0,0:0:0:0:
441,211,28044,6,0,P|410:254|333:258,1,127.5,4|0,1:2|0:0,0:0:0:0:
324,272,28399,2,0,L|341:354,1,85,8|0,0:0|0:0,0:0:0:0:
448,352,28754,1,0,1:2:0:0:
364,184,28932,1,0,1:2:0:0:
256,352,29109,2,0,P|212:352|180:324,1,85,8|0,0:0|0:0,0:0:0:0:
204,132,29464,5,0,1:2:0:0:
240,272,29642,1,0,1:2:0:0:
76,232,29819,1,8,0:0:0:0:
221,43,29997,2,0,P|276:79|282:176,1,170,4|0,1:2|1:2,0:0:0:0:
96,216,30529,2,0,P|84:174|70:130,1,85,8|0,0:0|1:2,0:0:0:0:
72,56,30796,5,8,0:0:0:0:
72,56,30884,2,0,P|104:28|144:28,1,85,0|0,1:2|1:2,0:0:0:0:
223,226,31239,2,0,P|256:252|299:254,1,85,8|0,0:0|1:2,0:0:0:0:
312,248,31506,1,8,0:0:0:0:
328,240,31595,1,0,1:2:0:0:
440,152,31772,1,0,1:2:0:0:
320,24,31950,2,0,P|311:66|302:106,1,85,8|0,0:0|0:0,0:0:0:0:
339,369,32305,5,8,0:3:0:0:
326,364,32393,1,8,0:3:0:0:
314,359,32482,2,0,L|275:343,1,42.5,8|4,0:3|0:3,0:0:0:0:
155,328,32660,2,0,L|194:310,1,42.5,4|4,0:3|0:3,0:0:0:0:
328,240,32837,2,0,B|272:240|288:180|221:180,1,127.5,4|0,1:2|0:0,0:0:0:0:
205,188,33192,1,12,0:0:0:0:
32,368,33370,2,0,P|12:340|12:312,1,63.75,12|0,0:0|0:0,0:0:0:0:
20,292,33725,6,0,B|52:272|100:300|76:320|124:348|156:328,1,152.999995330811,4|10,1:2|0:0,0:0:0:0:
300,276,34257,1,2,0:0:0:0:
128,172,34435,2,0,P|136:209|143:246,1,76.4999976654053,2|2,1:2|1:2,0:0:0:0:
280,376,34790,2,0,P|287:338|295:301,1,76.4999976654053,10|2,0:0|0:0,0:0:0:0:
272,92,35145,5,0,1:2:0:0:
216,252,35322,1,0,1:2:0:0:
389,195,35500,1,10,0:0:0:0:
204,29,35677,2,0,P|184:57|184:97,1,76.4999976654053,2|0,1:2|0:0,0:0:0:0:
368,292,36032,2,0,P|388:264|388:224,1,76.4999976654053,2|8,1:2|0:0,0:0:0:0:
116,176,36387,5,0,1:2:0:0:
124,196,36476,1,8,0:0:0:0:
140,208,36565,2,0,P|217:190|289:177,1,152.999995330811,0|10,1:2|0:0,0:0:0:0:
484,236,37097,1,2,0:0:0:0:
300,347,37275,2,0,P|280:319|280:279,1,76.4999976654053,2|2,1:2|1:2,0:0:0:0:
500,229,37630,1,10,0:0:0:0:
406,384,37808,1,2,0:0:0:0:
388,143,37985,6,0,P|379:180|372:217,1,76.4999976654053,0|0,1:2|1:2,0:0:0:0:
278,354,38340,1,10,0:0:0:0:
165,199,38518,2,0,P|194:178|234:178,1,76.4999976654053,2|0,1:2|0:0,0:0:0:0:
343,298,38873,1,2,1:2:0:0:
168,372,39050,2,0,P|112:360|54:347,1,114.749996498108,12|0,0:0|0:0,0:0:0:0:
44,327,39405,6,0,P|81:319|118:311,1,76.4999976654053,4|0,1:2|0:0,0:0:0:0:
304,165,39760,2,0,P|304:125|282:96,1,76.4999976654053,10|0,0:0|0:0,0:0:0:0:
108,193,40115,1,2,1:2:0:0:
253,280,40293,1,0,1:2:0:0:
200,28,40470,2,0,P|162:36|125:43,1,76.4999976654053,10|0,0:0|0:0,0:0:0:0:
1,178,40825,6,0,P|38:185|76:193,1,76.4999976654053,2|0,1:2|1:2,0:0:0:0:
303,369,41180,1,10,0:0:0:0:
96,275,41358,1,0,1:2:0:0:
334,168,41535,1,10,0:0:0:0:
184,384,41713,1,0,1:2:0:0:
154,125,41890,1,10,0:0:0:0:
154,125,42245,6,0,B|195:115|235:144|207:157|256:188|303:167,1,152.999995330811,6|10,1:2|0:0,0:0:0:0:
483,72,42778,2,0,P|467:147|450:224,1,152.999995330811,6|0,1:2|1:2,0:0:0:0:
360,364,43310,2,0,P|352:326|344:288,1,76.4999976654053,8|0,0:0|0:0,0:0:0:0:
369,94,43666,5,4,1:2:0:0:
224,288,43843,2,0,P|200:260|200:220,1,76.4999976654053,0|8,1:2|0:0,0:0:0:0:
388,116,44198,2,0,P|408:144|408:184,1,76.4999976654053,4|0,1:2|0:0,0:0:0:0:
376,370,44553,1,8,0:0:0:0:
256,158,44731,1,0,1:2:0:0:
164,356,44908,5,8,0:0:0:0:
152,364,44997,1,8,0:0:0:0:
140,372,45086,2,0,P|76:372|36:300,1,152.999995330811,4|10,1:2|0:0,0:0:0:0:
129,168,45618,1,2,0:0:0:0:
223,292,45796,2,0,P|230:254|238:217,1,76.4999976654053,2|2,1:2|1:2,0:0:0:0:
36,52,46151,2,0,P|44:89|51:127,1,76.4999976654053,10|2,0:0|1:2,0:0:0:0:
56,144,46417,5,8,0:0:0:0:
60,160,46506,1,0,1:2:0:0:
275,236,46683,1,0,1:2:0:0:
173,58,46861,1,10,0:0:0:0:
81,239,47038,2,0,P|109:263|149:263,1,76.4999976654053,2|0,1:2|0:0,0:0:0:0:
372,108,47393,2,0,P|344:84|304:84,1,76.4999976654053,2|8,1:2|0:0,0:0:0:0:
148,164,47748,5,0,1:2:0:0:
156,180,47837,1,8,0:0:0:0:
162,195,47926,2,0,P|235:178|311:162,1,152.999995330811,0|10,1:2|0:0,0:0:0:0:
488,73,48458,1,2,1:2:0:0:
492,57,48547,1,8,0:0:0:0:
496,40,48636,2,0,P|458:33|420:24,1,76.4999976654053,0|2,1:2|1:2,0:0:0:0:
242,90,48991,1,10,0:0:0:0:
384,216,49168,5,2,1:2:0:0:
400,220,49257,1,8,0:0:0:0:
417,224,49346,2,0,P|424:186|433:148,1,76.4999976654053,0|0,1:2|1:2,0:0:0:0:
336,12,49701,1,10,0:0:0:0:
245,177,49879,2,0,P|217:201|177:201,1,76.4999976654053,6|0,1:2|0:0,0:0:0:0:
23,20,50234,1,10,0:0:0:0:
181,105,50411,1,10,0:0:0:0:
32,240,50589,6,0,P|25:202|16:164,1,76.4999976654053,6|0,1:2|0:0,0:0:0:0:
252,170,50944,1,2,1:2:0:0:
155,295,51121,1,10,0:0:0:0:
73,96,51299,2,0,P|101:72|141:72,1,76.4999976654053,2|0,0:0|1:2,0:0:0:0:
288,174,51654,1,2,1:2:0:0:
161,274,51831,1,10,0:0:0:0:
353,353,52009,6,0,P|360:315|369:277,1,76.4999976654053,2|0,1:2|0:0,0:0:0:0:
121,201,52364,1,2,1:2:0:0:
282,335,52541,1,10,0:0:0:0:
264,139,52719,1,2,1:2:0:0:
182,340,52896,2,0,P|144:331|107:324,1,76.4999976654053,2|0,0:0|1:2,0:0:0:0:
20,185,53251,2,0,P|57:178|94:169,1,76.4999976654053,10|0,0:0|0:0,0:0:0:0:
310,278,53606,5,6,1:2:0:0:
213,71,53784,1,8,0:0:0:0:
152,290,53961,1,10,0:0:0:0:
336,143,54139,2,0,P|335:105|311:76,1,76.4999976654053,2|0,1:2|0:0,0:0:0:0:
167,3,54494,1,0,1:2:0:0:
55,170,54671,2,0,P|129:185|204:203,1,152.999995330811,12|0,0:0|0:0,0:0:0:0:
496,292,55381,6,0,P|456:348|392:348,1,136,2|2,0:0|0:0,0:0:0:0:
400,172,55914,1,2,0:0:0:0:
413,180,56003,1,2,0:0:0:0:
424,192,56092,2,0,P|416:225|409:258,1,68,2|0,0:0|0:0,0:0:0:0:
248,76,56447,6,0,P|273:57|305:58,1,63.7500024318696,4|0,1:2|0:0,0:0:0:0:
223,169,56802,2,0,P|161:154|98:141,2,127.500004863739,10|10|8,0:0|0:0|0:0,0:0:0:0:
266,258,57689,6,0,P|234:262|204:271,1,63.7500024318696,2|0,1:2|1:2,0:0:0:0:
115,353,58044,1,2,0:0:0:0:
116,340,58222,1,8,0:0:0:0:
9,244,58399,2,0,P|8:275|27:300,1,63.7500024318696,2|8,0:0|0:0,0:0:0:0:
158,185,58754,1,0,1:2:0:0:
148,193,58932,2,0,P|116:188|85:180,1,63.7500024318696,8|0,0:0|1:2,0:0:0:0:
321,76,59287,6,0,P|322:107|233:127,1,127.500004863739,0|10,1:2|0:0,0:0:0:0:
237,126,59819,1,2,0:0:0:0:
358,216,59997,1,2,1:2:0:0:
348,207,60174,1,0,1:2:0:0:
415,107,60352,1,10,0:0:0:0:
512,284,60529,6,0,P|450:296|388:311,1,127.500004863739,2|2,1:2|1:2,0:0:0:0:
201,324,61062,2,0,P|256:314|310:363,1,127.500004863739,10|8,0:0|0:0,0:0:0:0:
321,359,61595,1,0,1:2:0:0:
132,270,61772,2,0,P|127:302|117:340,1,68,4|0,0:2|0:0,0:0:0:0:
211,167,62127,6,0,P|192:134|154:124,1,76.4999976654053,4|0,0:2|0:0,0:0:0:0:
1,166,62482,2,0,P|38:169|68:143,1,76.4999976654053,2|0,1:2|0:0,0:0:0:0:
16,17,62837,1,2,1:2:0:0:
8,30,63015,2,0,P|45:39|82:45,1,76.4999976654053,2|0,0:0|1:2,0:0:0:0:
326,15,63370,6,0,P|287:18|261:46,1,76.4999976654053,2|4,0:0|1:2,0:0:0:0:
439,111,63725,1,2,0:0:0:0:
442,95,63902,1,6,1:2:0:0:
335,204,64080,2,0,P|328:166|319:129,1,76.4999976654053,2|4,0:0|1:2,0:0:0:0:
485,230,64435,1,0,1:2:0:0:
357,374,64612,2,0,P|433:370|447:308,1,140.25000428009,12|0,0:0|0:0,0:0:0:0:
443,306,64967,6,0,P|399:298|341:284,1,101.999996887207,6|2,1:2|0:0,0:0:0:0:
234,335,65500,5,2,0:0:0:0:
220,327,65678,2,0,P|215:301|209:277,1,50.9999984436036
268,198,66032,2,0,P|272:172|278:148,1,50.9999984436036
63,106,66387,6,0,P|72:138|82:172,1,50.9999984436036,2|0,0:0|0:0,0:0:0:0:
192,129,66742,1,2,0:0:0:0:
195,121,66920,2,0,P|186:89|176:55,1,50.9999984436036,2|0,0:0|0:0,0:0:0:0:
121,255,67275,1,2,0:0:0:0:
294,127,67452,1,10,0:0:0:0:
320,337,67630,6,0,P|253:323|241:259,1,140.25000428009,6|0,1:2|0:0,0:0:0:0:
255,249,67985,1,8,0:0:0:0:
459,305,68163,6,0,P|475:179|480:157,1,140.25000428009,4|0,1:2|0:0,0:0:0:0:
490,152,68518,1,8,0:0:0:0:
193,39,68695,6,0,P|233:44|288:58,1,93.5000028533936,4|0,1:2|0:0,0:0:0:0:
413,102,69050,2,0,B|377:86|335:116|363:131|319:162|285:147,1,146.62500279665,4|0,1:2|0:0,0:0:0:0:
275,137,69405,1,8,1:2:0:0:
448,290,69583,1,8,1:2:0:0:
162,298,69938,6,0,P|196:356|260:345,1,127.500004863739,2|2,0:0|0:0,0:0:0:0:
257,345,70470,1,0,0:0:0:0:
38,141,70648,6,0,B|78:126|118:156|91:172|137:198|173:189,1,152.999995330811,6|0,1:2|0:0,0:0:0:0:
244,101,71003,2,0,P|209:105|161:117,1,85,8|0,0:0|0:0,0:0:0:0:
280,284,71358,1,2,1:2:0:0:
356,56,71535,1,0,1:2:0:0:
435,241,71713,2,0,P|399:252|351:226,1,85,10|0,0:0|0:0,0:0:0:0:
496,79,72068,6,0,P|500:113|512:161,1,85,2|0,1:2|1:2,0:0:0:0:
431,347,72423,1,10,0:0:0:0:
253,162,72600,2,0,P|287:157|335:145,1,85,2|0,1:2|0:0,0:0:0:0:
251,312,72955,1,0,1:2:0:0:
166,130,73133,1,8,0:0:0:0:
16,327,73310,5,2,0:0:0:0:
20,319,73399,1,0,0:0:0:0:
26,309,73488,2,0,P|76:328|115:336,1,85,0|2,1:2|0:0,0:0:0:0:
191,117,73843,1,10,0:0:0:0:
12,200,74021,1,2,0:0:0:0:
243,295,74198,1,2,1:2:0:0:
54,184,74376,1,2,1:2:0:0:
273,54,74553,1,10,0:0:0:0:
142,240,74731,1,2,0:0:0:0:
89,21,74908,6,0,P|99:62|106:104,1,85,2|0,1:2|1:2,0:0:0:0:
222,276,75263,1,10,0:0:0:0:
401,119,75441,2,0,B|365:96|311:130|340:150|288:183|251:162,1,170,2|0,1:2|1:2,0:0:0:0:
464,292,75973,2,0,P|470:250|481:208,1,85,8|0,0:0|0:0,0:0:0:0:
274,350,76328,6,0,P|307:374|349:370,1,85,6|0,1:2|0:0,0:0:0:0:
120,250,76683,2,0,P|78:246|44:270,1,85,8|0,0:0|0:0,0:0:0:0:
183,370,77038,1,2,1:2:0:0:
261,165,77216,1,0,1:2:0:0:
29,289,77393,2,0,P|22:247|11:205,1,85,10|0,0:0|0:0,0:0:0:0:
183,43,77748,5,2,1:2:0:0:
0,119,77926,1,8,0:0:0:0:
279,170,78103,1,10,0:0:0:0:
82,16,78281,2,0,P|100:94|106:145,1,127.5,6|0,1:2|0:0,0:0:0:0:
104,158,78636,1,0,1:2:0:0:
282,51,78813,2,0,P|248:26|206:30,1,85,8|2,0:0|0:0,0:0:0:0:
334,225,79168,5,2,1:2:0:0:
442,84,79346,2,0,P|448:125|459:167,1,85,2|8,0:0|0:0,0:0:0:0:
406,319,79701,2,0,P|439:343|481:339,1,85,2|0,0:0|1:2,0:0:0:0:
358,125,80056,1,2,1:2:0:0:
308,324,80234,1,10,0:0:0:0:
204,87,80411,1,2,0:0:0:0:
141,335,80589,5,2,1:2:0:0:
267,175,80766,1,10,0:0:0:0:
267,175,80855,1,8,0:0:0:0:
267,175,80944,1,10,0:0:0:0:
24,188,81121,2,0,P|19:229|43:263,1,85,6|0,1:2|0:0,0:0:0:0:
204,58,81476,6,0,L|157:48,1,42.5,8|8,0:0|0:0,0:0:0:0:
225,209,81654,1,10,0:0:0:0:
264,200,81742,1,8,0:0:0:0:
308,189,81831,2,0,L|356:178,1,42.5,8|8,0:0|0:0,0:0:0:0:
485,45,82009,6,0,B|439:19|395:50|420:68|372:100|332:78,1,170,6|8,1:2|0:0,0:0:0:0:
135,14,82541,1,0,0:0:0:0:
135,14,82630,1,0,0:0:0:0:
135,14,82719,1,2,1:2:0:0:
234,215,82896,1,0,1:2:0:0:
13,150,83074,2,0,P|44:123|90:121,1,85,10|0,0:0|0:0,0:0:0:0:
205,327,83429,6,0,L|98:349,1,85,2|0,1:2|1:2,0:0:0:0:
279,151,83784,1,10,0:0:0:0:
107,211,83961,2,0,L|273:244,1,170,2|0,1:2|1:2,0:0:0:0:
454,134,84494,1,8,0:0:0:0:
267,35,84671,5,2,0:0:0:0:
267,35,84760,1,0,0:0:0:0:
267,35,84849,2,0,L|290:149,1,85,0|2,1:2|0:0,0:0:0:0:
371,255,85204,1,10,0:0:0:0:
169,150,85381,1,2,0:0:0:0:
374,47,85559,1,2,1:2:0:0:
251,272,85737,1,2,1:2:0:0:
470,183,85915,1,10,0:0:0:0:
259,54,86092,1,2,0:0:0:0:
409,307,86269,6,0,P|452:322|498:315,1,85,2|0,1:2|1:2,0:0:0:0:
384,71,86624,1,10,0:0:0:0:
254,271,86802,2,0,B|144:304|144:304|78:270,1,170,2|0,1:2|1:2,0:0:0:0:
147,75,87334,2,0,P|179:107|186:152,1,85,12|0,0:0|0:0,0:0:0:0:
19,319,87689,6,0,P|4:263|40:218,1,118.999996368408,6|8,1:2|0:0,0:0:0:0:
39,218,88399,2,0,L|118:233,1,59.4999981842042,10|0,0:0|1:2,0:0:0:0:
167,314,88754,2,0,L|225:302,1,59.4999981842042,10|0,0:0|1:2,0:0:0:0:
366,207,89109,6,0,P|341:171|298:162,1,89.2499972763062,10|0,0:0|0:0,0:0:0:0:
257,179,89464,2,0,P|231:191|201:190,1,59.4999981842042,10|0,0:0|1:2,0:0:0:0:
15,55,89819,1,10,0:0:0:0:
131,240,89997,1,0,1:2:0:0:
192,39,90174,1,10,0:0:0:0:
16,168,90352,5,0,1:2:0:0:
16,168,90441,1,0,1:2:0:0:
16,168,90529,2,0,B|58:181|58:181|107:167,1,85,10|0,0:0|0:0,0:0:0:0:
274,35,90884,2,0,B|215:14|215:14|249:135,1,170,8|8,0:0|0:0,0:0:0:0:
332,302,91417,5,0,1:2:0:0:
470,133,91595,2,0,P|429:120|389:133,1,85,8|0,0:0|1:2,0:0:0:0:
193,342,91950,5,8,0:0:0:0:
411,223,92127,1,0,0:0:0:0:
195,138,92305,5,8,0:0:0:0:
305,367,92482,1,0,1:2:0:0:
322,81,92660,5,8,0:0:0:0:
204,312,92837,1,2,1:2:0:0:
190,32,93015,5,10,0:0:0:0:
312,254,93192,1,2,0:0:0:0:
77,163,93370,5,0,1:2:0:0:
317,64,93547,1,0,1:2:0:0:
90,264,93725,2,0,P|48:266|13:243,1,85,12|0,0:0|0:0,0:0:0:0:
192,54,94080,5,2,1:2:0:0:
296,261,94257,1,0,1:2:0:0:
77,163,94435,2,0,P|60:124|71:84,1,85,12|0,0:0|0:0,0:0:0:0:
274,222,94790,5,2,1:2:0:0:
73,326,94967,1,0,1:2:0:0:
199,123,95145,2,0,B|242:108|242:108|279:119,1,85,12|0,0:0|0:0,0:0:0:0:
421,309,95500,5,2,1:2:0:0:
504,99,95677,1,0,1:2:0:0:
273,224,95855,2,0,L|290:312,1,85,12|0,0:0|0:0,0:0:0:0:
91,159,96210,5,2,1:2:0:0:
80,149,96387,1,0,1:2:0:0:
162,372,96565,2,0,L|181:289,1,76.4999976654053,8|2,0:0|0:0,0:0:0:0:
236,133,96920,5,2,1:2:0:0:
247,123,97097,1,0,1:2:0:0:
68,294,97275,2,0,L|49:211,1,76.4999976654053,8|2,0:0|0:0,0:0:0:0:
271,32,97630,5,2,1:2:0:0:
150,203,97808,1,2,1:2:0:0:
85,11,97985,1,10,0:0:0:0:
274,131,98163,2,0,P|347:140|403:91,1,152.999995330811,6|0,1:2|1:2,0:0:0:0:
209,9,98695,2,0,L|189:101,1,76.4999976654053,8|2,0:0|0:0,0:0:0:0:
84,207,99050,5,2,1:2:0:0:
75,197,99228,1,0,1:2:0:0:
244,305,99405,2,0,L|332:283,1,76.4999976654053,8|2,0:0|0:0,0:0:0:0:
193,167,99760,5,2,1:2:0:0:
202,157,99938,1,0,1:2:0:0:
113,350,100115,2,0,L|25:328,1,76.4999976654053,8|2,0:0|0:0,0:0:0:0:
202,157,100470,5,2,1:2:0:0:
281,360,100648,1,2,1:2:0:0:
71,267,100825,1,10,0:0:0:0:
295,145,101003,2,0,L|271:242,1,76.4999976654053,10|0,1:2|0:0,0:0:0:0:
191,349,101358,1,0,1:2:0:0:
89,172,101535,1,8,0:0:0:0:
89,172,101624,1,8,0:0:0:0:
89,172,101713,2,0,P|110:158|146:156,1,38.2499988327027,8|8,0:0|0:0,0:0:0:0:
375,148,101890,6,0,L|363:243,1,85,4|0,1:2|0:0,0:0:0:0:
463,79,102245,1,8,0:0:0:0:
283,184,102423,1,0,1:2:0:0:
286,167,102512,1,8,0:0:0:0:
289,150,102600,2,0,L|296:102,1,42.5,0|0,1:2|0:0,0:0:0:0:
390,35,102778,1,0,1:2:0:0:
290,265,102955,2,0,B|245:258|222:280|222:280|200:302|159:297,1,127.5,8|8,0:0|0:0,0:0:0:0:
112,256,103310,5,0,1:2:0:0:
62,50,103488,1,0,1:2:0:0:
203,103,103666,1,8,0:0:0:0:
22,246,103843,2,0,P|43:198|156:184,1,170,4|0,1:2|1:2,0:0:0:0:
322,25,104376,2,0,B|314:82|314:82|317:93|317:93|306:156,1,127.5,8|0,0:0|0:0,0:0:0:0:
340,217,104731,5,0,1:2:0:0:
219,93,104908,1,0,1:2:0:0:
242,299,105086,2,0,B|249:258|249:258|245:251|245:251|254:206,1,85,8|0,0:0|0:0,0:0:0:0:
391,129,105441,1,0,1:2:0:0:
194,165,105618,1,0,1:2:0:0:
352,346,105796,2,0,B|318:338|294:357|294:357|267:383|223:376,1,127.5,8|8,0:0|0:0,0:0:0:0:
179,331,106151,5,0,1:2:0:0:
425,379,106328,1,0,1:2:0:0:
317,269,106506,1,8,0:0:0:0:
106,364,106683,2,0,P|99:313|191:259,1,170,4|8,1:2|0:0,0:0:0:0:
262,278,107127,5,8,0:0:0:0:
274,232,107216,1,8,0:0:0:0:
286,186,107305,1,8,0:0:0:0:
300,144,107393,5,8,0:0:0:0:
300,144,107482,1,8,0:0:0:0:
300,144,107571,6,0,P|258:165|201:166,1,85,4|0,1:2|0:0,0:0:0:0:
74,72,107926,1,8,0:0:0:0:
158,223,108104,1,0,0:0:0:0:
146,211,108192,1,0,0:0:0:0:
141,194,108281,2,0,P|137:173|143:146,1,42.5,0|0,1:2|0:0,0:0:0:0:
285,62,108459,1,0,1:2:0:0:
61,199,108636,2,0,P|52:266|13:316,1,127.5,8|8,0:0|0:0,0:0:0:0:
65,369,108991,5,0,1:2:0:0:
5,150,109169,1,0,1:2:0:0:
144,255,109347,1,8,0:0:0:0:
84,48,109524,2,0,B|134:40|162:75|162:75|191:112|244:97,1,170,4|0,1:2|1:2,0:0:0:0:
424,145,110056,2,0,P|371:112|366:36,1,127.5,8|8,0:0|0:0,0:0:0:0:
438,68,110412,5,4,1:2:0:0:
272,173,110589,1,0,1:2:0:0:
408,312,110767,2,0,P|387:262|349:242,1,85,8|0,0:0|1:2,0:0:0:0:
346,241,111032,1,8,0:0:0:0:
328,238,111122,1,0,1:2:0:0:
181,340,111299,1,0,1:2:0:0:
233,124,111476,2,0,B|212:217|212:217|189:189,1,127.5,8|0,0:0|0:0,0:0:0:0:
142,136,111832,5,4,1:2:0:0:
213,305,112009,1,8,0:0:0:0:
258,295,112097,1,8,0:0:0:0:
287,258,112187,1,8,0:0:0:0:
50,198,112364,2,0,B|71:314|71:314|99:268,1,170,4|0,1:2|1:2,0:0:0:0:
190,84,112896,1,8,0:0:0:0:
177,250,113074,2,0,P|170:229|142:201,1,42.5,8|8,0:0|0:0,0:0:0:0:
0,121,113251,6,0,P|46:102|166:72,1,152.999995330811,4|10,1:2|0:0,0:0:0:0:
307,200,113783,1,2,0:0:0:0:
367,19,113961,1,2,1:2:0:0:
228,133,114139,1,2,1:2:0:0:
397,110,114316,2,0,P|344:98|300:92,1,76.4999976654053,10|2,0:0|0:0,0:0:0:0:
410,231,114671,5,0,1:2:0:0:
490,107,114848,1,0,1:2:0:0:
319,189,115026,1,10,0:0:0:0:
432,323,115204,2,0,P|482:308|525:297,1,76.4999976654053,2|0,1:2|0:0,0:0:0:0:
317,294,115559,2,0,P|267:279|224:268,1,76.4999976654053,2|8,1:2|0:0,0:0:0:0:
102,378,115913,5,0,0:0:0:0:
127,373,116002,1,0,0:0:0:0:
150,368,116091,2,0,B|175:323|145:288|132:297|106:269|129:217,1,152.999995330811,0|10,1:2|0:0,0:0:0:0:
236,125,116623,1,2,0:0:0:0:
63,18,116802,1,2,1:2:0:0:
135,141,116979,1,2,1:2:0:0:
205,15,117157,2,0,P|253:5|286:26,1,76.4999976654053,10|2,0:0|1:2,0:0:0:0:
305,46,117423,1,8,0:0:0:0:
305,46,117512,5,0,1:2:0:0:
215,163,117689,1,0,1:2:0:0:
406,35,117866,1,10,0:0:0:0:
324,260,118044,2,0,P|318:220|310:174,1,76.4999976654053,6|0,1:2|0:0,0:0:0:0:
455,266,118399,1,8,0:0:0:0:
325,384,118577,1,8,0:3:0:0:
217,276,118754,1,4,0:3:0:0:
217,276,118843,1,0,0:0:0:0:
217,276,118931,6,0,P|180:284|143:292,1,76.4999976654053,4|0,1:2|0:0,0:0:0:0:
11,204,119286,2,0,P|40:180|78:179,1,76.4999976654053,2|0,0:0|1:2,0:0:0:0:
200,126,119642,2,0,P|220:81|202:43,1,76.4999976654053,10|0,0:0|0:0,0:0:0:0:
93,5,119997,2,0,P|104:53|111:85,1,76.4999976654053,2|0,0:0|1:2,0:0:0:0:
121,116,120263,1,0,1:2:0:0:
121,116,120352,5,2,1:2:0:0:
237,201,120529,2,0,P|290:176|333:166,1,76.4999976654053,8|2,0:0|0:0,0:0:0:0:
425,235,120884,1,0,1:2:0:0:
419,64,121062,2,0,P|397:106|381:144,1,76.4999976654053,10|0,0:0|1:2,0:0:0:0:
512,217,121417,2,0,P|496:182|478:148,1,76.4999976654053,2|0,0:0|1:2,0:0:0:0:
344,293,121772,6,0,P|364:351|462:333,1,152.999995330811,6|10,1:2|0:0,0:0:0:0:
246,201,122304,2,0,P|171:215|85:232,1,152.999995330811,6|0,1:2|1:2,0:0:0:0:
211,384,122837,2,0,P|229:339|215:301,1,76.4999976654053,8|0,0:0|1:2,0:0:0:0:
184,299,123103,1,8,0:0:0:0:
184,299,123192,5,4,1:2:0:0:
287,171,123370,1,0,1:2:0:0:
88,314,123547,1,8,0:0:0:0:
152,90,123725,2,0,P|169:147|177:181,1,76.4999976654053,4|0,1:2|0:0,0:0:0:0:
289,274,124079,1,0,1:2:0:0:
407,85,124257,1,8,0:0:0:0:
512,306,124434,5,8,0:0:0:0:
511,291,124523,1,8,0:0:0:0:
511,276,124612,2,0,P|423:298|346:330,1,152.999995330811,4|10,1:2|0:0,0:0:0:0:
183,211,125144,1,2,0:0:0:0:
229,384,125322,1,2,1:2:0:0:
322,254,125500,1,2,1:2:0:0:
87,204,125677,2,0,P|95:241|102:279,1,76.4999976654053,10|2,0:0|1:2,0:0:0:0:
107,296,125943,5,10,0:0:0:0:
111,312,126032,1,0,1:2:0:0:
249,172,126209,1,0,1:2:0:0:
74,82,126387,1,10,0:0:0:0:
189,257,126565,2,0,P|238:268|291:289,1,76.4999976654053,2|0,1:2|0:0,0:0:0:0:
405,138,126919,2,0,P|367:138|338:162,1,76.4999976654053,2|8,1:2|0:0,0:0:0:0:
435,330,127274,5,0,0:0:0:0:
452,329,127363,1,0,0:0:0:0:
468,331,127452,2,0,P|504:251|459:196,1,152.999995330811,0|10,1:2|0:0,0:0:0:0:
314,256,127984,1,2,0:0:0:0:
317,271,128073,1,0,0:0:0:0:
319,288,128163,1,2,1:2:0:0:
460,126,128340,1,2,1:2:0:0:
295,13,128517,1,10,0:0:0:0:
337,182,128695,5,2,0:0:0:0:
351,186,128784,1,0,0:0:0:0:
368,190,128873,2,0,P|374:151|382:113,1,76.4999976654053,0|0,1:2|1:2,0:0:0:0:
144,120,129227,1,10,0:0:0:0:
270,19,129405,2,0,P|276:57|284:95,1,76.4999976654053,6|0,1:2|0:0,0:0:0:0:
120,194,129760,1,10,0:0:0:0:
244,289,129937,1,10,0:0:0:0:
16,384,130115,6,0,L|-2:281,1,76.4999976654053,6|0,1:2|0:0,0:0:0:0:
161,166,130470,1,2,1:2:0:0:
84,290,130647,1,10,0:0:0:0:
248,384,130825,2,0,P|303:371|341:367,1,76.4999976654053,2|0,1:2|1:2,0:0:0:0:
191,197,131180,1,2,1:2:0:0:
98,373,131358,1,10,0:0:0:0:
307,269,131535,6,0,P|314:231|323:193,1,76.4999976654053,2|0,1:2|0:0,0:0:0:0:
124,90,131890,1,2,1:2:0:0:
347,0,132067,1,10,0:0:0:0:
253,159,132245,1,2,1:2:0:0:
253,159,132334,1,8,0:0:0:0:
253,159,132423,2,0,P|211:172|165:192,1,76.4999976654053,2|0,0:0|1:2,0:0:0:0:
403,107,132778,2,0,P|445:120|491:140,1,76.4999976654053,10|0,0:0|0:0,0:0:0:0:
328,272,133132,5,6,1:2:0:0:
237,78,133310,1,8,0:0:0:0:
407,204,133487,1,10,0:0:0:0:
213,335,133666,2,0,P|154:322|111:313,1,76.4999976654053,2|0,1:2|0:0,0:0:0:0:
279,164,134020,1,0,1:2:0:0:
363,354,134198,1,12,0:0:0:0:
33,101,134908,5,2,0:0:0:0:
23,100,135263,1,10,0:0:0:0:
227,35,135441,1,8,0:3:0:0:
156,217,135618,2,0,P|142:185|158:145,1,59.4999981842042,6|4,0:3|0:3,0:0:0:0:
321,59,135973,6,0,P|334:125|345:178,1,102,4|0,1:2|0:0,0:0:0:0:
369,186,136328,2,0,P|358:246|341:335,1,136,10|10,0:0|0:0,0:0:0:0:
343,319,136861,1,0,1:2:0:0:
261,371,137038,1,8,0:0:0:0:
261,371,137216,6,0,P|223:369|193:333,1,68,2|0,1:2|1:2,0:0:0:0:
99,369,137571,1,2,0:0:0:0:
92,371,137748,1,8,0:0:0:0:
134,288,137926,2,0,P|123:247|113:205,1,68,2|8,0:0|0:0,0:0:0:0:
189,162,138281,1,0,1:2:0:0:
185,156,138458,2,0,P|196:115|206:73,1,68,8|0,0:0|1:2,0:0:0:0:
98,47,138813,6,0,P|123:91|206:86,1,136,0|10,1:2|0:0,0:0:0:0:
271,39,139346,1,2,0:0:0:0:
271,39,139524,2,0,P|305:46|349:53,2,68,2|0|10,1:2|1:2|0:0,0:0:0:0:
201,90,140056,6,0,P|211:134|232:228,1,136,2|2,1:2|1:2,0:0:0:0:
170,266,140589,2,0,P|195:292|237:298,1,68,10|0,0:0|0:0,0:0:0:0:
270,370,140944,2,0,P|305:361|331:327,1,68,8|0,0:0|1:2,0:0:0:0:
410,326,141299,2,0,P|420:291|403:253,1,63.75,4|0,0:2|0:0,0:0:0:0:
370,200,141654,6,0,B|331:182|289:209|310:221|272:254|225:229,1,152.999995330811,4|2,0:2|1:2,0:0:0:0:
140,318,142186,1,0,0:0:0:0:
77,212,142364,1,2,1:2:0:0:
71,207,142541,2,0,P|81:164|90:116,1,76.4999976654053,2|0,0:0|1:2,0:0:0:0:
246,24,142896,6,0,P|236:67|227:115,1,76.4999976654053,2|4,0:0|1:2,0:0:0:0:
293,262,143251,1,2,0:0:0:0:
169,185,143429,1,6,1:2:0:0:
335,111,143606,2,0,P|342:148|351:185,1,76.4999976654053,2|4,0:0|1:2,0:0:0:0:
214,297,143961,1,0,1:2:0:0:
422,372,144139,2,0,P|381:334|326:339,1,114.749996498108,12|0,0:0|0:0,0:0:0:0:
295,362,144494,6,0,P|251:349|181:334,1,101.999996887207,6|2,1:2|0:0,0:0:0:0:
115,376,145026,1,2,0:0:0:0:
113,366,145204,2,0,P|106:333|99:302,1,50.9999984436036
172,250,145559,2,0,P|179:217|186:186,1,50.9999984436036
67,149,145914,6,0,P|116:137|165:123,1,101.999996887207,2|2,0:0|0:0,0:0:0:0:
302,185,146447,1,2,0:0:0:0:
286,45,146624,2,0,P|241:39|211:144,1,152.999995330811,0|10,0:0|0:0,0:0:0:0:
405,134,147157,6,0,B|438:133|444:165|444:165|421:252,1,127.5,6|0,1:2|0:0,0:0:0:0:
412,266,147512,1,8,0:0:0:0:
309,81,147689,1,8,0:0:0:0:
176,242,147867,2,0,P|254:217|363:202,1,170,4|0,1:2|1:2,0:0:0:0:
94,146,148399,6,0,P|48:168|69:287,1,170,12|0,0:0|1:2,0:0:0:0:
262,343,148932,2,0,P|278:268|306:158,1,170,14|2,0:0|1:2,0:0:0:0:
420,37,149464,1,10,0:0:0:0:
206,114,149642,1,10,0:3:0:0:
377,104,149819,1,6,0:3:0:0:
159,20,149997,6,0,P|183:111|196:198,1,170,6|8,1:2|1:2,0:0:0:0:
169,315,150529,1,8,1:2:0:0:
294,174,150707,1,8,1:2:0:0:
348,371,150884,1,8,1:2:0:0:
180,154,151062,1,8,1:2:0:0:
121,374,151239,1,8,1:2:0:0:
260,99,151417,1,4,1:2:0:0:
423,370,151772,5,8,0:0:0:0:
85,272,151950,1,8,0:0:0:0:
85,272,152305,5,2,0:0:0:0:
101,267,152482,1,0,0:0:0:0:
119,262,152660,1,2,0:0:0:0:
132,257,152837,1,0,0:0:0:0:
293,81,153015,6,0,P|251:112|296:197,1,140.25000428009,6|0,1:2|0:0,0:0:0:0:
290,196,153370,2,0,P|345:181|419:162,1,93.5000028533936,8|0,0:0|0:0,0:0:0:0:
274,341,153725,1,2,1:2:0:0:
461,286,153902,1,0,1:2:0:0:
249,327,154080,2,0,P|189:306|138:303,1,93.5000028533936,10|0,0:0|0:0,0:0:0:0:
145,123,154435,6,0,P|181:163|176:216,1,93.5000028533936,2|0,1:2|1:2,0:0:0:0:
93,382,154790,1,10,0:0:0:0:
4,210,154967,2,0,P|38:205|99:190,1,93.5000028533936,2|0,1:2|0:0,0:0:0:0:
249,327,155322,1,0,1:2:0:0:
254,126,155500,1,8,0:0:0:0:
79,283,155677,5,2,0:0:0:0:
71,279,155766,1,0,0:0:0:0:
61,273,155855,2,0,P|80:223|89:178,1,93.5000028533936,0|2,1:2|0:0,0:0:0:0:
197,61,156210,1,10,0:0:0:0:
10,161,156388,1,2,0:0:0:0:
213,268,156565,1,2,1:2:0:0:
106,104,156743,1,2,1:2:0:0:
100,317,156920,1,10,0:0:0:0:
227,147,157098,1,2,0:0:0:0:
295,354,157275,6,0,P|336:344|393:336,1,93.5000028533936,2|0,1:2|1:2,0:0:0:0:
197,241,157630,1,10,0:0:0:0:
440,155,157808,2,0,B|396:130|340:168|373:191|325:237|263:200,1,187.000005706787,2|0,1:2|1:2,0:0:0:0:
439,340,158340,2,0,P|445:297|460:245,1,93.5000028533936,8|0,0:0|0:0,0:0:0:0:
207,144,158695,6,0,P|246:181|301:172,1,93.5000028533936,6|0,1:2|0:0,0:0:0:0:
443,49,159050,2,0,P|398:47|357:89,1,93.5000028533936,8|0,0:0|0:0,0:0:0:0:
353,301,159405,1,2,1:2:0:0:
440,138,159583,1,0,1:2:0:0:
232,248,159760,2,0,P|225:206|211:151,1,93.5000028533936,10|0,0:0|0:0,0:0:0:0:
50,21,160115,5,2,1:2:0:0:
258,91,160293,1,8,0:0:0:0:
56,192,160470,1,10,0:0:0:0:
187,13,160648,2,0,P|169:84|153:156,1,140.25000428009,6|0,1:2|0:0,0:0:0:0:
173,174,161003,1,0,1:2:0:0:
50,344,161180,2,0,P|39:284|27:242,1,93.5000028533936,8|2,0:0|0:0,0:0:0:0:
51,102,161535,5,2,1:2:0:0:
149,255,161713,2,0,P|201:256|241:220,1,93.5000028533936,2|8,0:0|0:0,0:0:0:0:
352,106,162068,1,2,1:2:0:0:
352,106,162157,1,8,0:0:0:0:
352,106,162245,1,0,1:2:0:0:
471,291,162423,1,2,1:2:0:0:
442,126,162601,1,10,0:0:0:0:
329,312,162778,1,2,0:0:0:0:
211,94,162956,5,2,1:2:0:0:
412,249,163133,1,10,0:0:0:0:
412,249,163222,1,8,0:0:0:0:
412,249,163311,1,10,0:0:0:0:
172,363,163488,2,0,P|147:329|155:274,1,93.5000028533936,6|0,1:2|0:0,0:0:0:0:
334,83,163843,6,0,L|324:130,1,42.5,8|8,0:0|0:0,0:0:0:0:
143,193,164021,1,10,0:0:0:0:
134,154,164109,1,8,0:0:0:0:
123,110,164198,2,0,L|112:62,1,42.5,8|8,0:0|0:0,0:0:0:0:
304,211,164376,6,0,B|324:236|349:256|349:256|318:374,1,187.000005706787,6|8,1:2|0:0,0:0:0:0:
431,201,164908,1,0,0:0:0:0:
431,201,164997,1,0,0:0:0:0:
431,201,165086,1,2,1:2:0:0:
238,283,165263,1,0,1:2:0:0:
443,383,165441,2,0,L|467:292,1,93.5000028533936,10|0,0:0|0:0,0:0:0:0:
279,120,165796,6,0,L|303:210,1,93.5000028533936,2|0,1:2|1:2,0:0:0:0:
384,82,166151,1,10,0:0:0:0:
193,194,166328,2,0,B|99:169|113:248|15:227,1,187.000005706787,2|0,1:2|1:2,0:0:0:0:
185,91,166861,1,8,0:0:0:0:
15,38,167038,5,2,0:0:0:0:
15,38,167127,1,0,0:0:0:0:
15,38,167216,2,0,L|39:128,1,93.5000028533936,0|2,1:2|0:0,0:0:0:0:
224,298,167571,1,10,0:0:0:0:
16,227,167748,1,2,0:0:0:0:
185,91,167926,1,2,1:2:0:0:
73,313,168103,1,2,1:2:0:0:
242,177,168281,1,10,0:0:0:0:
39,128,168458,1,2,0:0:0:0:
224,298,168636,6,0,L|314:273,1,93.5000028533936,2|0,1:2|1:2,0:0:0:0:
512,328,168991,1,10,0:0:0:0:
428,157,169168,2,0,B|409:226|409:226|424:263|424:263|404:336,1,187.000005706787,2|0,1:2|1:2,0:0:0:0:
241,177,169701,2,0,P|278:149|324:149,1,93.5000028533936,12|0,0:0|0:0,0:0:0:0:
224,298,170056,6,0,B|182:273|143:291|143:291|124:320|87:327,1,152.999995330811,6|8,1:2|0:0,0:0:0:0:
87,327,170766,2,0,L|67:253,1,76.4999976654053,10|0,0:0|1:2,0:0:0:0:
183,178,171121,2,0,L|163:251,1,76.4999976654053,10|0,0:0|1:2,0:0:0:0:
4,146,171476,6,0,P|51:115|107:122,1,114.749996498108,10|0,0:0|0:0,0:0:0:0:
177,81,171831,2,0,P|181:43|167:8,1,76.4999976654053,10|0,0:0|1:2,0:0:0:0:
73,207,172186,1,10,0:0:0:0:
73,207,172364,1,0,1:2:0:0:
262,121,172541,2,0,L|280:125,7,19.1249994163513,10|0|0|0|0|0|0|0,0:0|0:0|0:0|0:0|1:2|0:0|0:0|0:0,0:0:0:0:
337,182,172896,6,0,P|377:158|423:161,1,93.5000028533936,10|0,0:0|0:0,0:0:0:0:
251,359,173251,2,0,B|227:271|227:271|223:270|223:270|199:181,1,187.000005706787,8|8,0:0|0:0,0:0:0:0:
346,285,173784,1,0,1:2:0:0:
138,366,173961,2,0,L|47:341,1,93.5000028533936,8|0,0:0|1:2,0:0:0:0:
199,181,174316,5,8,0:0:0:0:
251,359,174494,1,0,0:0:0:0:
289,129,174671,5,8,0:0:0:0:
182,288,174849,1,0,1:2:0:0:
154,75,175026,5,8,0:0:0:0:
276,263,175204,1,2,1:2:0:0:
361,24,175381,2,0,L|270:0,1,93.5000028533936,10|2,0:0|0:0,0:0:0:0:
383,157,175737,5,0,1:2:0:0:
457,6,175914,1,0,1:2:0:0:
289,128,176092,2,0,P|284:175|302:217,1,93.5000028533936,12|0,0:0|0:0,0:0:0:0:
472,319,176447,5,2,1:2:0:0:
383,157,176624,1,0,1:2:0:0:
295,315,176802,2,0,P|341:307|377:279,1,93.5000028533936,12|0,0:0|0:0,0:0:0:0:
206,188,177157,5,2,1:2:0:0:
168,347,177334,1,0,1:2:0:0:
301,216,177512,2,0,P|306:169|288:127,1,93.5000028533936,12|0,0:0|0:0,0:0:0:0:
107,40,177867,5,2,1:2:0:0:
206,188,178044,1,0,1:2:0:0:
294,30,178222,2,0,P|247:37|211:65,1,93.5000028533936,12|0,0:0|0:0,0:0:0:0:
407,155,178577,6,0,L|431:62,1,85,2|0,1:2|1:2,0:0:0:0:
288,127,178932,2,0,B|304:188|304:188|281:228|281:228|297:286,1,170,8|2,0:0|1:2,0:0:0:0:
385,242,179464,1,0,1:2:0:0:
203,166,179642,2,0,P|161:163|124:184,1,85,8|2,0:0|0:0,0:0:0:0:
52,326,179997,5,2,1:2:0:0:
186,255,180174,1,2,1:2:0:0:
31,196,180352,1,10,0:0:0:0:
163,345,180529,2,0,B|247:367|235:296|322:314,1,170,6|0,1:2|1:2,0:0:0:0:
494,350,181062,1,8,0:0:0:0:
437,213,181239,5,2,0:0:0:0:
437,213,181328,1,0,0:0:0:0:
437,213,181417,2,0,L|415:295,1,85,2|0,1:2|1:2,0:0:0:0:
250,157,181772,2,0,P|314:106|395:123,1,170,8|2,0:0|1:2,0:0:0:0:
338,199,182305,1,0,1:2:0:0:
142,133,182482,2,0,L|163:215,1,85,8|2,0:0|0:0,0:0:0:0:
348,310,182837,5,2,1:2:0:0:
250,157,183015,1,2,1:2:0:0:
183,324,183192,1,10,0:0:0:0:
338,199,183370,2,0,B|366:90|366:90|341:66|314:71,1,170,10|8,1:2|0:0,0:0:0:0:
156,36,183902,1,8,0:3:0:0:
83,55,184080,1,4,0:3:0:0:
193,254,184257,6,0,P|164:218|59:231,1,152.999995330811,6|0,1:2|0:0,0:0:0:0:
10,302,184790,1,0,1:2:0:0:
225,334,184967,2,0,P|233:279|255:167,1,152.999995330811,10|0,0:0|0:0,0:0:0:0:
148,84,185500,1,10,0:0:0:0:
166,104,185589,1,8,0:0:0:0:
190,114,185677,5,2,1:2:0:0:
367,7,185855,2,0,P|320:14|208:35,1,152.999995330811,8|0,0:0|1:2,0:0:0:0:
346,172,186387,2,0,P|386:164|424:159,1,76.4999976654053,8|0,0:0|0:0,0:0:0:0:
512,58,186742,1,2,0:0:0:0:
425,73,186920,1,0,1:2:0:0:
326,260,187097,6,0,P|276:251|170:238,1,152.999995330811,6|0,1:2|1:2,0:0:0:0:
135,318,187630,1,2,1:2:0:0:
157,327,187719,1,2,0:0:0:0:
181,327,187808,1,10,0:0:0:0:
256,202,187985,2,0,P|247:160|240:124,1,76.4999976654053,0|0,1:2|0:0,0:0:0:0:
240,39,188340,1,8,0:0:0:0:
250,38,188429,1,8,0:0:0:0:
262,41,188518,5,2,1:2:0:0:
15,114,188695,2,0,P|70:102|174:81,1,152.999995330811,8|2,0:0|1:2,0:0:0:0:
304,205,189228,1,8,0:0:0:0:
135,177,189405,1,2,1:2:0:0:
252,67,189583,1,10,0:3:0:0:
225,155,189760,1,4,0:3:0:0:
472,0,189938,6,0,P|480:47|500:175,1,152.999995330811,4|2,1:2|0:0,0:0:0:0:
512,236,190470,1,2,1:2:0:0:
402,87,190648,2,0,P|354:100|323:200,1,152.999995330811,10|2,0:0|0:0,0:0:0:0:
412,186,191180,1,10,0:0:0:0:
408,176,191269,1,8,0:0:0:0:
402,170,191358,5,2,1:2:0:0:
235,210,191535,2,0,P|158:199|57:185,1,152.999995330811,10|0,0:0|0:0,0:0:0:0:
85,276,192068,2,0,P|122:267|155:235,1,76.4999976654053,10|2,0:0|0:0,0:0:0:0:
4,234,192423,2,0,P|-7:270|3:314,1,76.4999976654053,2|2,1:2|0:0,0:0:0:0:
268,289,192778,6,0,P|276:222|289:128,1,152.999995330811,2|0,1:2|0:0,0:0:0:0:
277,299,193310,1,0,1:2:0:0:
439,196,193488,2,0,P|431:129|418:35,1,152.999995330811,10|0,0:0|0:0,0:0:0:0:
451,205,194021,6,0,P|445:155|441:125,1,76.4999976654053,2|2,1:2|0:0,0:0:0:0:
250,61,194376,1,8,0:0:0:0:
364,246,194553,1,8,0:0:0:0:
429,34,194731,1,8,0:0:0:0:
210,178,194908,1,10,0:0:0:0:
444,305,195086,1,8,0:0:0:0:
461,309,195174,1,10,0:0:0:0:
479,313,195263,1,8,0:0:0:0:
218,376,195441,1,10,0:0:0:0:
201,380,195529,1,8,0:0:0:0:
183,383,195618,6,0,P|175:330|168:298,1,85,6|2,1:2|0:0,0:0:0:0:
274,118,195973,1,10,0:0:0:0:
54,195,196151,1,2,0:0:0:0:
265,301,196328,1,2,1:2:0:0:
159,112,196506,5,2,1:2:0:0:
132,71,196595,1,0,0:0:0:0:
90,60,196683,1,8,0:0:0:0:
60,67,196772,1,0,0:0:0:0:
42,82,196861,1,0,0:0:0:0:
35,97,196950,1,0,0:0:0:0:
37,111,197038,6,0,P|45:151|53:194,1,85,2|0,1:2|1:2,0:0:0:0:
75,289,197393,1,8,0:0:0:0:
159,112,197571,2,0,B|246:87|234:162|321:134,1,170,0|0,1:2|1:2,0:0:0:0:
501,165,198103,1,8,0:0:0:0:
440,4,198281,1,0,1:2:0:0:
432,10,198370,1,8,0:0:0:0:
427,19,198458,6,0,P|422:63|416:110,1,85,6|0,1:2|1:2,0:0:0:0:
400,199,198813,1,8,0:0:0:0:
233,149,198991,1,0,1:2:0:0:
382,292,199168,1,2,1:2:0:0:
311,88,199346,6,0,P|315:63|320:39,1,42.5,0|0,1:2|0:0,0:0:0:0:
215,234,199524,2,0,P|211:259|206:283,1,42.5,8|0,0:0|0:0,0:0:0:0:
320,103,199701,2,0,P|324:78|329:54,1,42.5
226,251,199879,5,2,1:2:0:0:
132,85,200056,1,0,1:2:0:0:
113,82,200145,1,0,0:0:0:0:
97,76,200234,1,8,0:0:0:0:
0,246,200411,1,0,0:0:0:0:
146,173,200589,5,2,1:2:0:0:
186,150,200677,1,0,0:0:0:0:
233,149,200766,1,8,0:0:0:0:
275,169,200855,1,8,0:0:0:0:
305,203,200944,1,8,0:0:0:0:
336,238,201032,1,8,0:0:0:0:
378,257,201121,1,8,0:0:0:0:
425,256,201210,1,8,0:0:0:0:
465,234,201299,6,0,P|469:212|464:183,3,50.9999984436036,6|0|0|0,1:2|0:0|1:2|0:0,0:0:0:0:
494,101,201654,2,0,P|478:85|451:72,3,50.9999984436036,8|0|0|0,0:0|0:0|0:0|0:0,0:0:0:0:
401,1,202009,2,0,P|378:4|353:19,1,50.9999984436036,2|0,1:2|0:0,0:0:0:0:
266,18,202186,2,0,P|256:38|253:67,1,50.9999984436036,0|0,1:2|0:0,0:0:0:0:
203,138,202364,2,0,P|214:157|236:176,3,50.9999984436036,12|0|0|0,0:0|0:0|0:0|0:0,0:0:0:0:
278,271,202719,6,0,P|326:273|366:230,1,101.999996887207,2|0,1:2|1:2,0:0:0:0:
285,175,203074,5,12,0:0:0:0:
235,175,203192,5,0,0:0:0:0:
195,201,203310,5,0,0:0:0:0:
165,239,203429,6,0,P|111:247|15:268,1,152.999995330811,2|0,1:2|0:0,0:0:0:0:
9,283,203784,6,0,P|44:273|99:262,1,85.4249959592058,8|0,0:0|0:0,0:0:0:0:
310,374,204139,5,2,1:2:0:0:
312,360,204228,1,0,0:0:0:0:
314,349,204316,2,0,B|306:289|306:289|302:284|302:284|295:223,1,127.500004863739,2|12,1:2|0:0,0:0:0:0:
246,4,204671,5,0,0:0:0:0:
246,4,204760,1,0,0:0:0:0:
246,4,204849,1,2,1:2:0:0:
112,78,205026,1,2,1:2:0:0:
288,145,205204,2,0,P|239:153|187:163,1,101.999996887207,14|0,0:0|0:0,0:0:0:0:
357,279,205559,5,2,1:2:0:0:
368,40,205737,2,0,P|317:30|267:22,1,101.999996887207,2|12,1:2|0:0,0:0:0:0:
168,236,206092,5,0,0:0:0:0:
376,172,206269,1,2,1:2:0:0:
98,71,206447,5,10,0:0:0:0:
357,279,206624,1,14,1:2:0:0:
55,359,206802,6,0,P|69:258|85:157,1,203.999993774414,10|0,1:2|0:0,0:0:0:0:
91,249,208399,6,0,B|63:172|63:172|46:155|46:155|49:132|49:132|34:93|34:93|22:56|51:18|111:6|163:17|191:60|192:117|145:160|78:148,1,476,6|0,1:2|1:2,0:0:0:0:
203,359,209819,6,0,B|174:318|172:265|215:222|215:222|280:222|311:280|303:327|303:327|272:300|238:298|220:315,1,386.749982295991,6|2,1:2|1:2,0:0:0:0:
275,125,211239,6,0,B|294:102|315:57|310:13|310:13|341:49|356:83|359:137|359:137|390:95|415:58|408:11,1,386.749982295991,4|2,1:2|1:2,0:0:0:0:
367,267,212660,6,0,B|400:297|409:379|409:379|470:375|508:339|506:275|461:216|393:251,1,371.875,6|0,1:2|0:0,0:0:0:0:
252,218,213370,6,0,B|221:188|218:138|252:114,1,117.937499550104,8|0,0:3|0:0,0:0:0:0:
252,114,213547,2,0,B|305:101|349:136|355:184,1,117.937499550104,8|0,0:3|0:0,0:0:0:0:
349,161,213725,6,0,P|288:155|250:176,1,106.25,4|0,0:3|0:0,0:0:0:0:
275,345,214080,6,0,P|208:331|121:315,1,144.500002756119,6|0,1:2|1:2,0:0:0:0:
59,269,214612,1,0,0:0:0:0:
59,269,214790,2,0,P|85:235|81:200,1,72.2500013780594,2|0,1:2|0:0,0:0:0:0:
0,92,215145,2,0,P|7:135|13:178,1,72.2500013780594,2|0,1:2|0:0,0:0:0:0:
123,25,215500,6,0,P|189:30|204:111,1,144.500002756119,2|2,1:2|1:2,0:0:0:0:
157,177,216032,1,2,0:0:0:0:
157,177,216210,2,0,P|199:194|235:182,1,72.2500013780594,0|0,1:2|0:0,0:0:0:0:
361,107,216565,2,0,P|325:102|293:118,1,72.2500013780594,0|2,1:2|0:0,0:0:0:0:
388,303,216920,6,0,P|397:255|403:222,1,72.2500013780594,2|2,1:2|0:0,0:0:0:0:
241,380,217275,2,0,P|232:332|226:299,1,72.2500013780594,0|2,1:2|0:0,0:0:0:0:
121,96,217630,1,0,1:2:0:0:
307,235,217808,1,2,1:2:0:0:
105,331,217985,2,0,P|66:323|31:313,1,72.2500013780594,10|2,0:0|0:0,0:0:0:0:
197,58,218340,5,6,1:2:0:0:
313,323,218518,1,2,0:0:0:0:
453,69,218695,1,10,0:0:0:0:
197,245,218873,2,0,P|176:212|183:165,1,72.2500013780594,6|0,1:2|0:0,0:0:0:0:
467,212,219228,5,8,0:0:0:0:
497,244,219316,1,8,0:0:0:0:
500,287,219405,1,10,0:0:0:0:
482,325,219494,1,8,0:0:0:0:
447,351,219583,1,8,0:0:0:0:
404,353,219671,1,8,0:0:0:0:
369,335,219760,6,0,P|378:266|394:155,1,146.62500279665,6|0,1:2|0:0,0:0:0:0:
384,146,220115,2,0,P|337:133|294:151,1,97.7500018644333,8|0,0:0|0:0,0:0:0:0:
70,200,220470,1,2,1:2:0:0:
249,305,220648,1,0,1:2:0:0:
204,60,220825,2,0,L|185:165,1,97.7500018644333,10|0,0:0|0:0,0:0:0:0:
172,370,221180,5,2,1:2:0:0:
360,182,221358,1,0,1:2:0:0:
102,293,221535,1,10,0:0:0:0:
394,265,221713,2,0,B|366:290|322:286|299:257|315:245|286:208|242:201|206:244,1,195.500003728867,2|0,1:2|1:2,0:0:0:0:
27,179,222245,1,8,0:0:0:0:
141,384,222423,5,2,0:0:0:0:
151,378,222512,1,0,0:0:0:0:
159,374,222600,2,0,P|149:318|142:269,1,97.7500018644333,0|2,1:2|0:0,0:0:0:0:
272,357,222955,1,10,0:0:0:0:
41,295,223133,1,2,0:0:0:0:
234,139,223310,5,2,1:2:0:0:
39,314,223488,1,2,1:2:0:0:
116,75,223666,1,10,0:0:0:0:
254,271,223843,1,2,0:0:0:0:
23,132,224021,6,0,P|3:89|21:45,1,97.7500018644333,2|0,1:2|1:2,0:0:0:0:
315,195,224376,1,10,0:0:0:0:
119,361,224553,2,0,P|126:279|139:147,1,195.500003728867,2|0,1:2|1:2,0:0:0:0:
283,21,225086,2,0,P|331:31|383:42,1,97.7500018644333,12|0,0:0|1:2,0:0:0:0:
446,7,225352,1,8,0:0:0:0:
461,2,225441,6,0,P|472:45|450:86,1,76.4999976654053,6|0,1:2|0:0,0:0:0:0:
417,215,225796,2,0,P|390:164|318:171,1,114.749996498108,8|0,0:0|0:0,0:0:0:0:
320,181,226151,2,0,P|325:223|334:282,1,76.4999976654053,10|0,0:0|1:2,0:0:0:0:
394,355,226506,1,10,0:0:0:0:
393,366,226683,1,0,1:2:0:0:
272,315,226861,6,0,P|210:323|133:338,1,114.749996498108,10|0,0:0|0:0,0:0:0:0:
137,350,227216,1,10,0:0:0:0:
15,230,227393,1,0,1:2:0:0:
172,126,227571,2,0,L|158:209,1,76.4999976654053,10|0,0:0|1:2,0:0:0:0:
53,55,227926,1,10,0:0:0:0:
279,151,228103,5,0,1:2:0:0:
288,156,228192,1,0,1:2:0:0:
300,161,228281,2,0,B|321:183|348:179|372:144|360:139|375:108|407:99|446:124,1,165.749992412568,10|0,0:0|0:0,0:0:0:0:
450,134,228636,2,0,P|464:183|425:215,1,93.5000028533936,8|0,0:0|0:0,0:0:0:0:
73,215,228991,5,8,0:0:0:0:
315,318,229168,1,0,1:2:0:0:
11,279,229346,5,8,0:0:0:0:
274,174,229524,1,0,1:2:0:0:
121,366,229701,6,0,P|34:363|16:266,1,187.000005706787,8|8,0:0|0:0,0:0:0:0:
180,121,230234,1,0,1:2:0:0:
360,278,230411,5,8,0:0:0:0:
106,179,230589,1,2,1:2:0:0:
424,83,230766,5,10,0:0:0:0:
180,249,230944,1,2,0:0:0:0:
425,187,231121,5,0,1:2:0:0:
214,100,231299,1,0,1:2:0:0:
301,306,231476,2,0,L|315:201,1,93.5000028533936,12|0,0:0|0:0,0:0:0:0:
196,374,231831,5,2,1:2:0:0:
399,308,232009,1,0,1:2:0:0:
203,137,232186,2,0,L|215:229,1,93.5000028533936,12|0,0:0|0:0,0:0:0:0:
295,49,232541,5,2,1:2:0:0:
96,157,232719,1,0,1:2:0:0:
371,108,232896,2,0,P|397:51|379:8,1,93.5000028533936,12|0,0:0|0:0,0:0:0:0:
226,279,233251,5,2,1:2:0:0:
453,191,233429,1,0,1:2:0:0:
266,76,233606,1,8,0:0:0:0:
271,102,233695,1,8,0:0:0:0:
275,125,233784,1,8,0:0:0:0:
278,148,233873,1,8,0:0:0:0:
281,171,233961,5,10,0:0:0:0:
81,324,234139,1,0,1:2:0:0:
81,324,234228,1,0,1:2:0:0:
81,324,234316,2,0,B|129:272|191:287|191:287|212:324|244:328,1,191.250007295609,6|0,1:2|0:0,0:0:0:0:
282,312,234671,1,2,1:2:0:0:
86,173,234849,1,0,1:2:0:0:
297,78,235026,2,0,L|280:170,1,93.5000028533936,10|0,0:0|1:2,0:0:0:0:
278,211,235293,1,8,0:0:0:0:
278,211,235381,5,2,1:2:0:0:
157,12,235559,1,0,1:2:0:0:
377,140,235737,1,10,0:0:0:0:
157,251,235914,2,0,P|85:195|0:222,1,187.000005706787,2|0,1:2|1:2,0:0:0:0:
201,122,236447,1,8,0:0:0:0:
153,354,236624,1,2,1:2:0:0:
151,368,236712,1,8,0:0:0:0:
148,383,236801,5,0,1:2:0:0:
69,114,236979,1,2,0:0:0:0:
302,215,237157,1,10,0:0:0:0:
49,257,237334,1,2,0:0:0:0:
218,66,237512,5,2,1:2:0:0:
290,317,237689,1,2,1:2:0:0:
317,48,237867,1,10,0:0:0:0:
210,256,238044,1,2,0:0:0:0:
498,126,238222,6,0,P|486:194|476:255,1,93.5000028533936,2|0,1:2|1:2,0:0:0:0:
403,10,238577,1,10,0:0:0:0:
309,182,238754,2,0,B|326:271|326:271|323:274|323:274|339:364,1,187.000005706787,2|0,1:2|1:2,0:0:0:0:
213,218,239287,2,0,P|170:198|124:201,1,93.5000028533936,8|0,0:0|0:0,0:0:0:0:
0,370,239642,6,0,L|92:353,1,93.5000028533936,6|0,1:2|0:0,0:0:0:0:
44,140,239997,2,0,L|27:232,1,93.5000028533936,8|0,0:0|1:2,0:0:0:0:
26,273,240263,1,8,0:0:0:0:
26,273,240352,1,2,1:2:0:0:
185,120,240529,1,0,1:2:0:0:
241,316,240707,2,0,P|194:318|152:299,1,93.5000028533936,10|0,0:0|0:0,0:0:0:0:
272,69,241062,5,2,1:2:0:0:
342,324,241239,1,8,0:0:0:0:
125,202,241417,1,10,0:0:0:0:
410,199,241595,2,0,B|371:148|311:163|311:163|291:199|251:205,1,187.000005706787,6|0,1:2|1:2,0:0:0:0:
60,99,242127,1,8,0:0:0:0:
186,283,242305,1,2,0:0:0:0:
228,58,242482,5,2,1:2:0:0:
89,253,242660,2,0,L|106:345,1,93.5000028533936,2|8,0:0|0:0,0:0:0:0:
7,138,243015,1,2,1:2:0:0:
7,138,243103,1,8,0:0:0:0:
7,138,243192,1,0,1:2:0:0:
186,221,243370,1,2,1:2:0:0:
10,316,243547,1,10,0:0:0:0:
132,107,243725,1,2,0:0:0:0:
256,367,243902,5,2,1:2:0:0:
68,214,244080,1,10,0:0:0:0:
53,217,244169,1,8,0:0:0:0:
39,219,244257,1,10,0:0:0:0:
220,57,244435,6,0,P|274:40|344:91,1,140.25000428009,6|0,1:2|0:0,0:0:0:0:
366,160,244790,2,0,P|357:193|351:229,1,46.7500014266968,8|8,0:0|0:0,0:0:0:0:
256,367,244967,1,10,0:0:0:0:
249,332,245056,1,8,0:0:0:0:
243,297,245145,1,8,0:0:0:0:
237,263,245234,1,8,0:0:0:0:
231,228,245322,6,0,P|188:209|142:211,1,93.5000028533936,6|0,1:2|0:0,0:0:0:0:
350,330,245677,2,0,L|442:313,1,93.5000028533936,8|0,0:0|0:0,0:0:0:0:
512,93,246032,1,2,1:2:0:0:
380,233,246210,1,0,1:2:0:0:
357,0,246387,2,0,P|403:-2|446:16,1,93.5000028533936,10|0,0:0|0:0,0:0:0:0:
512,291,246742,5,2,1:2:0:0:
385,97,246920,1,0,1:2:0:0:
418,327,247097,1,10,0:0:0:0:
292,137,247275,2,0,B|197:105|213:199|118:167,1,187.000005706787,2|0,1:2|1:2,0:0:0:0:
0,0,247808,1,8,0:0:0:0:
21,201,247985,6,0,L|38:109,1,93.5000028533936,2|0,0:0|1:2,0:0:0:0:
210,243,248340,1,2,0:0:0:0:
0,301,248518,1,10,0:0:0:0:
163,124,248695,1,2,0:0:0:0:
217,345,248873,5,2,1:2:0:0:
21,201,249050,1,2,1:2:0:0:
260,155,249228,1,10,0:0:0:0:
105,343,249405,1,2,0:0:0:0:
163,124,249583,5,2,1:2:0:0:
307,284,249760,1,0,1:2:0:0:
237,56,249938,1,10,0:0:0:0:
216,326,250115,2,0,P|285:383|372:360,1,187.000005706787,2|0,1:2|1:2,0:0:0:0:
395,329,250559,1,0,1:2:0:0:
395,329,250648,2,0,P|401:259|409:189,1,140.25000428009,12|0,0:0|0:0,0:0:0:0:
479,116,251003,6,0,P|503:150|509:197,1,80.7499978437424,6|0,1:2|0:0,0:0:0:0:
380,92,251358,2,0,P|397:55|427:28,1,80.7499978437424,8|0,0:0|0:0,0:0:0:0:
409,189,251713,1,10,0:0:0:0:
281,96,251890,1,0,1:2:0:0:
346,269,252068,1,10,0:0:0:0:
380,92,252245,1,0,1:2:0:0:
220,178,252423,6,0,L|140:163,1,80.7499978437424,10|0,0:0|0:0,0:0:0:0:
21,319,252778,2,0,L|100:304,1,80.7499978437424,10|0,0:0|1:2,0:0:0:0:
142,302,253044,1,0,1:2:0:0:
142,302,253133,1,10,0:0:0:0:
188,82,253310,1,0,1:2:0:0:
45,220,253488,1,10,0:0:0:0:
128,0,253666,1,0,1:2:0:0:
219,236,253843,6,0,P|265:241|315:219,1,97.7500018644333,10|0,0:0|0:0,0:0:0:0:
457,23,254198,2,0,L|439:118,1,97.7500018644333,8|0,0:0|1:2,0:0:0:0:
353,317,254553,5,8,0:0:0:0:
269,79,254731,1,0,1:2:0:0:
227,361,254908,5,8,0:0:0:0:
353,140,255086,1,0,1:2:0:0:
368,143,255175,1,0,1:2:0:0:
382,145,255263,5,8,0:0:0:0:
131,235,255441,1,0,1:2:0:0:
441,294,255618,5,8,0:0:0:0:
209,170,255796,1,0,1:2:0:0:
408,46,255973,5,8,0:0:0:0:
293,293,256151,1,2,1:2:0:0:
210,24,256328,1,10,0:0:0:0:
416,200,256506,1,2,0:0:0:0:
131,234,256683,5,0,1:2:0:0:
334,141,256861,1,0,1:2:0:0:
75,150,257038,2,0,P|33:210|43:283,1,146.62500279665,12|0,0:0|0:0,0:0:0:0:
65,311,257393,5,2,1:2:0:0:
160,95,257571,1,0,1:2:0:0:
249,329,257748,2,0,B|316:309|316:309|319:312|319:312|388:291,1,146.62500279665,12|0,0:0|0:0,0:0:0:0:
425,281,258103,5,2,1:2:0:0:
209,185,258281,1,0,1:2:0:0:
366,26,258458,2,0,B|383:48|408:62|408:62|385:150,1,146.62500279665,12|0,0:0|0:0,0:0:0:0:
380,189,258813,1,2,1:2:0:0:
160,95,258991,1,0,1:2:0:0:
348,286,259168,2,0,P|396:290|444:267,1,97.7500018644333,12|0,0:0|0:0,0:0:0:0:
297,101,259524,6,0,L|279:192,1,93.5000028533936,2|0,1:2|1:2,0:0:0:0:
118,317,259879,1,8,0:0:0:0:
135,112,260056,5,2,0:0:0:0:
252,292,260234,2,0,P|298:294|340:275,1,93.5000028533936,2|0,1:2|1:2,0:0:0:0:
424,89,260589,1,8,0:0:0:0:
279,192,260766,1,2,0:0:0:0:
440,252,260944,5,2,1:2:0:0:
307,76,261121,1,2,1:2:0:0:
493,164,261299,1,10,0:0:0:0:
317,287,261476,2,0,P|250:227|164:253,1,187.000005706787,6|0,1:2|1:2,0:0:0:0:
0,111,262009,1,8,0:0:0:0:
68,288,262186,1,2,0:0:0:0:
193,148,262364,6,0,L|102:130,1,93.5000028533936,2|0,1:2|1:2,0:0:0:0:
302,34,262719,1,8,0:0:0:0:
297,222,262896,5,2,0:0:0:0:
165,49,263074,2,0,P|123:29|76:30,1,93.5000028533936,2|0,1:2|1:2,0:0:0:0:
11,252,263429,5,8,0:0:0:0:
193,148,263606,1,2,0:0:0:0:
0,99,263784,5,2,1:2:0:0:
192,251,263961,1,2,1:2:0:0:
76,30,264139,1,10,0:0:0:0:
281,201,264316,2,0,L|372:183,1,93.5000028533936,10|0,1:2|0:0,0:0:0:0:
256,32,264671,5,8,0:0:0:0:
192,251,264849,1,8,0:0:0:0:
345,84,265026,2,0,P|357:42|349:-10,1,93.5000028533936,2|0,1:2|0:0,0:0:0:0:
137,90,265381,5,8,0:0:0:0:
372,182,265559,1,8,0:3:0:0:
127,243,265737,2,0,L|36:261,1,93.5000028533936,2|0,1:2|0:0,0:0:0:0:
239,96,266092,5,8,0:0:0:0:
175,334,266269,1,8,0:0:0:0:
336,127,266447,2,0,P|376:111|429:114,1,93.5000028533936,2|0,1:2|0:0,0:0:0:0:
220,242,266802,5,8,0:0:0:0:
192,238,266890,1,8,0:0:0:0:
162,232,266979,1,8,0:0:0:0:
408,360,267157,1,6,1:2:0:0:
