osu file format v14

[General]
AudioFilename: audio.mp3
AudioLeadIn: 0
PreviewTime: 207601
Countdown: 0
SampleSet: Soft
StackLeniency: 0.5
Mode: 0
LetterboxInBreaks: 0
WidescreenStoryboard: 1

[Editor]
Bookmarks: 19524,50589,87689,96210,101890,113251,124612,144494,178577,208399,239642,267867
DistanceSpacing: 0.4
BeatDivisor: 4
GridSize: 16
TimelineZoom: 2

[Metadata]
Title:Super Noisy Nova (Xmas ver.)
TitleUnicode:Super Noisy Nova (Xmas ver.)
Artist:Sphere
ArtistUnicode:スフィア
Creator:Kujinn
Version:Basen & Co. Collab Insane
Source:宙のまにまに
Tags:Reform Nymphe Kiyoshi Guarden Kang Sae-byeok My Angel Ram Maaadbot a r m i n A_r_M_i_N Armin Halgoh Eli Elinor [_Eli_] Booliix Vaporfly red crewmate God Haachama Yumerios Pachiru Panacotta Basensorex MakiDonalds Kirishima- alevi Pincus HonigFNA torriru skro Chuu Sora no Manimani At The Mercy of the Sky op Opening Full ver version Christmas winter jpop j-pop japanese anime j pop female vocalist vocals スクランブルデイズ
BeatmapID:3381395
BeatmapSetID:1646994

[Difficulty]
HPDrainRate:5
CircleSize:3.8
OverallDifficulty:8
ApproachRate:9
SliderMultiplier:1.6
SliderTickRate:1

[Events]
//Background and Video events
0,0,"BG2.jpeg",0,0
//Break Periods
//Storyboard Layer 0 (Background)
//Storyboard Layer 1 (Fail)
//Storyboard Layer 2 (Pass)
//Storyboard Layer 3 (Foreground)
//Storyboard Layer 4 (Overlay)
//Storyboard Sound Samples

[TimingPoints]
8695,1000,4,2,22,30,1,0
8695,-125,4,2,22,30,0,0
8945,-125,4,2,22,30,0,0
12195,-125,4,2,22,5,0,0
12695,-62.5,4,2,22,30,0,0
12945,-62.5,4,2,22,30,0,0
14445,-62.5,4,2,22,5,0,0
14695,-125,4,2,22,30,0,0
14945,-125,4,2,22,30,0,0
18445,-125,4,2,22,5,0,0
19524,355.029585798817,4,2,22,45,1,0
19524,-400,4,2,22,45,0,0
22009,-133.333333333333,4,2,22,45,0,0
22275,-133.333333333333,4,2,22,5,0,0
22364,-133.333333333333,4,2,22,65,0,0
24316,-100,4,2,22,65,0,0
27955,-100,4,2,22,5,0,0
28044,-90.9090909090909,4,2,22,75,0,0
33103,-90.9090909090909,4,2,22,5,0,0
33192,-90.9090909090909,4,2,22,75,0,0
33636,-90.9090909090909,4,2,22,5,0,0
33725,-100,4,2,22,65,0,0
42245,-90.9090909090909,4,2,22,65,0,0
42512,-90.9090909090909,4,2,22,5,0,0
42600,-90.9090909090909,4,2,22,65,0,0
45086,-100,4,2,22,65,0,0
56447,-133.333333333333,4,2,2,55,0,0
62127,-100,4,2,22,65,0,0
64967,-133.333333333333,4,2,22,45,0,0
67452,-133.333333333333,4,2,22,65,0,0
67630,-100,4,2,22,65,0,0
69938,-200,4,2,22,65,0,0
70204,-200,4,2,22,5,0,0
70293,-133.333333333333,4,2,22,65,0,0
70559,-133.333333333333,4,2,22,5,0,0
70648,-83.3333333333333,4,2,22,85,0,1
87689,-133.333333333333,4,2,22,65,0,0
90529,-100,4,2,22,85,0,1
96210,-100,4,2,22,85,0,0
101890,-90.9090909090909,4,2,22,75,0,0
113251,-100,4,2,22,65,0,0
118932,-125,4,2,22,55,0,0
121772,-99.9999999999999,4,2,22,65,0,0
134198,-83.3333333333333,4,2,22,65,0,0
135973,-125,4,2,2,55,0,0
141299,-105.263157894737,4,2,2,55,0,0
141654,-105.263157894737,4,2,22,65,0,0
144139,-133.333333333333,4,2,22,65,0,0
144494,-133.333333333333,4,2,22,45,0,0
146979,-133.333333333333,4,2,22,75,0,0
147157,-100,4,2,22,75,0,0
152305,-133.333333333333,4,2,22,75,0,0
153015,-83.3333333333333,4,2,22,85,0,1
170056,-133.333333333333,4,2,22,65,0,0
172896,-100,4,2,22,85,0,1
178577,-100,4,2,22,85,0,0
184257,-133.333333333333,4,2,22,65,0,0
195618,-100,4,2,22,75,0,0
207689,-133.333333333333,4,2,22,55,0,0
218340,-100,4,2,22,75,0,0
219760,-83.3333333333333,4,2,22,85,0,1
225441,-133.333333333333,4,2,22,65,0,0
228103,-100,4,2,22,65,0,1
228281,-100,4,2,22,85,0,1
233961,-200,4,2,22,85,0,0
234316,-83.3333333333333,4,2,22,85,0,0
234671,-83.3333333333333,4,2,22,85,0,1
251003,-125,4,2,22,65,0,0
253843,-100,4,2,22,85,0,1
259524,-100,4,2,22,85,0,0
267867,-100,4,2,22,5,0,0

[Colours]
Combo1 : 104,151,102
Combo2 : 175,44,33
Combo3 : 237,63,63
Combo4 : 252,216,216
Combo5 : 249,211,162
Combo6 : 224,150,75
Combo7 : 165,95,61

[HitObjects]
342,117,8695,6,0,B|304:85|297:8|423:-37|522:36|493:168|397:175|333:199|342:264|353:335,1,480,2|0,0:0|0:0,0:0:0:0:
352,327,12695,2,0,B|321:285|284:236|225:264|156:322|47:253|62:137|180:83|227:139|223:186,1,448,2|0,0:0|0:0,0:0:0:0:
56,80,14695,6,0,B|151:-39|412:48|231:205|460:188,1,480,2|0,0:0|0:0,0:0:0:0:
404,320,19524,6,1,P|408:339|412:359,6,40,2|2|2|2|2|2|2,0:0|0:0|0:0|0:0|0:0|0:0|0:0,0:0:0:0:
484,265,21831,5,0,0:0:0:0:
484,265,22009,2,1,P|493:220|503:177,1,90.0000034332277,2|0,0:0|0:0,0:0:0:0:
507,158,22364,5,8,0:0:0:0:
341,86,22541,1,8,0:0:0:0:
323,78,23074,5,8,0:0:0:0:
496,33,23251,1,8,0:0:0:0:
512,29,23784,5,8,0:0:0:0:
387,186,23961,1,8,0:0:0:0:
387,186,24316,38,1,B|334:207|298:178|313:168|286:147|237:158,1,160,4|8,1:2|0:0,0:0:0:0:
130,17,24849,2,1,P|149:51|148:90,1,80,8|8,0:3|0:0,0:0:0:0:
146,113,25115,1,8,0:0:0:0:
146,113,25204,5,8,0:0:0:0:
76,280,25381,1,8,0:0:0:0:
70,296,25914,5,8,0:0:0:0:
20,148,26092,1,8,0:0:0:0:
14,132,26624,5,8,0:0:0:0:
201,252,26802,1,8,0:0:0:0:
201,252,27157,54,1,B|290:224|290:224|306:256|340:264,1,160,4|0,1:2|1:2,0:0:0:0:
362,267,27600,1,0,1:2:0:0:
362,267,27689,2,1,P|372:207|385:149,1,120,8|0,0:0|0:0,0:0:0:0:
428,51,28044,102,1,P|374:116|291:105,1,176.000005371094,4|8,1:2|0:0,0:0:0:0:
174,0,28577,1,0,0:0:0:0:
96,131,28754,2,1,P|87:87|77:44,1,88.000002685547,0|0,1:2|1:2,0:0:0:0:
254,195,29109,2,1,P|244:237|235:281,1,88.000002685547,8|0,0:0|0:0,0:0:0:0:
62,252,29464,5,0,1:2:0:0:
62,252,29642,2,1,P|99:230|143:230,1,88.000002685547,0|8,1:2|0:0,0:0:0:0:
332,316,29997,2,1,P|245:333|160:354,1,176.000005371094,4|0,1:2|1:2,0:0:0:0:
353,218,30529,2,1,P|397:226|439:236,1,88.000002685547,8|0,0:0|1:2,0:0:0:0:
457,228,30796,1,8,0:0:0:0:
457,228,30884,6,1,P|479:191|479:147,1,88.000002685547,0|0,1:2|1:2,0:0:0:0:
352,20,31239,1,8,0:0:0:0:
244,159,31417,1,0,1:2:0:0:
244,159,31506,1,8,0:0:0:0:
244,159,31595,2,1,P|254:201|262:245,1,88.000002685547,0|0,1:2|1:2,0:0:0:0:
79,102,31950,2,1,P|86:58|97:15,1,88.000002685547,8|0,0:0|0:0,0:0:0:0:
162,227,32305,5,8,0:3:0:0:
162,227,32393,1,8,0:3:0:0:
162,227,32482,2,1,P|140:230|118:236,1,44.0000013427735,8|4,0:3|0:3,0:0:0:0:
17,296,32660,2,1,P|38:299|60:305,1,44.0000013427735,4|4,0:3|0:3,0:0:0:0:
237,367,32837,38,1,B|220:324|244:294|253:306|270:284|262:244,1,132.00000402832,4|0,1:2|0:0,0:0:0:0:
248,232,33192,1,12,0:0:0:0:
334,355,33370,2,1,P|398:338|462:327,1,132.00000402832,12|0,0:0|0:0,0:0:0:0:
475,341,33725,102,1,P|513:274|484:202,1,160,4|10,1:2|0:0,0:0:0:0:
309,134,34257,1,2,0:0:0:0:
469,31,34435,2,1,P|459:69|452:109,1,80,2|2,1:2|1:2,0:0:0:0:
376,217,34790,1,10,0:0:0:0:
360,51,34967,1,2,0:0:0:0:
278,228,35145,38,1,B|225:248|188:219|203:208|176:187|127:197,1,160,0|10,1:2|0:0,0:0:0:0:
28,53,35677,2,1,P|62:33|102:30,1,80,2|0,1:2|0:0,0:0:0:0:
15,164,36032,1,2,1:2:0:0:
198,27,36210,2,1,P|208:65|215:105,1,80,8|0,0:0|1:2,0:0:0:0:
233,118,36476,1,8,0:0:0:0:
233,118,36565,6,1,P|213:195|197:274,1,160,0|10,1:2|0:0,0:0:0:0:
97,384,37097,1,2,0:0:0:0:
36,247,37275,2,1,P|70:226|109:223,1,80,2|2,1:2|1:2,0:0:0:0:
199,370,37630,1,10,0:0:0:0:
4,338,37808,1,2,0:0:0:0:
197,274,37985,54,1,B|286:246|286:246|302:278|336:286,1,160,0|10,1:2|0:0,0:0:0:0:
496,277,38518,2,1,P|502:237|513:198,1,80,2|0,1:2|0:0,0:0:0:0:
453,45,38873,1,2,1:2:0:0:
409,211,39050,2,1,P|402:171|391:132,1,80,12|0,0:0|0:0,0:0:0:0:
386,118,39316,1,0,0:0:0:0:
386,118,39405,102,1,P|331:63|254:73,1,160,4|10,1:2|0:0,0:0:0:0:
107,191,39938,1,0,0:0:0:0:
96,41,40115,2,1,P|130:20|169:17,1,80,2|0,1:2|1:2,0:0:0:0:
98,208,40470,2,1,P|58:204|24:184,1,80,10|0,0:0|0:0,0:0:0:0:
300,160,40825,6,1,P|289:198|283:238,1,80,2|0,1:2|1:2,0:0:0:0:
145,384,41180,1,10,0:0:0:0:
188,249,41358,1,0,1:2:0:0:
301,376,41535,1,10,0:0:0:0:
109,304,41713,1,0,1:2:0:0:
303,242,41890,1,10,0:0:0:0:
303,242,42245,38,1,B|347:225|377:248|365:258|387:275|428:267,1,132.00000402832,6|0,1:2|0:0,0:0:0:0:
443,266,42600,1,10,0:0:0:0:
236,163,42778,2,1,P|258:248|277:334,1,176.000005371094,6|0,1:2|1:2,0:0:0:0:
107,374,43310,2,1,P|114:330|125:287,1,88.000002685547,8|0,0:0|0:0,0:0:0:0:
167,102,43666,5,4,1:2:0:0:
30,246,43843,1,0,1:2:0:0:
99,36,44021,1,8,0:0:0:0:
213,245,44198,2,1,B|311:275|311:275|329:240|366:231,1,176.000005371094,4|8,1:2|0:0,0:0:0:0:
482,375,44731,1,0,1:2:0:0:
435,164,44908,1,8,0:0:0:0:
435,164,44997,1,8,0:0:0:0:
435,164,45086,6,1,P|415:241|399:320,1,160,4|10,1:2|0:0,0:0:0:0:
290,160,45618,1,2,0:0:0:0:
228,331,45796,2,1,P|188:327|154:307,1,80,2|2,1:2|1:2,0:0:0:0:
318,250,46151,1,10,0:0:0:0:
187,161,46328,1,2,1:2:0:0:
187,161,46417,1,8,0:0:0:0:
187,161,46506,38,1,B|134:141|97:170|112:181|85:202|36:192,1,160,0|10,1:2|0:0,0:0:0:0:
243,19,47038,2,1,P|253:57|259:97,1,80,2|0,1:2|0:0,0:0:0:0:
166,246,47393,1,2,1:2:0:0:
69,95,47571,2,1,P|103:75|142:71,1,80,8|0,0:0|1:2,0:0:0:0:
158,61,47837,1,8,0:0:0:0:
158,61,47926,54,1,B|247:89|247:89|263:57|297:49,1,160,0|10,1:2|0:0,0:0:0:0:
512,64,48458,1,2,1:2:0:0:
512,64,48547,1,8,0:0:0:0:
512,64,48636,2,1,P|502:102|496:142,1,80,0|2,1:2|1:2,0:0:0:0:
301,175,48991,1,10,0:0:0:0:
390,0,49168,1,2,1:2:0:0:
390,0,49257,1,8,0:0:0:0:
390,0,49346,6,1,P|400:38|406:78,1,80,0|0,1:2|1:2,0:0:0:0:
358,260,49701,1,10,0:0:0:0:
500,146,49879,1,6,1:2:0:0:
500,146,50234,5,10,0:0:0:0:
425,340,50411,1,10,0:0:0:0:
301,175,50589,2,0,P|335:156|374:161,1,80,6|0,1:2|0:0,0:0:0:0:
327,351,50944,1,2,1:2:0:0:
234,224,51121,1,10,0:0:0:0:
112,278,51299,2,0,B|191:245|175:335|258:303,1,160,2|2,0:0|1:2,0:0:0:0:
386,195,51831,5,10,0:0:0:0:
220,145,52009,2,0,L|234:223,1,80,2|0,1:2|0:0,0:0:0:0:
380,111,52364,1,2,1:2:0:0:
316,242,52541,1,10,0:0:0:0:
274,80,52719,2,0,P|199:62|143:115,1,160,2|0,1:2|1:2,0:0:0:0:
234,223,53251,2,0,L|220:145,1,80,10|0,0:0|0:0,0:0:0:0:
23,29,53606,5,6,1:2:0:0:
144,198,53784,1,8,0:0:0:0:
101,0,53961,1,10,0:0:0:0:
0,173,54139,2,0,P|39:177|73:159,1,80,2|0,1:2|0:0,0:0:0:0:
183,14,54494,1,0,1:2:0:0:
340,230,54671,6,0,B|292:171|181:217|240:283|133:280,1,240,12|0,0:0|0:0,0:0:0:0:
133,280,55914,2,0,L|172:286,1,40,2|2,0:0|0:0,0:0:0:0:
252,309,56092,2,0,P|256:269|238:235,1,80,2|0,0:0|0:0,0:0:0:0:
44,177,56447,6,0,L|163:198,2,120.000004577637,4|10|10,1:2|0:0|0:0,0:0:0:0:
62,95,57334,2,0,L|121:105,1,60.0000022888184,0|8,1:2|0:0,0:0:0:0:
172,286,57689,2,0,L|113:276,1,60.0000022888184,2|0,1:2|1:2,0:0:0:0:
238,235,58044,1,2,0:0:0:0:
249,318,58222,1,8,0:0:0:0:
315,267,58399,2,0,L|433:246,1,120.000004577637,2|0,0:0|1:2,0:0:0:0:
303,184,58932,2,0,L|362:174,1,60.0000022888184,8|0,0:0|1:2,0:0:0:0:
481,315,59287,6,0,P|516:268|508:210,1,120.000004577637,0|10,1:2|0:0,0:0:0:0:
453,100,59819,1,2,0:0:0:0:
453,100,59997,2,0,L|443:159,1,60.0000022888184,2|0,1:2|1:2,0:0:0:0:
488,24,60352,1,10,0:0:0:0:
488,24,60529,2,0,P|431:16|384:52,1,120.000004577637,2|2,1:2|1:2,0:0:0:0:
256,117,61062,2,0,P|313:108|360:144,1,120.000004577637,10|8,0:0|0:0,0:0:0:0:
293,192,61595,1,0,1:2:0:0:
219,41,61772,1,4,0:2:0:0:
219,41,62127,6,0,P|180:36|146:54,1,80,4|0,0:2|0:0,0:0:0:0:
93,175,62482,2,0,B|126:96|36:112|68:29,1,160,2|2,1:2|1:2,0:0:0:0:
44,242,63015,2,0,P|78:260|117:255,1,80,2|0,0:0|1:2,0:0:0:0:
256,117,63370,2,0,P|203:173|221:248,1,160,2|2,0:0|0:0,0:0:0:0:
284,359,63902,1,6,1:2:0:0:
360,209,64080,2,0,P|326:191|287:196,1,80,2|4,0:0|1:2,0:0:0:0:
118,256,64435,1,0,1:2:0:0:
219,41,64612,1,12,0:0:0:0:
425,369,64967,5,6,1:2:0:0:
425,369,65322,1,2,0:0:0:0:
454,290,65500,2,0,L|513:301,2,60.0000022888184,2|0|0,0:0|0:0|0:0,0:0:0:0:
403,225,66032,1,0,0:0:0:0:
403,225,66387,2,0,L|344:235,1,60.0000022888184,2|0,0:0|0:0,0:0:0:0:
297,137,66742,1,2,0:0:0:0:
297,137,66920,2,0,L|356:147,1,60.0000022888184,2|0,0:0|0:0,0:0:0:0:
485,213,67275,1,2,0:0:0:0:
368,65,67452,1,10,0:0:0:0:
244,262,67630,6,0,P|205:267|171:249,1,80,6|0,1:2|0:0,0:0:0:0:
297,137,67985,1,8,0:0:0:0:
194,25,68163,2,0,L|221:182,1,160,4|8,1:2|0:0,0:0:0:0:
16,273,68695,1,4,1:2:0:0:
16,273,69050,2,0,P|50:291|90:287,1,80,4|0,1:2|0:0,0:0:0:0:
221,182,69405,1,8,1:2:0:0:
50,7,69583,1,8,1:2:0:0:
50,7,69938,6,0,P|79:4|106:17,1,60,2|0,0:0|0:0,0:0:0:0:
77,119,70293,6,0,P|41:110|70:88,1,90.0000034332277,2|0,0:0|0:0,0:0:0:0:
61,106,70648,6,0,B|86:153|53:208|22:171|-12:232|16:273,1,191.999994140625,6|8,1:2|0:0,0:0:0:0:
149,110,71180,1,0,0:0:0:0:
240,287,71358,2,0,L|257:192,1,95.9999970703126,2|0,1:2|1:2,0:0:0:0:
112,348,71713,2,0,L|95:253,1,95.9999970703126,10|0,0:0|0:0,0:0:0:0:
247,94,72068,5,2,1:2:0:0:
63,160,72245,1,0,1:2:0:0:
240,287,72423,1,10,0:0:0:0:
192,30,72600,2,0,P|164:116|232:176,1,191.999994140625,2|0,1:2|1:2,0:0:0:0:
349,26,73133,1,8,0:0:0:0:
448,206,73310,6,0,P|408:229|361:221,1,95.9999970703126,2|0,0:0|1:2,0:0:0:0:
247,94,73666,1,2,0:0:0:0:
301,280,73843,1,10,0:0:0:0:
238,62,74021,1,2,0:0:0:0:
134,242,74198,2,0,P|174:265|221:257,1,95.9999970703126,2|2,1:2|1:2,0:0:0:0:
100,64,74553,2,0,P|53:55|12:78,1,95.9999970703126,10|2,0:0|0:0,0:0:0:0:
35,330,74908,6,0,L|68:141,1,191.999994140625,2|10,1:2|0:0,0:0:0:0:
238,62,75441,2,0,L|255:156,1,95.9999970703126,2|0,1:2|0:0,0:0:0:0:
173,299,75796,1,0,1:2:0:0:
359,134,75973,2,0,L|342:228,1,95.9999970703126,8|0,0:0|0:0,0:0:0:0:
512,375,76328,6,0,B|465:400|410:367|447:336|386:302|345:330,1,191.999994140625,6|8,1:2|0:0,0:0:0:0:
173,185,76861,1,0,0:0:0:0:
250,376,77038,1,2,1:2:0:0:
348,197,77216,1,0,1:2:0:0:
149,277,77393,2,0,P|140:323|163:364,1,95.9999970703126,10|0,0:0|0:0,0:0:0:0:
371,320,77748,5,2,1:2:0:0:
173,185,77926,1,8,0:0:0:0:
250,376,78103,1,10,0:0:0:0:
430,184,78281,2,0,P|369:116|283:144,1,191.999994140625,6|0,1:2|1:2,0:0:0:0:
365,292,78813,2,0,L|348:197,1,95.9999970703126,8|2,0:0|0:0,0:0:0:0:
388,33,79168,5,2,1:2:0:0:
269,226,79346,2,0,P|222:234|181:211,1,95.9999970703126,2|8,0:0|0:0,0:0:0:0:
96,48,79701,2,0,P|136:25|183:33,1,95.9999970703126,2|0,0:0|1:2,0:0:0:0:
348,197,80056,1,2,1:2:0:0:
263,13,80234,1,10,0:0:0:0:
181,211,80411,1,2,0:0:0:0:
368,61,80589,5,2,1:2:0:0:
341,287,80766,1,10,0:0:0:0:
341,287,80855,1,8,0:0:0:0:
341,287,80944,1,10,0:0:0:0:
164,117,81121,2,0,L|181:212,1,95.9999970703126,6|0,1:2|0:0,0:0:0:0:
106,277,81476,1,8,0:0:0:0:
106,277,81565,1,8,0:0:0:0:
106,277,81654,2,0,L|114:324,1,47.9999985351563,10|8,0:0|0:0,0:0:0:0:
261,179,81831,2,0,L|269:226,1,47.9999985351563,8|8,0:0|0:0,0:0:0:0:
164,117,82009,6,0,L|197:306,1,191.999994140625,6|8,1:2|0:0,0:0:0:0:
300,106,82541,1,0,0:0:0:0:
367,323,82719,2,0,P|320:332|280:309,1,95.9999970703126,2|0,1:2|1:2,0:0:0:0:
378,133,83074,2,0,P|418:110|465:118,1,95.9999970703126,10|0,0:0|0:0,0:0:0:0:
442,361,83429,5,2,1:2:0:0:
315,188,83606,1,0,1:2:0:0:
497,263,83784,1,10,0:0:0:0:
270,355,83961,2,0,B|245:308|278:253|309:290|343:229|315:188,1,191.999994140625,2|0,1:2|1:2,0:0:0:0:
239,34,84494,1,8,0:0:0:0:
140,193,84671,6,0,L|235:210,1,95.9999970703126,2|0,0:0|1:2,0:0:0:0:
401,16,85026,1,2,0:0:0:0:
256,128,85204,1,10,0:0:0:0:
422,201,85381,1,2,0:0:0:0:
239,34,85559,2,0,L|256:129,1,95.9999970703126,2|2,1:2|1:2,0:0:0:0:
123,287,85914,2,0,L|140:192,1,95.9999970703126,10|2,0:0|0:0,0:0:0:0:
343,314,86269,6,0,P|282:381|196:354,1,191.999994140625,2|10,1:2|0:0,0:0:0:0:
85,129,86802,2,0,P|125:106|172:115,1,95.9999970703126,2|0,1:2|0:0,0:0:0:0:
261,302,87157,1,0,1:2:0:0:
332,79,87334,2,0,P|291:55|244:64,1,95.9999970703126,12|0,0:0|0:0,0:0:0:0:
51,206,87689,5,6,1:2:0:0:
51,206,88044,2,0,L|60:264,1,60.0000022888184,8|0,0:0|0:0,0:0:0:0:
144,332,88399,2,0,L|153:273,1,60.0000022888184,10|0,0:0|1:2,0:0:0:0:
236,204,88754,2,0,L|245:262,1,60.0000022888184,10|0,0:0|1:2,0:0:0:0:
378,152,89109,6,0,P|350:141|320:143,1,60.0000022888184,10|0,0:0|0:0,0:0:0:0:
431,232,89464,2,0,P|453:212|467:186,1,60.0000022888184,10|0,0:0|1:2,0:0:0:0:
337,237,89819,2,0,P|342:266|358:291,1,60.0000022888184,10|0,0:0|1:2,0:0:0:0:
378,152,90174,1,10,0:0:0:0:
255,303,90352,1,0,1:2:0:0:
255,303,90441,1,0,1:2:0:0:
255,303,90529,6,0,L|175:291,1,80,10|0,0:0|0:0,0:0:0:0:
32,192,90884,2,0,L|112:180,1,80,8|0,0:0|0:0,0:0:0:0:
259,88,91239,1,8,0:0:0:0:
72,12,91417,2,0,P|53:46|59:85,1,80,0|8,1:2|0:0,0:0:0:0:
231,185,91772,38,1,B|272:208|316:180|296:168|332:140|378:156,1,160,0|0,1:2|0:0,0:0:0:0:
504,279,92305,2,0,L|424:267,1,80,8|0,0:0|1:2,0:0:0:0:
280,367,92660,2,0,L|359:355,1,80,8|2,0:0|1:2,0:0:0:0:
231,185,93015,1,10,0:0:0:0:
181,369,93192,1,2,0:0:0:0:
316,258,93370,5,0,1:2:0:0:
316,258,93547,1,0,1:2:0:0:
125,188,93725,2,0,L|136:267,1,80,12|0,0:0|0:0,0:0:0:0:
264,87,94080,5,0,1:2:0:0:
264,87,94257,1,0,1:2:0:0:
33,140,94435,2,0,L|21:219,1,80,12|0,0:0|0:0,0:0:0:0:
150,22,94790,5,0,1:2:0:0:
150,22,94967,1,0,1:2:0:0:
247,185,95145,2,0,P|285:191|320:173,1,80,12|0,0:0|0:0,0:0:0:0:
249,0,95500,1,0,1:2:0:0:
249,0,95677,1,0,1:2:0:0:
149,168,95855,2,0,P|142:206|160:241,1,80,12|0,0:0|0:0,0:0:0:0:
335,95,96210,6,0,L|321:173,1,80,2|0,1:2|1:2,0:0:0:0:
372,359,96565,1,8,0:0:0:0:
248,218,96742,1,2,0:0:0:0:
425,157,96920,2,0,L|439:236,1,80,2|0,1:2|1:2,0:0:0:0:
289,377,97275,1,8,0:0:0:0:
321,174,97452,1,2,0:0:0:0:
453,343,97630,5,2,1:2:0:0:
299,148,97808,1,2,1:2:0:0:
471,249,97985,1,10,0:0:0:0:
289,377,98163,2,0,P|236:321|253:246,1,160,6|0,1:2|1:2,0:0:0:0:
425,157,98695,1,8,0:0:0:0:
318,299,98873,1,2,0:0:0:0:
249,80,99050,6,0,P|215:62|176:68,1,80,2|0,1:2|1:2,0:0:0:0:
43,175,99405,1,8,0:0:0:0:
201,148,99583,1,2,0:0:0:0:
110,19,99760,2,0,P|92:53|97:92,1,80,2|0,1:2|1:2,0:0:0:0:
227,228,100115,1,8,0:0:0:0:
176,68,100293,1,2,0:0:0:0:
44,259,100470,5,2,1:2:0:0:
201,148,100648,1,2,1:2:0:0:
14,96,100825,1,10,0:0:0:0:
174,306,101003,2,0,L|201:148,1,160,10|0,1:2|1:2,0:0:0:0:
328,13,101535,1,8,0:0:0:0:
348,25,101624,1,8,0:0:0:0:
360,45,101713,1,8,0:0:0:0:
358,69,101802,1,8,0:0:0:0:
351,87,101890,38,1,B|293:109|253:77|269:65|240:43|187:53,1,176.000005371094,4|8,1:2|0:0,0:0:0:0:
6,208,102423,1,0,1:2:0:0:
6,208,102512,1,8,0:0:0:0:
6,208,102600,2,1,P|48:198|91:189,1,88.000002685547,0|0,1:2|1:2,0:0:0:0:
249,347,102955,2,1,P|205:338|163:328,1,88.000002685547,8|0,0:0|1:2,0:0:0:0:
148,325,103222,1,8,0:0:0:0:
148,325,103310,5,0,1:2:0:0:
205,161,103488,2,1,P|227:198|227:241,1,88.000002685547,0|8,1:2|0:0,0:0:0:0:
351,384,103843,2,1,P|367:297|388:212,1,176.000005371094,4|0,1:2|1:2,0:0:0:0:
292,63,104376,2,1,P|301:105|310:148,1,88.000002685547,8|0,0:0|0:0,0:0:0:0:
468,22,104731,6,1,P|431:0|387:0,1,88.000002685547,0|0,1:2|1:2,0:0:0:0:
230,171,105086,2,1,P|273:171|310:148,1,88.000002685547,8|0,0:0|0:0,0:0:0:0:
201,2,105441,1,0,1:2:0:0:
138,153,105618,1,0,1:2:0:0:
27,23,105796,2,1,P|18:66|8:108,1,88.000002685547,8|0,0:0|1:2,0:0:0:0:
24,123,106062,1,8,0:0:0:0:
24,123,106151,6,1,P|32:166|42:208,1,88.000002685547,0|0,1:2|1:2,0:0:0:0:
128,365,106506,1,8,0:0:0:0:
225,212,106683,2,1,P|308:200|362:265,1,176.000005371094,4|8,1:2|0:0,0:0:0:0:
364,288,107127,1,8,0:0:0:0:
364,288,107216,2,1,P|342:291|320:297,1,44.0000013427735,8|8,0:0|0:0,0:0:0:0:
448,219,107393,2,1,P|470:222|492:228,1,44.0000013427735,8|8,0:0|0:0,0:0:0:0:
393,371,107571,6,1,P|307:349|221:333,1,176.000005371094,4|8,1:2|0:0,0:0:0:0:
61,268,108103,1,0,0:0:0:0:
259,154,108281,2,1,P|249:196|240:239,1,88.000002685547,0|0,1:2|1:2,0:0:0:0:
66,167,108636,2,1,P|57:123|47:81,1,88.000002685547,8|0,0:0|1:2,0:0:0:0:
56,65,108902,1,8,0:0:0:0:
56,65,108991,6,1,P|93:42|136:42,1,88.000002685547,0|0,1:2|1:2,0:0:0:0:
259,154,109346,1,8,0:0:0:0:
399,22,109524,2,1,B|341:0|301:32|317:44|288:66|235:56,1,176.000005371094,4|0,1:2|1:2,0:0:0:0:
380,126,110056,2,1,P|422:116|465:107,1,88.000002685547,8|0,0:0|1:2,0:0:0:0:
487,117,110322,1,8,0:0:0:0:
487,117,110411,6,1,P|509:154|509:197,1,88.000002685547,4|0,1:2|1:2,0:0:0:0:
419,342,110766,1,8,0:0:0:0:
318,202,110944,1,0,1:2:0:0:
318,202,111032,1,8,0:0:0:0:
318,202,111121,2,1,P|308:244|299:287,1,88.000002685547,0|0,1:2|1:2,0:0:0:0:
163,367,111476,2,1,P|154:323|144:281,1,88.000002685547,8|0,0:0|0:0,0:0:0:0:
109,95,111831,5,4,1:2:0:0:
24,253,112009,1,8,0:0:0:0:
24,253,112097,1,8,0:0:0:0:
24,253,112186,1,8,0:0:0:0:
54,29,112364,6,1,P|118:44|182:57,1,132.00000402832,4|0,1:2|0:0,0:0:0:0:
200,62,112719,1,0,1:2:0:0:
254,207,112896,1,8,0:0:0:0:
331,24,113074,1,8,0:0:0:0:
331,24,113163,1,8,0:0:0:0:
331,24,113251,38,1,B|376:4|421:33|406:44|440:68|479:55,1,160,4|10,1:2|0:0,0:0:0:0:
420,236,113784,1,2,0:0:0:0:
352,116,113961,2,0,P|313:110|277:128,1,80,2|2,1:2|1:2,0:0:0:0:
328,300,114316,1,10,0:0:0:0:
460,144,114494,6,0,P|512:201|511:280,1,160,2|0,0:0|1:2,0:0:0:0:
408,372,115026,1,10,0:0:0:0:
336,212,115204,2,0,L|257:225,1,80,2|0,1:2|0:0,0:0:0:0:
136,372,115559,1,2,1:2:0:0:
284,320,115737,2,0,L|205:306,1,80,8|0,0:0|0:0,0:0:0:0:
20,224,116092,5,0,1:2:0:0:
200,152,116269,1,0,0:0:0:0:
88,68,116447,2,0,L|108:186,1,120,10|0,0:0|0:0,0:0:0:0:
112,216,116802,1,2,1:2:0:0:
248,70,116979,2,0,P|281:91|296:128,1,80,2|10,1:2|0:0,0:0:0:0:
176,300,117334,1,2,1:2:0:0:
176,300,117423,1,8,0:0:0:0:
176,300,117512,5,0,1:2:0:0:
352,240,117689,1,0,1:2:0:0:
200,152,117867,1,10,0:0:0:0:
320,332,118044,2,0,P|397:329|445:268,1,160,6|8,1:2|0:0,0:0:0:0:
296,128,118577,1,8,0:3:0:0:
352,240,118754,1,4,0:3:0:0:
512,104,118932,6,0,B|429:89|429:89|410:106|389:106,1,128,4|2,1:2|0:0,0:0:0:0:
268,24,119464,1,0,1:2:0:0:
268,24,119642,2,0,B|287:44|312:52|312:52|286:123,1,128,10|2,0:0|0:0,0:0:0:0:
216,208,120174,1,0,1:2:0:0:
216,208,120263,1,0,1:2:0:0:
216,208,120352,5,2,1:2:0:0:
136,99,120529,2,0,L|200:88,1,64,8|2,0:0|0:0,0:0:0:0:
116,192,120884,1,0,1:2:0:0:
116,192,121062,2,0,L|52:180,1,64,10|0,0:0|1:2,0:0:0:0:
148,296,121417,1,2,0:0:0:0:
216,208,121595,1,0,1:2:0:0:
56,272,121772,6,0,P|50:310|68:346,1,80,6|0,1:2|0:0,0:0:0:0:
240,296,122127,1,10,0:0:0:0:
116,192,122305,2,0,P|80:174|41:179,1,80,6|0,1:2|0:0,0:0:0:0:
148,376,122660,1,0,1:2:0:0:
216,208,122837,2,0,L|294:194,1,80,8|0,0:0|1:2,0:0:0:0:
328,184,123103,1,8,0:0:0:0:
328,184,123192,5,4,1:2:0:0:
504,264,123370,1,0,1:2:0:0:
332,320,123547,1,8,0:0:0:0:
436,160,123725,2,0,L|415:41,1,120,4|0,1:2|0:0,0:0:0:0:
408,8,124080,1,0,1:2:0:0:
328,184,124257,1,8,0:0:0:0:
256,24,124435,1,8,0:0:0:0:
256,24,124524,1,8,0:0:0:0:
256,24,124612,6,0,P|215:3|171:17,1,80,4|0,1:2|0:0,0:0:0:0:
87,182,124967,1,10,0:0:0:0:
209,88,125145,1,2,0:0:0:0:
323,217,125322,2,0,P|314:263|306:302,1,80,2|2,1:2|1:2,0:0:0:0:
461,195,125677,1,10,0:0:0:0:
301,319,125855,1,2,1:2:0:0:
301,319,125944,1,10,0:0:0:0:
301,319,126032,6,0,P|252:312|218:308,1,80,0|0,1:2|1:2,0:0:0:0:
61,352,126387,1,10,0:0:0:0:
179,207,126565,2,0,B|235:165|225:113|137:78|138:159,1,160,2|2,1:2|1:2,0:0:0:0:
9,36,127097,2,0,P|24:87|36:124,1,80,8|0,0:0|0:0,0:0:0:0:
242,144,127452,6,0,P|256:79|264:38,1,80,0|0,1:2|0:0,0:0:0:0:
367,256,127808,1,10,0:0:0:0:
436,111,127985,1,2,0:0:0:0:
276,235,128163,2,0,P|276:289|307:316,1,80,2|2,1:2|1:2,0:0:0:0:
438,195,128518,1,10,0:0:0:0:
257,146,128695,38,1,B|213:134|181:172|202:191|166:227|116:214,1,160,2|0,0:0|1:2,0:0:0:0:
0,93,129228,1,10,0:0:0:0:
174,16,129405,1,6,1:2:0:0:
180,26,129760,5,10,0:0:0:0:
293,155,129938,1,10,0:0:0:0:
461,49,130115,2,0,B|389:21|389:21|414:46|414:46|400:64,1,120,6|0,1:2|0:0,0:0:0:0:
412,79,130470,5,2,1:2:0:0:
503,215,130648,1,10,0:0:0:0:
354,310,130825,1,2,1:2:0:0:
354,310,130914,1,8,0:0:0:0:
354,310,131003,1,0,1:2:0:0:
404,174,131180,1,2,1:2:0:0:
478,326,131358,1,10,0:0:0:0:
267,238,131535,6,0,B|229:211|252:165|252:165|255:187|277:201,1,120,2|0,1:2|0:0,0:0:0:0:
295,205,131890,1,2,1:2:0:0:
173,344,132068,1,10,0:0:0:0:
60,227,132245,1,2,1:2:0:0:
60,227,132334,1,8,0:0:0:0:
60,227,132423,2,0,P|47:275|38:310,1,80,2|0,0:0|1:2,0:0:0:0:
172,140,132778,2,0,P|159:92|150:57,1,80,10|0,0:0|0:0,0:0:0:0:
310,227,133133,5,6,1:2:0:0:
422,84,133310,1,8,0:0:0:0:
417,96,133399,1,0,0:0:0:0:
412,109,133488,1,10,0:0:0:0:
494,274,133666,1,2,1:2:0:0:
487,287,134021,5,0,1:2:0:0:
301,131,134198,2,0,B|266:94|204:88|160:154|203:179|140:234|87:220|56:180,1,287.999991210938,12|0,0:0|0:0,0:0:0:0:
63,188,134908,5,2,0:0:0:0:
71,196,135263,1,10,0:0:0:0:
150,286,135441,1,8,0:3:0:0:
213,217,135618,1,6,0:3:0:0:
233,243,135796,1,4,0:3:0:0:
379,123,135973,6,0,P|421:119|471:189,2,128,4|10|10,1:2|0:0|0:0,0:0:0:0:
274,70,136861,2,0,P|284:23|289:-4,1,64,0|8,1:2|0:0,0:0:0:0:
188,169,137216,1,2,1:2:0:0:
188,169,137393,6,0,P|241:178|324:193,2,128,0|8|8,1:2|0:0|0:0,0:0:0:0:
108,292,138281,2,0,P|122:330|134:362,1,64,0|8,1:2|0:0,0:0:0:0:
7,224,138636,1,0,1:2:0:0:
7,224,138813,6,0,P|20:159|34:83,2,128,0|10|2,1:2|0:0|1:2,0:0:0:0:
108,292,139701,1,0,1:2:0:0:
199,230,139879,1,10,0:0:0:0:
301,334,140056,6,0,P|337:356|409:318,1,128,2|2,1:2|1:2,0:0:0:0:
494,250,140589,2,0,P|486:213|479:182,1,64,10|0,0:0|0:0,0:0:0:0:
397,74,140944,2,0,L|387:111,3,32,8|0|0|0,0:0|0:0|1:2|0:0,0:0:0:0:
274,23,141299,2,0,L|284:60,3,37.9999989852906,4|0|0|0,0:2|0:0|0:0|0:0,0:0:0:0:
256,181,141654,6,0,P|219:201|181:184,1,75.9999979705811,4|0,0:2|0:0,0:0:0:0:
80,73,142009,2,0,P|116:53|155:70,1,75.9999979705811,2|0,1:2|0:0,0:0:0:0:
43,244,142364,1,2,1:2:0:0:
43,244,142541,2,0,P|29:187|24:162,1,75.9999979705811,2|0,0:0|1:2,0:0:0:0:
153,322,142896,38,1,B|194:339|231:303|211:281|248:253|290:272,1,151.999995941162,2|2,0:0|0:0,0:0:0:0:
442,357,143429,2,0,P|434:315|427:276,1,75.9999979705811,6|2,1:2|0:0,0:0:0:0:
372,149,143784,1,4,1:2:0:0:
499,214,143961,1,0,1:2:0:0:
287,364,144139,6,0,P|283:371|275:349,1,60,12|0,0:0|0:0,0:0:0:0:
349,312,144494,6,0,L|356:248,1,60.0000022888184,6|0,1:2|0:0,0:0:0:0:
280,185,144849,1,2,0:0:0:0:
280,185,145026,2,0,P|271:230|206:267,1,120.000004577637,2|0,0:0|0:0,0:0:0:0:
132,182,145559,2,0,L|195:189,1,60.0000022888184
267,69,145914,6,0,P|243:87|226:121,1,60.0000022888184,2|0,0:0|0:0,0:0:0:0:
327,197,146269,1,2,0:0:0:0:
327,197,146447,2,0,P|323:167|302:135,1,60.0000022888184,2|0,0:0|0:0,0:0:0:0:
255,262,146802,1,2,0:0:0:0:
255,262,146979,1,10,0:0:0:0:
415,280,147157,6,0,L|428:178,1,80,6|0,1:2|0:0,0:0:0:0:
354,65,147512,1,8,0:0:0:0:
354,65,147689,1,8,0:0:0:0:
251,236,147867,2,0,L|238:134,1,80,4|0,1:2|0:0,0:0:0:0:
425,200,148222,1,0,1:2:0:0:
228,260,148399,2,0,L|126:247,1,80,12|0,0:0|0:0,0:0:0:0:
342,157,148754,1,0,1:2:0:0:
286,346,148932,2,0,L|184:359,1,80,14|0,0:0|0:0,0:0:0:0:
69,259,149287,5,2,1:2:0:0:
59,179,149464,1,10,0:0:0:0:
138,169,149642,1,10,0:3:0:0:
148,249,149819,1,6,0:3:0:0:
37,157,149997,2,0,L|48:61,1,80,6|0,1:2|0:0,0:0:0:0:
203,121,150352,5,8,1:2:0:0:
138,169,150529,1,8,1:2:0:0:
267,176,150707,5,8,1:2:0:0:
130,173,150884,1,8,1:2:0:0:
290,262,151062,5,8,1:2:0:0:
122,177,151239,1,8,1:2:0:0:
329,113,151417,5,4,1:2:0:0:
329,113,151772,5,8,0:0:0:0:
228,325,151950,1,8,0:0:0:0:
228,325,152305,6,0,L|219:260,1,60.0000022888184,2|0,0:0|0:0,0:0:0:0:
160,124,152660,2,0,L|153:191,1,60.0000022888184,2|0,0:0|0:0,0:0:0:0:
24,348,153015,6,0,L|0:157,1,191.999994140625,6|8,1:2|0:0,0:0:0:0:
124,24,153547,1,0,0:0:0:0:
196,211,153725,2,0,P|147:217|94:172,1,95.9999970703126,2|0,1:2|1:2,0:0:0:0:
266,142,154080,2,0,P|295:181|284:249,1,95.9999970703126,10|0,0:0|0:0,0:0:0:0:
104,360,154435,5,2,1:2:0:0:
196,211,154612,1,0,1:2:0:0:
208,384,154790,1,10,0:0:0:0:
295,226,154967,6,0,B|371:236|371:236|404:271|404:271|474:282,1,191.999994140625,2|0,1:2|1:2,0:0:0:0:
320,328,155500,1,8,0:0:0:0:
456,184,155677,6,0,L|444:88,1,95.9999970703126,2|0,0:0|1:2,0:0:0:0:
288,8,156032,1,2,0:0:0:0:
365,156,156210,1,10,0:0:0:0:
260,0,156387,1,2,0:0:0:0:
207,211,156565,2,0,P|247:234|294:225,1,95.9999970703126,2|2,1:2|1:2,0:0:0:0:
452,172,156920,2,0,P|411:148|364:157,1,95.9999970703126,10|2,0:0|0:0,0:0:0:0:
504,304,157275,6,0,L|480:113,1,191.999994140625,2|10,1:2|0:0,0:0:0:0:
376,34,157808,2,0,L|359:129,1,95.9999970703126,2|0,1:2|0:0,0:0:0:0:
412,272,158163,1,0,1:2:0:0:
264,100,158340,2,0,L|281:195,1,95.9999970703126,8|0,0:0|0:0,0:0:0:0:
360,340,158695,38,1,B|301:364|267:331|278:322|236:284|175:307,1,191.999994140625,6|8,1:2|0:0,0:0:0:0:
328,260,159228,1,0,0:0:0:0:
209,382,159405,1,2,1:2:0:0:
148,216,159583,1,0,1:2:0:0:
32,356,159760,2,0,P|72:379|119:370,1,95.9999970703126,10|0,0:0|0:0,0:0:0:0:
240,180,160115,5,2,1:2:0:0:
88,280,160293,1,8,0:0:0:0:
316,248,160470,1,10,0:0:0:0:
128,133,160648,2,0,P|60:194|88:280,1,191.999994140625,6|0,1:2|1:2,0:0:0:0:
32,60,161180,1,8,0:0:0:0:
148,216,161358,1,2,0:0:0:0:
216,16,161535,5,2,1:2:0:0:
348,138,161713,2,0,P|353:186|331:228,1,95.9999970703126,2|8,0:0|0:0,0:0:0:0:
184,320,162068,2,0,P|210:280|254:262,1,95.9999970703126,2|0,1:2|1:2,0:0:0:0:
392,344,162423,1,2,1:2:0:0:
256,168,162600,1,10,0:0:0:0:
268,364,162778,1,2,0:0:0:0:
444,164,162955,5,2,1:2:0:0:
264,276,163133,1,10,0:0:0:0:
264,276,163222,1,8,0:0:0:0:
264,276,163310,1,10,0:0:0:0:
496,352,163488,2,0,P|517:309|512:262,1,95.9999970703126,6|0,1:2|0:0,0:0:0:0:
336,232,163843,1,8,0:0:0:0:
336,232,163932,1,8,0:0:0:0:
336,232,164021,2,0,L|383:227,1,47.9999985351563,10|8,0:0|0:0,0:0:0:0:
456,140,164198,2,0,L|408:135,1,47.9999985351563,8|8,0:0|0:0,0:0:0:0:
272,40,164376,6,0,L|462:17,1,191.999994140625,6|8,1:2|0:0,0:0:0:0:
383,226,164908,1,0,0:0:0:0:
248,132,165086,2,0,L|152:120,1,95.9999970703126,2|0,1:2|1:2,0:0:0:0:
68,284,165441,2,0,L|163:272,1,95.9999970703126,10|0,0:0|0:0,0:0:0:0:
383,226,165796,5,2,1:2:0:0:
328,384,165973,1,0,1:2:0:0:
292,216,166151,1,10,0:0:0:0:
232,368,166328,2,0,B|155:357|155:357|122:322|122:322|52:311,1,191.999994140625,2|0,1:2|1:2,0:0:0:0:
112,108,166861,1,8,0:0:0:0:
200,260,167038,6,0,L|295:249,1,95.9999970703126,2|0,0:0|1:2,0:0:0:0:
192,24,167393,1,2,0:0:0:0:
80,220,167571,1,10,0:0:0:0:
272,116,167748,1,2,0:0:0:0:
32,48,167926,2,0,P|13:91|22:137,1,95.9999970703126,2|2,1:2|1:2,0:0:0:0:
194,145,168281,2,0,P|157:113|111:107,1,95.9999970703126,10|2,0:0|0:0,0:0:0:0:
53,299,168636,6,0,B|77:302|93:346|93:346|79:218,1,191.999994140625,2|10,1:2|0:0,0:0:0:0:
205,49,169168,2,0,L|193:144,1,95.9999970703126,2|0,1:2|0:0,0:0:0:0:
296,268,169524,1,0,1:2:0:0:
404,144,169701,2,0,L|499:133,1,95.9999970703126,12|0,0:0|0:0,0:0:0:0:
302,51,170056,5,6,1:2:0:0:
302,51,170411,2,0,L|244:60,1,60.0000022888184,8|0,0:0|0:0,0:0:0:0:
193,144,170766,2,0,L|252:153,1,60.0000022888184,10|0,0:0|1:2,0:0:0:0:
308,240,171121,2,0,L|249:249,1,60.0000022888184,10|0,0:0|1:2,0:0:0:0:
183,315,171476,6,0,P|209:328|228:351,1,60.0000022888184,10|0,0:0|0:0,0:0:0:0:
106,283,171831,2,0,P|119:256|142:237,1,60.0000022888184,10|0,0:0|1:2,0:0:0:0:
74,360,172186,2,0,P|47:346|28:323,1,60.0000022888184,10|0,0:0|1:2,0:0:0:0:
242,236,172541,1,10,0:0:0:0:
85,167,172719,1,0,1:2:0:0:
85,167,172808,1,0,0:0:0:0:
85,167,172896,6,0,L|97:87,1,80,10|0,0:0|0:0,0:0:0:0:
247,37,173251,2,0,L|259:117,1,80,8|0,0:0|1:2,0:0:0:0:
141,237,173606,1,8,0:0:0:0:
45,24,173784,2,0,P|80:5|119:13,1,80,0|8,1:2|0:0,0:0:0:0:
236,200,174139,38,1,B|277:223|321:195|301:183|337:155|383:171,1,160,0|0,1:2|0:0,0:0:0:0:
504,276,174671,2,0,L|424:264,1,80,8|0,0:0|1:2,0:0:0:0:
320,376,175026,2,0,L|399:364,1,80,8|2,0:0|1:2,0:0:0:0:
272,168,175381,1,10,0:0:0:0:
204,340,175559,1,2,0:0:0:0:
392,264,175737,5,0,1:2:0:0:
392,264,175914,1,0,1:2:0:0:
192,112,176092,2,0,P|173:147|181:186,1,80,12|0,0:0|0:0,0:0:0:0:
296,364,176447,5,0,1:2:0:0:
296,364,176624,1,0,1:2:0:0:
351,180,176802,2,0,L|272:168,1,80,12|0,0:0|0:0,0:0:0:0:
128,272,177157,5,0,1:2:0:0:
128,272,177334,1,0,1:2:0:0:
288,72,177512,2,0,L|209:84,1,80,12|0,0:0|0:0,0:0:0:0:
28,152,177867,5,0,1:2:0:0:
28,152,178044,1,0,1:2:0:0:
152,292,178222,2,0,L|231:280,1,80,12|0,0:0|0:0,0:0:0:0:
392,284,178577,5,2,1:2:0:0:
236,192,178754,1,0,1:2:0:0:
400,120,178932,2,0,P|392:159|386:198,1,80,8|2,0:0|0:0,0:0:0:0:
133,377,179287,5,2,1:2:0:0:
300,323,179464,1,0,1:2:0:0:
144,219,179642,2,0,P|151:258|157:297,1,80,8|2,0:0|0:0,0:0:0:0:
292,41,179997,5,2,1:2:0:0:
248,249,180174,1,2,1:2:0:0:
143,75,180352,1,10,0:0:0:0:
343,168,180529,6,0,B|385:146|423:171|413:177|451:207|492:191,1,160,6|0,1:2|1:2,0:0:0:0:
353,337,181062,2,0,P|359:298|367:259,1,80,8|2,0:0|0:0,0:0:0:0:
194,82,181417,5,2,1:2:0:0:
248,249,181595,1,0,1:2:0:0:
356,97,181772,2,0,P|319:81|280:85,1,80,8|2,0:0|0:0,0:0:0:0:
136,335,182127,5,2,1:2:0:0:
190,168,182305,1,0,1:2:0:0:
298,320,182482,2,0,P|261:335|222:331,1,80,8|2,0:0|0:0,0:0:0:0:
16,143,182837,5,2,1:2:0:0:
32,237,183015,1,2,1:2:0:0:
49,332,183192,1,10,0:0:0:0:
190,168,183370,6,0,B|254:157|254:157|278:181|278:181|338:171,1,160,10|8,1:2|0:0,0:0:0:0:
445,219,183902,1,8,0:3:0:0:
512,169,184080,1,4,0:3:0:0:
246,8,184257,6,0,P|259:66|267:125,1,120.000004577637,6|0,1:2|0:0,0:0:0:0:
205,197,184790,1,0,1:2:0:0:
205,197,184967,2,0,P|165:168|100:184,1,120.000004577637,10|0,0:0|0:0,0:0:0:0:
52,253,185500,5,10,0:0:0:0:
52,253,185589,1,8,0:0:0:0:
52,253,185677,1,2,1:2:0:0:
138,384,185855,1,8,0:0:0:0:
138,384,186210,5,0,1:2:0:0:
191,320,186387,2,0,P|220:324|249:332,1,60.0000022888184,8|0,0:0|0:0,0:0:0:0:
415,384,186742,5,2,0:0:0:0:
401,305,186920,1,0,1:2:0:0:
387,226,187097,6,0,P|378:166|365:108,1,120.000004577637,6|0,1:2|1:2,0:0:0:0:
463,19,187630,1,2,1:2:0:0:
463,19,187719,1,2,0:0:0:0:
463,19,187808,2,0,P|455:47|450:77,1,60.0000022888184,10|0,0:0|1:2,0:0:0:0:
494,149,188163,1,0,0:0:0:0:
452,225,188340,5,8,0:0:0:0:
452,225,188429,1,8,0:0:0:0:
452,225,188518,1,2,1:2:0:0:
314,122,188695,5,8,0:0:0:0:
314,122,189050,1,2,1:2:0:0:
228,200,189228,5,8,0:0:0:0:
230,211,189405,1,2,1:2:0:0:
300,275,189583,5,10,0:3:0:0:
298,286,189760,1,4,0:3:0:0:
90,384,189938,6,0,P|85:354|76:325,1,60.0000022888184,4|0,1:2|0:0,0:0:0:0:
0,230,190293,1,2,0:0:0:0:
27,152,190470,1,2,1:2:0:0:
219,29,190648,5,10,0:0:0:0:
234,114,190825,1,2,0:0:0:0:
148,129,191003,1,2,0:0:0:0:
133,44,191180,2,0,P|129:29|125:12,1,30.0000011444092,10|8,0:0|0:0,0:0:0:0:
234,114,191358,5,2,1:2:0:0:
251,117,191535,1,10,0:0:0:0:
431,47,191713,6,0,P|450:42|470:39,2,40.000001525879,2|2|2,0:0|0:0|0:0,0:0:0:0:
371,105,192068,5,10,0:0:0:0:
400,184,192245,1,2,0:0:0:0:
510,245,192423,5,2,1:2:0:0:
481,324,192600,1,2,0:0:0:0:
325,242,192778,6,0,B|277:216|233:245|246:257|201:286|154:268,1,180.000006866455,2|0,1:2|1:2,0:0:0:0:
37,139,193488,2,0,P|50:197|58:256,1,120.000004577637,10|0,0:0|0:0,0:0:0:0:
251,384,194021,1,2,1:2:0:0:
346,216,194198,5,2,0:0:0:0:
325,334,194376,1,8,0:0:0:0:
204,312,194553,1,8,0:0:0:0:
225,193,194731,1,8,0:0:0:0:
371,105,194908,5,10,0:0:0:0:
282,15,195086,1,8,0:0:0:0:
283,7,195174,1,10,0:0:0:0:
284,0,195263,1,8,0:0:0:0:
92,104,195441,5,10,0:0:0:0:
93,111,195529,1,8,0:0:0:0:
94,119,195618,2,0,P|102:158|108:197,1,80,6|2,1:2|0:0,0:0:0:0:
235,363,195973,5,10,0:0:0:0:
263,168,196151,1,2,0:0:0:0:
125,307,196328,1,2,1:2:0:0:
329,221,196506,1,2,1:2:0:0:
357,212,196594,1,0,0:0:0:0:
386,217,196683,1,8,0:0:0:0:
410,234,196772,1,0,0:0:0:0:
424,261,196861,2,0,P|419:284|417:308,1,40
235,363,197038,6,0,P|232:339|227:319,3,40,2|0|0|0,1:2|0:0|1:2|0:0,0:0:0:0:
125,307,197393,2,0,P|128:283|133:263,3,40,8|0|0|0,0:0|0:0|1:2|0:0,0:0:0:0:
61,205,197748,5,2,0:0:0:0:
60,195,197836,1,0,0:0:0:0:
57,185,197925,1,0,1:2:0:0:
56,175,198014,1,0,0:0:0:0:
54,165,198103,2,0,P|51:141|46:121,3,40,8|0|0|8,0:0|0:0|1:2|0:0,0:0:0:0:
121,33,198458,6,0,P|117:53|115:73,1,40,6|0,1:2|0:0,0:0:0:0:
181,127,198636,1,0,1:2:0:0:
284,43,198813,1,8,0:0:0:0:
312,34,198901,1,0,0:0:0:0:
341,39,198990,1,0,1:2:0:0:
365,56,199079,1,8,0:0:0:0:
379,83,199168,6,0,P|374:106|372:130,3,40,2|0|0|0,1:2|0:0|1:2|0:0,0:0:0:0:
301,166,199524,2,0,P|305:189|308:213,3,40,8|0|0|0,0:0|0:0|0:0|0:0,0:0:0:0:
405,301,199879,1,2,1:2:0:0:
378,288,199967,1,0,0:0:0:0:
348,287,200056,1,0,1:2:0:0:
320,297,200145,1,0,0:0:0:0:
298,317,200234,2,0,P|294:340|291:364,3,40,8|0|0|0,0:0|0:0|0:0|0:0,0:0:0:0:
225,273,200589,6,0,P|222:249|215:222,1,40,2|0,1:2|0:0,0:0:0:0:
46,121,200766,1,8,0:0:0:0:
71,112,200854,1,8,0:0:0:0:
97,115,200943,1,8,0:0:0:0:
119,129,201032,1,8,0:0:0:0:
133,152,201121,1,8,0:0:0:0:
135,178,201209,1,8,0:0:0:0:
126,203,201299,6,0,P|131:226|133:250,3,40,6|0|0|0,1:2|0:0|1:2|0:0,0:0:0:0:
216,161,201654,2,0,P|218:141|222:121,3,40,8|0|0|0,0:0|0:0|0:0|0:0,0:0:0:0:
280,216,202009,5,2,1:2:0:0:
306,228,202097,1,0,0:0:0:0:
336,229,202186,1,0,1:2:0:0:
364,219,202275,1,0,0:0:0:0:
387,200,202364,2,0,P|391:177|394:153,3,40,12|0|0|0,0:0|0:0|0:0|0:0,0:0:0:0:
453,252,202719,6,0,P|456:271|459:291,3,40,2|0|0|0,1:2|0:0|1:2|0:0,0:0:0:0:
336,370,203074,5,12,0:0:0:0:
297,366,203192,5,0,0:0:0:0:
266,342,203310,5,0,0:0:0:0:
251,305,203429,6,0,P|244:265|236:226,1,80,2|0,1:2|1:2,0:0:0:0:
401,121,203784,2,0,P|392:160|386:199,1,80,8|0,0:0|0:0,0:0:0:0:
196,56,204139,5,2,1:2:0:0:
176,60,204228,1,0,0:0:0:0:
156,64,204316,1,2,1:2:0:0:
322,0,204494,2,0,P|313:39|307:78,1,80,12|0,0:0|0:0,0:0:0:0:
186,223,204849,5,2,1:2:0:0:
385,151,205026,1,2,1:2:0:0:
196,56,205204,2,0,P|205:95|211:134,1,80,14|0,0:0|0:0,0:0:0:0:
305,336,205559,5,2,1:2:0:0:
106,264,205736,1,2,1:2:0:0:
295,169,205914,2,0,P|286:208|280:247,1,80,12|0,0:0|0:0,0:0:0:0:
27,357,206269,5,2,1:2:0:0:
0,201,206447,1,10,0:0:0:0:
156,172,206624,1,14,1:2:0:0:
184,326,206802,1,10,1:2:0:0:
184,326,207689,6,0,P|245:309|310:294,1,120.000004577637,2|2,0:0|0:0,0:0:0:0:
397,195,208222,1,0,0:0:0:0:
397,195,208310,1,0,0:0:0:0:
397,195,208399,6,0,P|360:143|290:135,1,120.000004577637,6|0,1:2|0:0,0:0:0:0:
307,131,209109,2,0,P|248:144|190:160,1,120.000004577637,2|2,0:0|0:0,0:0:0:0:
112,250,209642,1,0,1:2:0:0:
42,108,209819,6,0,P|29:174|19:245,1,120.000004577637,6|2,1:2|0:0,0:0:0:0:
21,225,210529,2,0,P|32:283|41:343,1,120.000004577637
133,384,211062,1,2,1:2:0:0:
266,288,211239,5,4,1:2:0:0:
243,211,211417,1,2,0:0:0:0:
167,233,211595,1,2,0:0:0:0:
189,310,211772,1,2,0:0:0:0:
333,229,211950,6,0,P|361:235|391:244,1,60.0000022888184,2|2,0:0|0:0,0:0:0:0:
496,291,212305,1,2,0:0:0:0:
477,199,212482,1,2,1:2:0:0:
448,83,212660,54,1,B|375:60|375:60|363:86|335:92,1,120.000004577637,6|2,1:2|0:0,0:0:0:0:
344,90,213370,5,8,0:3:0:0:
297,270,213547,1,8,0:3:0:0:
210,134,213725,5,4,0:3:0:0:
228,209,213902,1,0,0:0:0:0:
131,71,214080,6,0,P|136:36|142:6,1,60.0000022888184,6|0,1:2|0:0,0:0:0:0:
41,122,214435,2,0,P|36:87|30:57,1,60.0000022888184,0|0,1:2|0:0,0:0:0:0:
133,241,214790,2,0,P|138:206|144:176,1,60.0000022888184,2|0,1:2|0:0,0:0:0:0:
9,292,215145,2,0,P|4:257|-2:227,1,60.0000022888184,2|0,1:2|0:0,0:0:0:0:
149,339,215500,6,0,P|216:315|230:271,1,120.000004577637,2|2,1:2|1:2,0:0:0:0:
316,202,216032,1,2,0:0:0:0:
316,202,216210,2,0,P|351:208|387:218,1,60.0000022888184,0|0,1:2|0:0,0:0:0:0:
491,117,216565,2,0,P|456:123|420:133,1,60.0000022888184,0|2,1:2|0:0,0:0:0:0:
484,279,216920,6,0,P|476:236|470:210,1,60.0000022888184,2|2,1:2|0:0,0:0:0:0:
343,49,217275,2,0,P|336:78|331:107,1,60.0000022888184,0|2,1:2|0:0,0:0:0:0:
237,247,217630,5,0,1:2:0:0:
208,149,217808,1,2,1:2:0:0:
331,335,217985,5,10,0:0:0:0:
363,231,218163,1,2,0:0:0:0:
160,287,218340,5,6,1:2:0:0:
331,335,218518,1,2,0:0:0:0:
135,380,218696,5,10,0:0:0:0:
363,231,218873,2,0,P|346:135|331:57,1,160,6|8,1:2|0:0,0:0:0:0:
329,50,219316,1,8,0:0:0:0:
310,35,219405,1,10,0:0:0:0:
286,30,219494,1,8,0:0:0:0:
262,32,219583,1,8,0:0:0:0:
240,42,219671,1,8,0:0:0:0:
220,63,219760,6,0,B|143:53|143:53|102:79|102:79|32:71,1,191.999994140625,6|8,1:2|0:0,0:0:0:0:
152,180,220293,1,0,0:0:0:0:
9,263,220470,2,0,P|16:210|25:162,1,95.9999970703126,2|0,1:2|1:2,0:0:0:0:
181,269,220825,2,0,P|189:316|195:363,1,95.9999970703126,10|0,0:0|0:0,0:0:0:0:
344,237,221180,5,2,1:2:0:0:
152,180,221358,1,0,1:2:0:0:
327,103,221535,1,10,0:0:0:0:
181,269,221713,2,1,B|116:293|71:258|89:244|56:218|-3:231,1,191.999994140625,2|0,1:2|1:2,0:0:0:0:
140,376,222245,1,8,0:0:0:0:
280,296,222423,6,0,P|273:248|265:201,1,95.9999970703126,2|0,0:0|1:2,0:0:0:0:
189,78,222778,1,2,0:0:0:0:
369,165,222955,1,10,0:0:0:0:
325,48,223133,1,2,0:0:0:0:
142,193,223310,2,0,P|91:181|42:171,1,95.9999970703126,2|2,1:2|1:2,0:0:0:0:
186,316,223666,2,0,P|237:304|286:294,1,95.9999970703126,10|2,0:0|0:0,0:0:0:0:
369,165,224021,5,2,1:2:0:0:
452,292,224198,1,0,1:2:0:0:
501,109,224376,1,10,0:0:0:0:
330,248,224553,2,0,P|277:182|308:78,1,191.999994140625,2|0,1:2|1:2,0:0:0:0:
467,197,225086,2,0,P|457:250|450:302,1,95.9999970703126,12|0,0:0|1:2,0:0:0:0:
447,331,225352,1,8,0:0:0:0:
447,331,225441,6,0,P|425:362|365:353,1,90.0000034332277,6|0,1:2|0:0,0:0:0:0:
303,322,225796,6,0,P|266:329|232:339,1,60.0000022888184,8|0,0:0|0:0,0:0:0:0:
312,229,226151,2,0,P|355:238|396:250,1,60.0000022888184,10|0,0:0|1:2,0:0:0:0:
211,236,226506,2,0,P|217:197|224:171,1,60.0000022888184,10|0,0:0|1:2,0:0:0:0:
118,262,226861,2,0,P|126:297|132:333,1,60.0000022888184,10|0,0:0|0:0,0:0:0:0:
40,181,227216,5,10,0:0:0:0:
18,258,227393,1,0,1:2:0:0:
135,153,227571,6,0,P|129:118|120:83,1,60.0000022888184,10|0,0:0|1:2,0:0:0:0:
228,218,227926,2,0,P|233:184|241:151,1,60.0000022888184,10|0,0:0|1:2,0:0:0:0:
250,129,228192,1,0,1:2:0:0:
250,128,228281,6,0,P|288:116|327:108,1,80,10|0,0:0|0:0,0:0:0:0:
491,219,228636,2,0,P|451:210|413:198,1,80,8|0,0:0|0:0,0:0:0:0:
477,133,228991,1,8,0:0:0:0:
332,286,229168,2,0,P|322:247|317:207,1,80,0|8,1:2|0:0,0:0:0:0:
462,376,229524,6,0,P|480:297|491:217,1,160,0|0,1:2|0:0,0:0:0:0:
389,96,230056,2,0,P|349:104|311:116,1,80,8|0,0:0|1:2,0:0:0:0:
183,221,230411,2,0,P|143:213|105:201,1,80,8|2,0:0|1:2,0:0:0:0:
210,108,230766,1,10,0:0:0:0:
290,225,230944,1,2,0:0:0:0:
247,303,231121,5,0,1:2:0:0:
247,303,231299,1,0,1:2:0:0:
383,142,231476,2,0,P|426:152|467:164,1,80,12|0,0:0|0:0,0:0:0:0:
423,249,231831,5,2,1:2:0:0:
423,249,232009,1,0,1:2:0:0:
287,88,232186,2,0,P|244:98|203:110,1,80,12|0,0:0|0:0,0:0:0:0:
114,162,232541,5,2,1:2:0:0:
114,162,232719,1,0,1:2:0:0:
320,278,232896,2,0,P|315:230|307:196,1,80,12|0,0:0|0:0,0:0:0:0:
220,249,233251,5,2,1:2:0:0:
220,249,233429,1,0,1:2:0:0:
352,122,233606,1,8,0:0:0:0:
376,120,233695,1,8,0:0:0:0:
399,130,233784,1,8,0:0:0:0:
417,147,233873,1,8,0:0:0:0:
431,165,233961,6,0,P|425:187|422:218,1,40,10|0,0:0|1:2,0:0:0:0:
401,238,234228,1,0,1:2:0:0:
401,238,234316,2,0,P|411:278|417:335,1,95.9999970703126,6|0,1:2|0:0,0:0:0:0:
222,243,234671,2,0,P|227:190|241:139,1,95.9999970703126,2|0,1:2|1:2,0:0:0:0:
311,307,235026,2,0,P|280:344|222:348,1,95.9999970703126,10|0,0:0|1:2,0:0:0:0:
204,332,235293,1,8,0:0:0:0:
204,332,235381,5,2,1:2:0:0:
88,259,235559,1,0,1:2:0:0:
7,375,235737,1,10,0:0:0:0:
56,164,235914,2,1,B|121:140|166:175|148:189|181:215|240:202,1,191.999994140625,2|0,1:2|1:2,0:0:0:0:
368,95,236447,2,0,P|324:64|278:63,1,95.9999970703126,8|2,0:0|1:2,0:0:0:0:
259,82,236713,1,8,0:0:0:0:
259,82,236802,5,0,1:2:0:0:
327,199,236979,1,2,0:0:0:0:
129,259,237157,1,10,0:0:0:0:
166,150,237334,1,2,0:0:0:0:
316,305,237512,6,0,P|363:292|419:280,1,95.9999970703126,2|2,1:2|1:2,0:0:0:0:
234,352,237867,2,0,P|216:296|241:255,1,95.9999970703126,10|2,0:0|0:0,0:0:0:0:
337,101,238222,5,2,1:2:0:0:
371,191,238399,1,0,1:2:0:0:
216,60,238577,1,10,0:0:0:0:
120,227,238754,2,0,P|110:152|90:31,1,191.999994140625,2|0,1:2|1:2,0:0:0:0:
255,168,239287,2,0,P|247:215|240:262,1,95.9999970703126,8|0,0:0|0:0,0:0:0:0:
32,336,239642,6,0,P|24:288|16:241,1,95.9999970703126,6|0,1:2|0:0,0:0:0:0:
135,132,239997,2,0,P|126:179|119:226,1,95.9999970703126,8|0,0:0|1:2,0:0:0:0:
116,260,240263,1,8,0:0:0:0:
116,260,240352,1,2,1:2:0:0:
284,168,240529,1,0,1:2:0:0:
116,36,240707,2,0,P|70:51|47:91,1,95.9999970703126,10|0,0:0|0:0,0:0:0:0:
240,296,241062,5,2,1:2:0:0:
135,132,241239,1,8,0:0:0:0:
60,320,241417,1,10,0:0:0:0:
252,164,241595,2,0,B|296:132|352:156|332:180|380:208|429:179,1,191.999994140625,6|0,1:2|1:2,0:0:0:0:
464,32,242127,2,0,P|419:47|395:87,1,95.9999970703126,8|2,0:0|0:0,0:0:0:0:
512,296,242482,5,2,1:2:0:0:
480,128,242660,2,0,P|471:175|464:222,1,95.9999970703126,2|8,0:0|0:0,0:0:0:0:
368,356,243015,2,0,L|359:308,1,47.9999985351563,2|8,1:2|0:0,0:0:0:0:
336,160,243192,1,0,1:2:0:0:
240,296,243370,1,2,1:2:0:0:
284,88,243547,1,10,0:0:0:0:
384,232,243725,1,2,0:0:0:0:
200,88,243902,5,2,1:2:0:0:
436,20,244080,1,10,0:0:0:0:
436,20,244168,1,8,0:0:0:0:
436,20,244257,1,10,0:0:0:0:
228,188,244435,2,0,P|181:179|134:172,1,95.9999970703126,6|0,1:2|0:0,0:0:0:0:
24,12,244790,5,8,0:0:0:0:
24,12,244879,1,8,0:0:0:0:
24,12,244967,2,0,L|71:3,1,47.9999985351563,10|8,0:0|0:0,0:0:0:0:
200,88,245145,2,0,L|152:79,1,47.9999985351563,8|8,0:0|0:0,0:0:0:0:
16,180,245322,6,0,P|0:247|38:306,1,143.999995605469,6|0,1:2|0:0,0:0:0:0:
68,304,245677,2,0,P|115:295|162:288,1,95.9999970703126,8|0,0:0|0:0,0:0:0:0:
300,236,246032,1,2,1:2:0:0:
136,172,246210,1,0,1:2:0:0:
320,332,246387,2,0,P|366:317|389:277,1,95.9999970703126,10|0,0:0|0:0,0:0:0:0:
240,48,246742,5,2,1:2:0:0:
300,236,246920,1,0,1:2:0:0:
416,76,247097,1,10,0:0:0:0:
203,218,247275,2,0,P|230:305|319:331,1,191.999994140625,2|0,1:2|1:2,0:0:0:0:
488,200,247808,1,8,0:0:0:0:
283,141,247985,6,0,P|292:188|300:236,1,95.9999970703126,2|0,0:0|1:2,0:0:0:0:
484,336,248340,1,2,0:0:0:0:
392,172,248518,1,10,0:0:0:0:
328,356,248695,1,2,0:0:0:0:
488,200,248873,2,0,P|498:152|474:112,1,95.9999970703126,2|2,1:2|1:2,0:0:0:0:
320,40,249228,1,10,0:0:0:0:
392,172,249405,1,2,0:0:0:0:
304,16,249583,6,0,P|256:23|209:32,1,95.9999970703126,2|0,1:2|1:2,0:0:0:0:
112,204,249938,1,10,0:0:0:0:
244,128,250115,2,0,P|196:118|149:111,1,95.9999970703126,2|0,1:2|0:0,0:0:0:0:
16,0,250470,1,0,1:2:0:0:
16,0,250559,1,0,1:2:0:0:
16,0,250648,2,0,P|56:24|70:68,1,95.9999970703126,12|0,0:0|0:0,0:0:0:0:
0,280,251003,5,6,1:2:0:0:
0,280,251358,6,0,L|63:291,1,64,8|0,0:0|0:0,0:0:0:0:
112,380,251713,2,0,L|153:330,1,64,10|0,0:0|1:2,0:0:0:0:
254,337,252068,2,0,L|232:276,1,64,10|0,0:0|1:2,0:0:0:0:
192,184,252423,6,0,P|163:198|145:224,1,64,10|0,0:0|0:0,0:0:0:0:
292,200,252778,2,0,P|293:168|280:139,1,64,10|0,0:0|1:2,0:0:0:0:
256,112,253044,1,0,1:2:0:0:
256,112,253133,1,10,0:0:0:0:
145,224,253310,1,0,1:2:0:0:
328,280,253488,2,0,L|391:268,1,64,10|0,0:0|1:2,0:0:0:0:
504,76,253843,6,0,P|464:67|425:62,1,80,10|0,0:0|0:0,0:0:0:0:
292,200,254198,2,0,P|332:191|371:186,1,80,8|0,0:0|1:2,0:0:0:0:
264,4,254553,1,8,0:0:0:0:
192,184,254731,2,0,P|187:223|205:257,1,80,0|8,1:2|0:0,0:0:0:0:
380,192,255086,1,0,1:2:0:0:
380,192,255174,1,0,1:2:0:0:
380,192,255263,5,8,0:0:0:0:
192,84,255441,1,0,1:2:0:0:
360,280,255618,38,1,B|401:303|445:275|425:263|461:235|507:251,1,160,8|8,0:0|0:0,0:0:0:0:
425,62,256151,1,2,1:2:0:0:
380,192,256328,2,0,P|340:183|301:178,1,80,10|2,0:0|0:0,0:0:0:0:
100,104,256683,5,0,1:2:0:0:
100,104,256861,1,0,1:2:0:0:
264,4,257038,2,0,P|282:38|277:77,1,80,12|0,0:0|0:0,0:0:0:0:
192,248,257393,5,2,1:2:0:0:
192,248,257571,1,0,1:2:0:0:
105,69,257748,2,0,P|144:61|184:56,1,80,12|0,0:0|0:0,0:0:0:0:
301,178,258103,5,2,1:2:0:0:
301,178,258281,1,0,1:2:0:0:
108,300,258458,2,0,P|89:265|94:226,1,80,12|0,0:0|0:0,0:0:0:0:
184,56,258813,5,2,1:2:0:0:
184,56,258991,1,0,1:2:0:0:
270,261,259168,2,0,P|230:252|191:247,1,80,12|0,0:0|0:0,0:0:0:0:
28,68,259524,5,2,1:2:0:0:
208,148,259701,1,0,1:2:0:0:
16,64,259879,2,0,P|7:103|2:142,1,80,8|2,0:0|0:0,0:0:0:0:
192,248,260234,5,2,1:2:0:0:
112,52,260411,1,0,1:2:0:0:
15,240,260589,2,0,P|54:231|93:226,1,80,8|2,0:0|0:0,0:0:0:0:
308,164,260944,5,2,1:2:0:0:
112,52,261121,1,2,1:2:0:0:
192,248,261299,1,10,0:0:0:0:
296,43,261476,2,0,P|335:39|369:57,1,80,6|0,1:2|0:0,0:0:0:0:
296,272,261831,1,0,1:2:0:0:
444,0,262009,2,0,P|467:31|469:70,1,80,8|2,0:0|0:0,0:0:0:0:
408,312,262364,5,2,1:2:0:0:
312,136,262541,1,0,1:2:0:0:
504,308,262719,2,0,P|502:347|478:378,1,80,8|2,0:0|0:0,0:0:0:0:
268,283,263074,5,2,1:2:0:0:
452,232,263251,1,0,1:2:0:0:
292,375,263429,2,0,P|252:380|217:362,1,80,8|2,0:0|0:0,0:0:0:0:
73,196,263784,5,2,1:2:0:0:
268,283,263961,1,2,1:2:0:0:
59,363,264139,1,10,0:0:0:0:
196,172,264316,1,10,1:2:0:0:
196,184,264671,5,8,0:0:0:0:
68,352,264849,1,8,0:0:0:0:
0,156,265026,1,2,1:2:0:0:
0,144,265381,5,8,0:0:0:0:
164,296,265559,1,8,0:3:0:0:
104,80,265737,1,2,1:2:0:0:
108,68,266092,5,8,0:0:0:0:
0,264,266270,1,8,0:0:0:0:
196,184,266447,1,2,1:2:0:0:
8,56,266802,5,8,0:0:0:0:
8,56,266890,1,8,0:0:0:0:
8,56,266979,1,8,0:0:0:0:
92,248,267157,6,0,B|155:169|328:227|208:331|360:320,1,320,6|0,1:2|0:0,0:0:0:0:
