osu file format v14

[General]
AudioFilename: audio.mp3
AudioLeadIn: 0
PreviewTime: 207601
Countdown: 0
SampleSet: Soft
StackLeniency: 0.4
Mode: 0
LetterboxInBreaks: 0
WidescreenStoryboard: 0

[Editor]
DistanceSpacing: 0.4
BeatDivisor: 4
GridSize: 32
TimelineZoom: 2

[Metadata]
Title:Super Noisy Nova (Xmas ver.)
TitleUnicode:Super Noisy Nova (Xmas ver.)
Artist:Sphere
ArtistUnicode:スフィア
Creator:Kujinn
Version:Present
Source:宙のまにまに
Tags:Reform Nymphe Kiyoshi Guarden Kang Sae-byeok My Angel Ram Maaadbot a r m i n A_r_M_i_N Armin Halgoh Eli Elinor [_Eli_] Booliix Vaporfly red crewmate God Haachama Yumerios Pachiru Panacotta Basensorex MakiDonalds Kirishima- alevi Pincus HonigFNA torriru skro Chuu Sora no Manimani At The Mercy of the Sky op Opening Full ver version Christmas winter jpop j-pop japanese anime j pop female vocalist vocals スクランブルデイズ
BeatmapID:3361750
BeatmapSetID:1646994

[Difficulty]
HPDrainRate:5.4
CircleSize:4
OverallDifficulty:9
ApproachRate:9.2
SliderMultiplier:1.74
SliderTickRate:1

[Events]
//Background and Video events
0,0,"BG.jpeg",0,0
//Break Periods
//Storyboard Layer 0 (Background)
//Storyboard Layer 1 (Fail)
//Storyboard Layer 2 (Pass)
//Storyboard Layer 3 (Foreground)
//Storyboard Layer 4 (Overlay)
//Storyboard Sound Samples

[TimingPoints]
8695,1000,4,2,22,30,1,0
8695,-117.647058823529,4,2,22,30,0,0
8945,-125,4,2,22,5,0,0
12695,-100,4,2,22,30,0,0
12820,-100,4,2,22,30,0,0
14195,-100,4,2,22,5,0,0
14695,-100,4,2,22,30,0,0
14820,-100,4,2,22,30,0,0
15195,-100,4,2,22,5,0,0
15445,-142.857142857143,4,2,22,30,0,0
15570,-142.857142857143,4,2,22,30,0,0
18319,-142.857142857143,4,2,22,5,0,0
19524,355.029585798817,4,2,22,45,1,0
19524,-399.999999999995,4,2,22,45,0,0
22009,-181.818181818181,4,2,22,45,0,0
22364,-133.333333333333,4,2,22,65,0,0
28044,-95.238095238095,4,2,22,75,0,0
33725,-117.647058823529,4,2,22,65,0,0
42245,-95.2380952380952,4,2,22,65,0,0
43310,-117.647058823529,4,2,22,65,0,0
44198,-95.2380952380952,4,2,22,65,0,0
45086,-117.647058823529,4,2,22,65,0,0
53606,-95.2380952380952,4,2,22,65,0,0
55381,-181.818181818182,4,2,22,65,0,0
56092,-133.333333333333,4,2,22,65,0,0
56447,-133.333333333333,4,2,2,55,0,0
62127,-105.263157894737,4,2,22,65,0,0
64967,-181.818181818182,4,2,22,45,0,0
67452,-105.263157894737,4,2,22,65,0,0
69050,-74.0740740740742,4,2,22,65,0,0
69938,-181.818181818182,4,2,22,65,0,0
70648,-86.9565217391304,4,2,22,85,0,1
87689,-105.263157894737,4,2,22,65,0,0
90529,-86.9565217391304,4,2,22,85,0,1
96210,-86.9565217391304,4,2,22,85,0,0
101891,-95.2380952380952,4,2,22,75,0,0
113252,-117.647058823529,4,2,22,65,0,0
118932,-153.846153846154,4,2,22,55,0,0
121772,-86.9565217391304,4,2,22,65,0,0
124612,-117.647058823529,4,2,22,65,0,0
133133,-86.9565217391302,4,2,22,65,0,0
134908,-181.818181818182,4,2,22,65,0,0
135973,-133.333333333333,4,2,2,55,0,0
141654,-105.263157894737,4,2,22,65,0,0
144494,-181.818181818182,4,2,22,45,0,0
146979,-95.2380952380954,4,2,22,75,0,0
148932,-86.9565217391304,4,2,22,75,0,0
151417,-74.0740740740741,4,2,22,75,0,0
152305,-285.714285714287,4,2,22,75,0,0
153015,-86.9565217391304,4,2,22,85,0,1
163488,-74.0740740740741,4,2,22,85,0,1
164376,-86.9565217391304,4,2,22,85,0,1
170056,-105.263157894737,4,2,22,65,0,0
172896,-86.9565217391304,4,2,22,85,0,1
178577,-86.9565217391304,4,2,22,85,0,0
184257,-117.647058823529,4,2,22,65,0,0
195618,-95.238095238095,4,2,22,75,0,0
207689,-95.238095238095,4,2,22,55,0,0
208399,-153.846153846154,4,2,22,55,0,0
211240,-181.818181818182,4,2,22,55,0,0
214080,-117.64705882353,4,2,22,55,0,0
218340,-117.64705882353,4,2,22,75,0,0
219760,-86.9565217391305,4,2,22,85,0,1
225441,-105.263157894737,4,2,22,65,0,0
228103,-86.9565217391306,4,2,22,65,0,1
228281,-86.9565217391306,4,2,22,85,0,1
233961,-64.5161290322581,4,2,22,85,0,0
234671,-86.9565217391304,4,2,22,85,0,1
251003,-105.263157894737,4,2,22,65,0,0
253843,-86.9565217391304,4,2,22,85,0,1
259524,-80,4,2,22,85,0,0
264672,-105.263157894737,4,2,22,85,0,0
267157,-80,4,2,22,85,0,0

[Colours]
Combo1 : 104,151,102
Combo2 : 175,44,33
Combo3 : 237,63,63
Combo4 : 252,216,216
Combo5 : 249,211,162
Combo6 : 224,150,75
Combo7 : 165,95,61

[HitObjects]
180,310,8695,6,0,B|139:364|52:341|13:242|97:170|178:185|216:218|212:229|208:239|254:261|330:258|374:200|385:127|354:81,1,554.625010578633,2|0,0:0|0:0,0:0:0:0:
243,86,12695,6,0,P|281:196|336:370,1,261,2|0,0:0|0:0,0:0:0:0:
236,324,14695,6,0,P|217:274|254:230,1,87,2|0,0:0|0:0,0:0:0:0:
315,70,15445,6,0,B|365:112|338:198|272:210|259:202|247:196|180:236|179:319|257:356,1,365.399988848877,2|0,0:0|0:0,0:0:0:0:
66,45,19524,6,0,P|72:68|78:92,6,43.5,2|2|2|2|2|2|2,0:0|0:0|0:0|0:0|0:0|0:0|0:0,0:0:0:0:
46,154,21831,5,0,0:0:0:0:
50,161,22009,2,0,P|89:168|118:149,1,71.7750021903992,2|0,0:0|0:0,0:0:0:0:
177,98,22364,5,8,0:0:0:0:
374,193,22541,1,8,0:0:0:0:
469,53,23074,5,8,0:0:0:0:
286,142,23251,1,8,0:0:0:0:
405,310,23784,5,8,0:0:0:0:
355,103,23961,1,8,0:0:0:0:
77,30,24316,6,0,P|96:73|184:64,1,130.50000497818,4|8,1:2|0:0,0:0:0:0:
240,30,24849,1,8,0:3:0:0:
203,282,25026,5,8,0:0:0:0:
206,288,25115,1,8,0:0:0:0:
209,293,25204,1,8,0:0:0:0:
171,76,25381,1,8,0:0:0:0:
341,331,25914,5,8,0:0:0:0:
379,114,26091,1,8,0:0:0:0:
136,384,26624,5,8,0:0:0:0:
98,167,26801,1,8,0:0:0:0:
405,240,27157,6,0,P|343:234|310:286,1,130.50000497818,4|0,1:2|1:2,0:0:0:0:
344,357,27600,1,0,1:2:0:0:
339,353,27689,2,0,P|297:338|256:325,1,65.2500024890901,8|0,0:0|0:0,0:0:0:0:
19,211,28044,6,0,P|75:234|132:161,1,137.024995818329,4|0,1:2|0:0,0:0:0:0:
159,176,28399,2,0,P|142:116|126:60,1,91.3499972122193,8|0,0:0|0:0,0:0:0:0:
238,214,28754,1,0,1:2:0:0:
35,125,28932,1,0,1:2:0:0:
172,12,29109,2,0,P|218:20|245:78,1,91.3499972122193,8|0,0:0|0:0,0:0:0:0:
330,301,29464,5,0,1:2:0:0:
135,218,29642,1,0,1:2:0:0:
296,123,29819,1,8,0:0:0:0:
247,357,29997,6,0,B|211:263|211:263|234:204|293:234,1,182.699994424439,4|0,1:2|1:2,0:0:0:0:
478,352,30529,2,0,P|427:345|406:287,1,91.3499972122193,8|0,0:0|1:2,0:0:0:0:
425,243,30796,5,8,0:0:0:0:
419,238,30884,2,0,P|430:185|443:129,1,91.3499972122193,0|0,1:2|1:2,0:0:0:0:
209,36,31239,2,0,P|239:79|293:75,1,91.3499972122193,8|0,0:0|1:2,0:0:0:0:
345,49,31506,1,8,0:0:0:0:
351,42,31595,1,0,1:2:0:0:
219,192,31772,1,0,1:2:0:0:
443,219,31950,2,0,P|420:180|377:171,1,91.3499972122193,8|0,0:0|0:0,0:0:0:0:
97,363,32305,5,8,0:3:0:0:
94,351,32393,1,8,0:3:0:0:
90,337,32482,2,0,P|83:309|74:274,1,45.6749986061097,8|4,0:3|0:3,0:0:0:0:
224,184,32660,2,0,P|231:156|240:121,1,45.6749986061097,4|4,0:3|0:3,0:0:0:0:
47,32,32837,6,0,P|78:85|157:64,1,137.024995818329,4|0,1:2|0:0,0:0:0:0:
147,65,33192,1,12,0:0:0:0:
296,184,33370,2,0,P|228:203|152:229,1,137.024995818329,12|0,0:0|0:0,0:0:0:0:
156,218,33725,6,0,P|148:258|185:293,1,73.9500014104843,4|0,1:2|0:0,0:0:0:0:
248,344,34080,1,10,0:0:0:0:
254,339,34257,1,2,0:0:0:0:
445,322,34435,5,2,1:2:0:0:
331,241,34612,1,2,1:2:0:0:
438,167,34790,2,0,P|425:213|416:254,1,73.9500014104843,10|2,0:0|0:0,0:0:0:0:
268,22,35145,5,0,1:2:0:0:
360,74,35322,1,0,1:2:0:0:
271,136,35500,1,10,0:0:0:0:
368,60,35677,6,0,P|411:70|527:98,1,147.900002820969,2|2,1:2|1:2,0:0:0:0:
354,141,36210,1,8,0:0:0:0:
474,9,36387,1,0,1:2:0:0:
476,15,36476,1,8,0:0:0:0:
478,22,36565,6,0,L|456:111,1,73.9500014104843,0|0,1:2|0:0,0:0:0:0:
499,220,36920,1,10,0:0:0:0:
493,211,37097,1,2,0:0:0:0:
327,300,37275,5,2,1:2:0:0:
386,191,37452,1,2,1:2:0:0:
474,330,37630,2,0,P|448:357|401:353,1,73.9500014104843,10|2,0:0|0:0,0:0:0:0:
163,138,37985,6,0,P|199:140|223:166,1,73.9500014104843,0|0,1:2|1:2,0:0:0:0:
113,220,38340,1,10,0:0:0:0:
240,349,38518,2,0,P|230:306|218:263,1,73.9500014104843,2|0,1:2|0:0,0:0:0:0:
222,277,38873,1,2,1:2:0:0:
352,125,39050,2,0,P|342:160|334:196,1,73.9500014104843,12|0,0:0|0:0,0:0:0:0:
107,123,39405,6,0,P|118:70|210:67,2,147.900002820969,4|10|2,1:2|0:0|1:2,0:0:0:0:
218,51,40293,1,0,1:2:0:0:
131,207,40470,2,0,P|93:223|46:249,1,73.9500014104843,10|0,0:0|0:0,0:0:0:0:
280,347,40825,6,0,P|313:373|358:366,1,73.9500014104843,2|0,1:2|1:2,0:0:0:0:
451,319,41180,5,10,0:0:0:0:
249,194,41358,1,0,1:2:0:0:
454,325,41535,5,10,0:0:0:0:
382,102,41713,1,0,1:2:0:0:
344,373,41890,6,0,P|361:315|375:270,1,73.9500014104843,10|0,0:0|0:0,0:0:0:0:
181,41,42245,6,0,P|210:97|298:71,1,137.024995818329,6|0,1:2|0:0,0:0:0:0:
289,109,42600,1,10,0:0:0:0:
201,259,42778,6,0,B|152:231|115:280|115:280|108:342|41:336,1,182.699994424439,6|0,1:2|1:2,0:0:0:0:
29,133,43310,2,0,P|64:140|92:186,1,73.9500014104843,8|0,0:0|0:0,0:0:0:0:
177,360,43666,5,4,1:2:0:0:
271,315,43843,1,0,1:2:0:0:
361,274,44021,1,8,0:0:0:0:
505,369,44198,6,0,B|482:333|448:327|448:327|493:196,1,182.699994424439,4|8,1:2|0:0,0:0:0:0:
324,106,44731,1,0,1:2:0:0:
502,25,44908,1,8,0:0:0:0:
505,32,44997,1,8,0:0:0:0:
507,41,45086,6,0,P|480:96|393:81,1,147.900002820969,4|10,1:2|0:0,0:0:0:0:
401,82,45618,1,2,0:0:0:0:
173,77,45796,5,2,1:2:0:0:
321,178,45973,1,2,1:2:0:0:
321,20,46151,2,0,P|285:40|284:93,1,73.9500014104843,10|2,0:0|1:2,0:0:0:0:
232,129,46417,5,8,0:0:0:0:
224,127,46506,2,0,P|240:176|256:225,1,73.9500014104843,0|0,1:2|1:2,0:0:0:0:
187,357,46861,1,10,0:0:0:0:
382,350,47038,2,0,P|343:332|298:320,1,73.9500014104843,2|0,1:2|0:0,0:0:0:0:
98,252,47393,2,0,P|133:241|166:225,1,73.9500014104843,2|8,1:2|0:0,0:0:0:0:
321,47,47748,5,0,1:2:0:0:
321,47,47837,1,8,0:0:0:0:
321,47,47926,2,0,P|314:90|307:135,1,73.9500014104843,0|0,1:2|0:0,0:0:0:0:
395,283,48281,1,10,0:0:0:0:
210,146,48458,1,2,1:2:0:0:
210,146,48547,1,8,0:0:0:0:
210,146,48636,2,0,P|217:189|224:234,1,73.9500014104843,0|2,1:2|1:2,0:0:0:0:
151,372,48991,1,10,0:0:0:0:
288,281,49168,1,2,1:2:0:0:
294,286,49257,1,8,0:0:0:0:
301,290,49346,5,0,1:2:0:0:
127,178,49524,1,0,1:2:0:0:
286,79,49701,1,10,0:0:0:0:
65,31,49879,6,0,P|90:71|168:55,1,110.925002115727,6|0,1:2|0:0,0:0:0:0:
217,43,50234,1,10,0:0:0:0:
44,167,50411,1,10,0:0:0:0:
248,269,50589,6,0,B|183:244|183:244|133:278|171:326,1,147.900002820969,6|2,1:2|1:2,0:0:0:0:
259,265,51121,1,10,0:0:0:0:
227,79,51299,2,0,P|209:117|227:160,1,73.9500014104843,2|0,0:0|1:2,0:0:0:0:
384,365,51654,5,2,1:2:0:0:
500,275,51831,1,10,0:0:0:0:
383,204,52009,2,0,P|398:251|409:289,1,73.9500014104843,2|0,1:2|0:0,0:0:0:0:
300,225,52364,5,2,1:2:0:0:
425,130,52541,1,10,0:0:0:0:
284,67,52719,1,2,1:2:0:0:
431,16,52896,2,0,P|406:42|355:36,1,73.9500014104843,2|0,0:0|1:2,0:0:0:0:
221,179,53251,2,0,P|257:180|282:206,1,73.9500014104843,10|0,0:0|0:0,0:0:0:0:
92,368,53606,5,6,1:2:0:0:
36,129,53784,1,8,0:0:0:0:
90,350,53961,1,10,0:0:0:0:
150,20,54139,6,0,P|138:72|125:130,1,91.3499972122193,2|0,1:2|0:0,0:0:0:0:
9,0,54494,1,0,1:2:0:0:
95,236,54671,6,0,B|75:214|30:218|30:218|96:164|184:204|202:275,1,274.049991636658,12|0,0:0|0:0,0:0:0:0:
228,337,55381,6,0,P|238:273|251:225,1,95.7000029205323,2|2,0:0|0:0,0:0:0:0:
404,166,55914,1,2,0:0:0:0:
407,175,56003,1,2,0:0:0:0:
410,183,56092,6,0,P|387:222|319:214,1,97.8750037336351,2|0,0:0|0:0,0:0:0:0:
274,182,56447,2,0,P|290:133|305:94,1,65.2500024890901,4|0,1:2|0:0,0:0:0:0:
193,22,56802,6,0,P|135:35|47:58,2,130.50000497818,10|10|8,0:0|0:0|0:0,0:0:0:0:
342,18,57689,6,0,P|377:43|417:37,1,65.2500024890901,2|0,1:2|1:2,0:0:0:0:
285,136,58044,1,2,0:0:0:0:
278,140,58222,1,8,0:0:0:0:
434,222,58399,2,0,P|425:180|416:133,1,65.2500024890901,2|8,0:0|0:0,0:0:0:0:
284,288,58754,1,0,1:2:0:0:
284,288,58932,2,0,P|293:246|302:199,1,65.2500024890901,8|0,0:0|1:2,0:0:0:0:
499,380,59287,6,0,P|462:328|400:330,1,130.50000497818,0|10,1:2|0:0,0:0:0:0:
316,384,59819,1,2,0:0:0:0:
220,256,59997,5,2,1:2:0:0:
220,256,60174,1,0,1:2:0:0:
131,361,60352,1,10,0:0:0:0:
155,198,60529,2,0,P|172:251|198:328,1,130.50000497818,2|2,1:2|1:2,0:0:0:0:
234,145,61062,6,0,P|173:157|131:112,1,130.50000497818,10|8,0:0|0:0,0:0:0:0:
131,112,61595,1,0,1:2:0:0:
22,288,61772,2,0,P|65:267|104:253,1,65.2500024890901,4|0,0:2|0:0,0:0:0:0:
50,15,62127,6,0,P|12:33|3:86,1,82.649997793007,4|0,0:2|0:0,0:0:0:0:
160,98,62482,2,0,P|163:56|122:21,1,82.649997793007,2|0,1:2|0:0,0:0:0:0:
57,157,62837,1,2,1:2:0:0:
57,157,63015,2,0,P|68:210|79:263,1,82.649997793007,2|0,0:0|1:2,0:0:0:0:
10,367,63370,6,0,P|43:335|88:338,1,82.649997793007,2|4,0:0|1:2,0:0:0:0:
230,379,63725,1,2,0:0:0:0:
237,384,63902,1,6,1:2:0:0:
177,196,64080,2,0,P|166:250|157:302,1,82.649997793007,2|4,0:0|1:2,0:0:0:0:
75,158,64435,1,0,1:2:0:0:
265,46,64612,6,0,P|250:87|163:80,1,123.97499668951,12|0,0:0|0:0,0:0:0:0:
171,102,64967,6,0,P|223:116|277:133,1,95.7000029205323,6|2,1:2|0:0,0:0:0:0:
338,192,65500,1,2,0:0:0:0:
346,190,65677,2,0,P|354:157|363:125,1,47.8500014602662
281,304,66032,2,0,P|273:271|264:239,1,47.8500014602662
444,367,66387,6,0,P|408:374|360:327,1,95.7000029205323,2|2,0:0|0:0,0:0:0:0:
395,270,66920,1,2,0:0:0:0:
401,275,67097,1,0,0:0:0:0:
257,26,67452,5,10,0:0:0:0:
103,169,67630,2,0,P|70:168|38:109,1,82.649997793007,6|0,1:2|0:0,0:0:0:0:
226,309,67985,5,8,0:0:0:0:
169,74,68163,2,0,P|182:129|192:173,1,82.649997793007,4|0,1:2|0:0,0:0:0:0:
95,337,68518,5,8,0:0:0:0:
281,206,68696,2,0,P|314:207|346:266,1,82.649997793007,4|0,1:2|0:0,0:0:0:0:
426,344,69050,6,0,B|452:318|447:253|383:229|403:269|332:227|340:171|370:141,1,234.900000896072,4|8,1:2|1:2,0:0:0:0:
498,20,69583,5,8,1:2:0:0:
491,17,69938,6,0,P|455:24|437:80,1,95.7000029205323,2|2,0:0|0:0,0:0:0:0:
492,135,70470,1,0,0:0:0:0:
380,209,70648,6,0,P|293:178|200:149,1,150.075002862454,6|0,1:2|0:0,0:0:0:0:
231,169,71003,2,0,P|280:176|312:121,1,100.050001908302,8|0,0:0|0:0,0:0:0:0:
83,287,71358,1,2,1:2:0:0:
152,85,71535,1,0,1:2:0:0:
238,368,71713,2,0,P|219:306|200:245,1,100.050001908302,10|0,0:0|0:0,0:0:0:0:
32,10,72068,5,2,1:2:0:0:
237,98,72245,1,0,1:2:0:0:
58,233,72423,1,10,0:0:0:0:
210,16,72600,6,0,P|274:17|308:144,1,200.100003816605,2|0,1:2|1:2,0:0:0:0:
58,97,73133,1,8,0:0:0:0:
231,294,73310,5,2,0:0:0:0:
237,287,73399,1,0,0:0:0:0:
244,279,73488,2,0,P|293:302|353:328,1,100.050001908302,0|2,1:2|0:0,0:0:0:0:
83,110,73843,2,0,P|33:141|42:207,1,100.050001908302,10|2,0:0|0:0,0:0:0:0:
138,344,74198,5,2,1:2:0:0:
255,121,74376,1,2,1:2:0:0:
124,12,74553,5,10,0:0:0:0:
228,219,74731,1,2,0:0:0:0:
418,50,74908,6,0,P|368:37|312:12,1,100.050001908302,2|0,1:2|1:2,0:0:0:0:
469,199,75263,1,10,0:0:0:0:
284,258,75441,2,0,B|337:231|376:282|376:282|389:340|444:339,1,200.100003816605,2|0,1:2|1:2,0:0:0:0:
133,371,75973,2,0,P|130:318|179:277,1,100.050001908302,8|0,0:0|0:0,0:0:0:0:
357,124,76328,6,0,P|301:149|231:66,1,150.075002862454,6|0,1:2|0:0,0:0:0:0:
218,88,76683,2,0,P|233:32|248:-18,1,100.050001908302,8|0,0:0|0:0,0:0:0:0:
51,273,77038,1,2,1:2:0:0:
221,204,77216,1,0,1:2:0:0:
25,65,77393,2,0,P|64:107|126:94,1,100.050001908302,10|0,0:0|0:0,0:0:0:0:
320,342,77748,5,2,1:2:0:0:
98,209,77926,1,8,0:0:0:0:
297,102,78103,1,10,0:0:0:0:
228,371,78281,2,0,P|205:270|178:171,1,200.100003816605,6|0,1:2|1:2,0:0:0:0:
377,30,78813,2,0,P|420:27|460:85,1,100.050001908302,8|2,0:0|0:0,0:0:0:0:
315,191,79168,5,2,1:2:0:0:
491,302,79346,2,0,P|441:323|390:352,1,100.050001908302,2|8,0:0|0:0,0:0:0:0:
160,199,79701,2,0,P|199:237|257:223,1,100.050001908302,2|0,0:0|1:2,0:0:0:0:
405,148,80056,1,2,1:2:0:0:
209,69,80234,1,10,0:0:0:0:
385,0,80411,1,2,0:0:0:0:
434,321,80589,5,2,1:2:0:0:
299,55,80766,1,10,0:0:0:0:
302,47,80855,1,8,0:0:0:0:
305,39,80944,1,10,0:0:0:0:
170,345,81121,2,0,P|207:304|281:329,1,100.050001908302,6|0,1:2|0:0,0:0:0:0:
504,364,81476,5,8,0:0:0:0:
455,367,81565,1,8,0:0:0:0:
416,331,81654,1,10,0:0:0:0:
404,280,81742,1,8,0:0:0:0:
436,233,81831,1,8,0:0:0:0:
469,194,81920,1,8,0:0:0:0:
467,141,82009,6,0,P|452:82|346:96,1,150.075002862454,6|0,1:2|0:0,0:0:0:0:
345,89,82364,2,0,P|318:113|245:81,1,100.050001908302,8|0,0:0|0:0,0:0:0:0:
62,28,82719,1,2,1:2:0:0:
210,227,82896,1,0,1:2:0:0:
163,0,83074,2,0,P|148:64|135:124,1,100.050001908302,10|0,0:0|0:0,0:0:0:0:
18,359,83429,5,2,1:2:0:0:
204,239,83606,1,0,1:2:0:0:
32,118,83784,1,10,0:0:0:0:
199,247,83961,6,0,B|254:219|296:277|287:282|278:288|322:356|397:307,1,200.100003816605,2|0,1:2|1:2,0:0:0:0:
512,180,84494,1,8,0:0:0:0:
461,362,84671,5,2,0:0:0:0:
456,355,84760,1,0,0:0:0:0:
451,348,84849,2,0,P|466:286|481:227,1,100.050001908302,0|2,1:2|0:0,0:0:0:0:
270,21,85204,5,10,0:0:0:0:
361,221,85381,1,2,0:0:0:0:
486,154,85559,5,2,1:2:0:0:
267,132,85736,1,2,1:2:0:0:
239,302,85914,5,10,0:0:0:0:
367,123,86091,1,2,0:0:0:0:
105,14,86269,6,0,P|136:52|205:31,1,100.050001908302,2|0,1:2|1:2,0:0:0:0:
22,140,86624,1,10,0:0:0:0:
203,270,86802,2,0,B|160:257|115:240|115:240|49:284|100:342,1,200.100003816605,2|0,1:2|1:2,0:0:0:0:
448,364,87334,6,0,P|393:348|381:286,1,100.050001908302,12|0,0:0|0:0,0:0:0:0:
399,244,87600,1,0,0:0:0:0:
403,235,87689,1,6,1:2:0:0:
82,27,88044,6,0,P|129:13|176:76,1,123.97499668951,8|0,0:0|0:0,0:0:0:0:
184,70,88399,2,0,P|168:116|154:168,1,82.649997793007,10|0,0:0|1:2,0:0:0:0:
220,290,88754,1,10,0:0:0:0:
214,281,88932,1,0,1:2:0:0:
0,301,89109,6,0,P|35:247|111:269,1,123.97499668951,10|0,0:0|0:0,0:0:0:0:
98,255,89464,2,0,P|107:295|117:335,1,82.649997793007,10|0,0:0|1:2,0:0:0:0:
283,232,89819,5,10,0:0:0:0:
97,112,89997,1,0,1:2:0:0:
386,37,90174,5,10,0:0:0:0:
178,193,90352,1,0,1:2:0:0:
169,189,90441,1,0,1:2:0:0:
161,184,90529,2,0,P|211:171|269:153,1,100.050001908302,10|0,0:0|0:0,0:0:0:0:
486,343,90884,6,0,P|457:303|357:316,1,150.075002862454,8|0,0:0|0:0,0:0:0:0:
368,322,91239,5,8,0:0:0:0:
256,53,91417,1,0,1:2:0:0:
438,165,91595,1,8,0:0:0:0:
253,310,91772,1,0,1:2:0:0:
375,51,91950,5,8,0:0:0:0:
173,167,92127,1,0,0:0:0:0:
394,264,92305,5,8,0:0:0:0:
270,11,92482,1,0,1:2:0:0:
192,303,92660,5,8,0:0:0:0:
418,149,92837,1,2,1:2:0:0:
160,73,93015,5,10,0:0:0:0:
295,316,93192,1,2,0:0:0:0:
53,336,93370,5,0,1:2:0:0:
59,344,93547,1,0,1:2:0:0:
208,177,93725,2,0,P|195:229|178:302,1,100.050001908302,12|0,0:0|0:0,0:0:0:0:
151,10,94080,5,2,1:2:0:0:
319,141,94257,1,0,1:2:0:0:
73,216,94435,2,0,P|60:165|105:116,1,100.050001908302,12|0,0:0|0:0,0:0:0:0:
347,250,94790,5,2,1:2:0:0:
148,359,94967,1,0,1:2:0:0:
187,105,95145,2,0,P|198:153|210:202,1,100.050001908302,12|0,0:0|0:0,0:0:0:0:
0,332,95500,5,2,1:2:0:0:
105,128,95677,1,0,1:2:0:0:
235,338,95855,2,0,P|195:366|147:358,1,100.050001908302,12|0,0:0|0:0,0:0:0:0:
485,149,96210,5,2,1:2:0:0:
500,144,96388,1,0,1:2:0:0:
303,299,96565,2,0,P|315:244|328:177,1,100.050001908302,8|2,0:0|0:0,0:0:0:0:
460,302,96920,5,2,1:2:0:0:
473,308,97098,1,0,1:2:0:0:
205,110,97275,2,0,P|214:159|225:207,1,100.050001908302,8|2,0:0|0:0,0:0:0:0:
122,272,97630,5,2,1:2:0:0:
330,129,97808,1,2,1:2:0:0:
115,25,97985,1,10,0:0:0:0:
294,273,98163,6,0,P|361:251|430:368,1,200.100003816605,6|0,1:2|1:2,0:0:0:0:
318,140,98695,2,0,P|317:92|372:55,1,100.050001908302,8|2,0:0|0:0,0:0:0:0:
10,179,99050,5,2,1:2:0:0:
1,184,99228,1,0,1:2:0:0:
167,349,99405,2,0,P|183:286|203:218,1,100.050001908302,8|2,0:0|0:0,0:0:0:0:
73,320,99760,5,2,1:2:0:0:
64,315,99938,1,0,1:2:0:0:
288,123,100115,2,0,P|304:186|322:254,1,100.050001908302,8|2,0:0|0:0,0:0:0:0:
451,322,100470,5,2,1:2:0:0:
171,156,100648,1,2,1:2:0:0:
432,39,100826,1,10,0:0:0:0:
315,310,101003,1,10,1:2:0:0:
54,22,101358,6,0,P|58:46|63:71,1,50.0250009541512,0|0,1:2|0:0,0:0:0:0:
143,138,101536,1,8,0:0:0:0:
142,159,101624,1,8,0:0:0:0:
140,179,101713,1,8,0:0:0:0:
137,198,101802,1,8,0:0:0:0:
135,215,101891,6,0,P|183:205|239:289,1,137.024995818329,4|0,1:2|0:0,0:0:0:0:
233,269,102246,1,8,0:0:0:0:
56,351,102423,1,0,1:2:0:0:
56,351,102512,1,8,0:0:0:0:
56,351,102601,2,0,P|48:299|34:241,1,91.3499972122193,0|0,1:2|1:2,0:0:0:0:
190,84,102956,2,0,P|180:128|173:173,1,91.3499972122193,8|0,0:0|1:2,0:0:0:0:
179,184,103222,1,8,0:0:0:0:
187,194,103311,5,0,1:2:0:0:
65,39,103488,1,0,1:2:0:0:
291,139,103666,1,8,0:0:0:0:
86,269,103843,6,0,B|135:241|192:291|146:291|206:351|267:301,1,182.699994424439,4|0,1:2|1:2,0:0:0:0:
428,356,104376,2,0,P|371:339|357:307,1,91.3499972122193,8|0,0:0|0:0,0:0:0:0:
342,36,104731,5,0,1:2:0:0:
211,172,104908,1,0,1:2:0:0:
415,252,105086,1,8,0:0:0:0:
332,128,105263,1,0,0:0:0:0:
211,325,105441,6,0,P|255:300|311:282,1,91.3499972122193,0|0,1:2|1:2,0:0:0:0:
112,137,105796,2,0,P|85:172|94:216,1,91.3499972122193,8|0,0:0|1:2,0:0:0:0:
102,226,106062,1,8,0:0:0:0:
108,233,106151,5,0,1:2:0:0:
267,126,106328,1,0,1:2:0:0:
96,18,106506,1,8,0:0:0:0:
271,136,106684,6,0,B|317:101|361:140|361:140|391:189|446:167,1,182.699994424439,4|8,1:2|0:0,0:0:0:0:
493,79,107127,1,8,0:0:0:0:
501,76,107216,2,0,P|491:112|484:136,1,45.6749986061097,8|8,0:0|0:0,0:0:0:0:
506,299,107394,1,8,0:0:0:0:
509,306,107482,1,8,0:0:0:0:
512,315,107571,6,0,P|470:264|406:276,1,137.024995818329,4|0,1:2|0:0,0:0:0:0:
395,277,107926,2,0,P|412:338|424:386,1,91.3499972122193,8|0,0:0|0:0,0:0:0:0:
225,222,108281,1,0,1:2:0:0:
396,146,108459,1,0,1:2:0:0:
321,333,108636,2,0,P|276:332|243:302,1,91.3499972122193,8|0,0:0|1:2,0:0:0:0:
174,223,108902,5,8,0:0:0:0:
172,216,108991,2,0,P|127:216|94:246,1,91.3499972122193,0|0,1:2|1:2,0:0:0:0:
272,162,109346,1,8,0:0:0:0:
87,361,109524,2,0,P|69:278|41:167,1,182.699994424439,4|0,1:2|1:2,0:0:0:0:
205,44,110056,2,0,P|190:91|135:104,1,91.3499972122193,8|0,0:0|1:2,0:0:0:0:
2,39,110323,5,8,0:0:0:0:
0,32,110411,2,0,P|48:21|86:62,1,91.3499972122193,4|0,1:2|1:2,0:0:0:0:
152,184,110766,2,0,P|140:239|130:291,1,91.3499972122193,8|0,0:0|1:2,0:0:0:0:
80,328,111033,1,8,0:0:0:0:
80,335,111121,1,0,1:2:0:0:
228,238,111299,1,0,1:2:0:0:
86,124,111476,2,0,P|58:159|79:220,1,91.3499972122193,8|0,0:0|0:0,0:0:0:0:
411,357,111831,5,4,1:2:0:0:
249,155,112009,1,8,0:0:0:0:
252,147,112098,1,8,0:0:0:0:
255,139,112186,1,8,0:0:0:0:
472,35,112364,6,0,P|462:63|360:59,1,137.024995818329,4|0,1:2|0:0,0:0:0:0:
371,61,112719,1,0,1:2:0:0:
185,7,112897,2,0,P|147:14|124:72,1,91.3499972122193,8|8,0:0|0:0,0:0:0:0:
67,108,113163,1,8,0:0:0:0:
61,106,113252,6,0,P|72:151|79:189,1,73.9500014104843,4|0,1:2|0:0,0:0:0:0:
31,253,113607,1,10,0:0:0:0:
21,250,113784,1,2,0:0:0:0:
271,343,113962,5,2,1:2:0:0:
162,278,114139,1,2,1:2:0:0:
260,192,114317,2,0,P|249:237|242:275,1,73.9500014104843,10|2,0:0|0:0,0:0:0:0:
472,357,114672,5,0,1:2:0:0:
439,242,114849,1,0,1:2:0:0:
475,370,115027,1,10,0:0:0:0:
365,234,115204,2,0,P|384:189|487:188,1,147.900002820969,2|2,1:2|1:2,0:0:0:0:
307,297,115737,2,0,P|258:280|212:267,1,73.9500014104843,8|0,0:0|0:0,0:0:0:0:
64,103,116092,6,0,P|99:92|134:79,1,73.9500014104843,0|0,1:2|0:0,0:0:0:0:
239,11,116447,2,0,P|226:71|206:156,1,147.900002820969,10|2,0:0|1:2,0:0:0:0:
268,314,116979,1,2,1:2:0:0:
129,224,117157,1,10,0:0:0:0:
331,214,117334,5,2,1:2:0:0:
337,217,117423,1,8,0:0:0:0:
342,221,117512,1,0,1:2:0:0:
177,336,117689,1,0,1:2:0:0:
206,155,117867,1,10,0:0:0:0:
326,345,118044,2,0,P|373:357|413:376,1,73.9500014104843,6|0,1:2|0:0,0:0:0:0:
189,243,118399,1,8,0:0:0:0:
186,251,118577,2,0,P|151:264|115:272,1,73.9500014104843,8|4,0:3|0:3,0:0:0:0:
297,248,118932,6,0,P|286:188|273:119,1,113.099994822693,4|2,1:2|0:0,0:0:0:0:
276,136,119465,1,0,1:2:0:0:
350,57,119642,2,0,P|387:50|435:118,1,113.099994822693,10|2,0:0|0:0,0:0:0:0:
243,51,120175,5,0,1:2:0:0:
237,46,120263,1,0,1:2:0:0:
231,40,120352,1,2,1:2:0:0:
116,133,120530,2,0,P|107:83|89:10,1,113.099994822693,8|0,0:0|1:2,0:0:0:0:
22,105,121062,1,10,0:0:0:0:
15,100,121240,1,0,1:2:0:0:
134,158,121417,2,0,P|170:167|207:182,1,56.5499974113466,2|0,0:0|1:2,0:0:0:0:
124,306,121772,6,0,P|97:353|0:326,1,150.075002862454,6|0,1:2|0:0,0:0:0:0:
11,334,122127,1,10,0:0:0:0:
175,198,122305,6,0,B|231:176|281:242|238:234|294:304|352:266,1,200.100003816605,6|0,1:2|1:2,0:0:0:0:
494,307,122837,2,0,P|444:328|390:363,1,100.050001908302,8|0,0:0|1:2,0:0:0:0:
391,371,123104,1,8,0:0:0:0:
392,378,123192,1,4,1:2:0:0:
343,187,123370,2,0,P|387:194|416:257,1,100.050001908302,0|8,1:2|0:0,0:0:0:0:
208,310,123725,6,0,P|234:213|265:107,1,200.100003816605,4|0,1:2|1:2,0:0:0:0:
145,198,124257,1,8,0:0:0:0:
340,76,124435,1,8,0:0:0:0:
340,76,124524,1,8,0:0:0:0:
340,76,124612,6,0,P|314:35|215:51,1,147.900002820969,4|10,1:2|0:0,0:0:0:0:
213,35,125145,1,2,0:0:0:0:
125,176,125323,5,2,1:2:0:0:
70,60,125500,1,2,1:2:0:0:
130,190,125678,2,0,P|117:240|107:282,1,73.9500014104843,10|2,0:0|1:2,0:0:0:0:
160,330,125944,1,10,0:0:0:0:
165,334,126033,5,0,1:2:0:0:
29,225,126210,1,0,1:2:0:0:
196,159,126388,1,10,0:0:0:0:
67,384,126565,6,0,P|60:341|52:306,1,73.9500014104843,2|0,1:2|0:0,0:0:0:0:
122,161,126920,1,2,1:2:0:0:
122,161,127098,2,0,P|129:204|137:239,1,73.9500014104843,8|0,0:0|0:0,0:0:0:0:
344,366,127453,6,0,P|322:325|218:335,1,147.900002820969,0|10,1:2|0:0,0:0:0:0:
230,332,127985,1,2,0:0:0:0:
402,246,128163,5,2,1:2:0:0:
279,169,128340,1,2,1:2:0:0:
385,63,128518,2,0,P|393:109|406:159,1,73.9500014104843,10|2,0:0|0:0,0:0:0:0:
272,282,128873,5,0,1:2:0:0:
423,152,129050,1,0,1:2:0:0:
260,66,129228,1,10,0:0:0:0:
376,299,129405,6,0,P|424:279|467:266,1,73.9500014104843,6|0,1:2|0:0,0:0:0:0:
303,235,129760,1,10,0:0:0:0:
443,376,129938,1,10,0:0:0:0:
512,236,130115,6,0,P|475:188|396:205,1,147.900002820969,6|2,1:2|1:2,0:0:0:0:
228,293,130648,1,10,0:0:0:0:
313,103,130826,1,2,1:2:0:0:
319,107,130914,1,8,0:0:0:0:
325,111,131003,2,0,P|317:157|309:204,1,73.9500014104843,0|2,1:2|1:2,0:0:0:0:
405,319,131358,1,10,0:0:0:0:
175,227,131536,6,0,P|193:299|216:401,1,147.900002820969,2|2,1:2|1:2,0:0:0:0:
196,372,132068,1,10,0:0:0:0:
342,269,132246,1,2,1:2:0:0:
340,276,132334,1,8,0:0:0:0:
338,284,132423,2,0,P|300:281|271:239,1,73.9500014104843,2|0,0:0|1:2,0:0:0:0:
439,173,132778,2,0,P|487:192|523:210,1,73.9500014104843,10|0,0:0|0:0,0:0:0:0:
302,93,133133,5,6,1:2:0:0:
410,330,133311,1,8,0:0:0:0:
296,82,133488,1,10,0:0:0:0:
229,334,133666,6,0,P|258:285|323:291,1,100.050001908302,2|0,1:2|0:0,0:0:0:0:
490,382,134021,1,0,1:2:0:0:
430,98,134198,2,0,P|415:170|385:331,1,200.100003816605,12|0,0:0|0:0,0:0:0:0:
137,371,134908,6,0,P|98:364|81:311,1,95.7000029205323,2|10,0:0|0:0,0:0:0:0:
141,249,135441,1,8,0:3:0:0:
66,204,135618,1,6,0:3:0:0:
59,208,135796,1,4,0:3:0:0:
159,128,135973,6,0,P|207:145|243:160,1,65.2500024890901,4|0,1:2|0:0,0:0:0:0:
102,45,136328,2,0,P|74:60|73:160,2,130.50000497818,10|10|8,0:0|0:0|0:0,0:0:0:0:
232,10,137216,6,0,P|242:52|255:99,1,65.2500024890901,2|0,1:2|1:2,0:0:0:0:
196,200,137571,1,2,0:0:0:0:
189,195,137749,1,8,0:0:0:0:
352,90,137926,2,0,P|339:146|319:232,1,130.50000497818,2|0,0:0|1:2,0:0:0:0:
382,334,138459,2,0,P|410:357|443:358,1,65.2500024890901,8|0,0:0|1:2,0:0:0:0:
258,275,138814,6,0,P|216:290|180:302,1,65.2500024890901,0|2,1:2|0:0,0:0:0:0:
117,380,139169,1,10,0:0:0:0:
125,384,139346,1,2,0:0:0:0:
75,218,139524,6,0,P|85:260|94:295,2,65.2500024890901,2|0|10,1:2|1:2|0:0,0:0:0:0:
122,131,140056,2,0,P|105:169|13:174,1,130.50000497818,2|2,1:2|1:2,0:0:0:0:
4,56,140589,2,0,P|39:74|73:102,1,65.2500024890901,10|0,0:0|0:0,0:0:0:0:
149,37,140944,2,0,P|150:76|143:119,1,65.2500024890901,8|0,0:0|1:2,0:0:0:0:
242,158,141299,2,0,P|208:179|167:194,1,65.2500024890901,4|0,0:2|0:0,0:0:0:0:
30,356,141654,6,0,P|41:305|121:310,1,123.97499668951,4|0,0:2|0:0,0:0:0:0:
113,310,142009,2,0,P|151:329|193:308,1,82.649997793007,2|0,1:2|0:0,0:0:0:0:
257,204,142364,1,2,1:2:0:0:
261,199,142541,2,0,P|274:250|286:298,1,82.649997793007,2|0,0:0|1:2,0:0:0:0:
472,365,142897,6,0,P|428:360|399:307,1,82.649997793007,2|4,0:0|1:2,0:0:0:0:
504,244,143252,1,2,0:0:0:0:
512,248,143429,1,6,1:2:0:0:
411,131,143607,2,0,P|403:177|393:242,1,82.649997793007,2|4,0:0|1:2,0:0:0:0:
299,114,143962,1,0,1:2:0:0:
477,51,144139,6,0,P|433:10|374:23,1,123.97499668951,12|0,0:0|0:0,0:0:0:0:
371,33,144494,6,0,P|342:51|283:21,1,95.7000029205323,6|2,1:2|0:0,0:0:0:0:
215,84,145027,1,2,0:0:0:0:
209,90,145204,2,0,P|176:105|151:115,1,47.8500014602662
84,72,145559,2,0,P|69:39|59:14,1,47.8500014602662
88,177,145914,6,0,P|78:199|44:280,1,95.7000029205323,2|2,0:0|0:0,0:0:0:0:
118,335,146447,1,2,0:0:0:0:
111,336,146624,1,0,0:0:0:0:
308,128,146979,5,10,0:0:0:0:
331,229,147157,2,0,P|349:144|369:65,1,137.024995818329,6|0,1:2|0:0,0:0:0:0:
327,24,147512,5,8,0:0:0:0:
475,138,147689,1,8,0:0:0:0:
259,252,147867,6,0,B|305:229|347:273|337:283|327:294|375:339|425:305,1,182.699994424439,4|0,1:2|1:2,0:0:0:0:
199,334,148399,6,0,P|218:255|260:129,1,182.699994424439,12|0,0:0|1:2,0:0:0:0:
396,126,148932,6,0,B|351:145|302:171|302:171|244:149|262:91,1,200.100003816605,14|2,0:0|1:2,0:0:0:0:
70,15,149465,5,10,0:0:0:0:
97,98,149642,1,10,0:3:0:0:
128,183,149820,1,6,0:3:0:0:
37,361,149997,6,0,P|50:324|161:321,1,150.075002862454,6|0,1:2|0:0,0:0:0:0:
143,320,150352,1,8,1:2:0:0:
296,105,150530,1,8,1:2:0:0:
273,369,150707,5,8,1:2:0:0:
306,98,150885,1,8,1:2:0:0:
433,365,151062,5,8,1:2:0:0:
319,94,151240,1,8,1:2:0:0:
143,320,151417,6,0,B|117:294|122:229|186:205|166:245|237:203|229:147|199:117,1,234.900000896072,4|8,1:2|0:0,0:0:0:0:
43,22,151950,5,8,0:0:0:0:
37,26,152305,2,0,P|46:51|51:67,3,30.4499990707398,2|0|2|0,0:0|0:0|0:0|0:0,0:0:0:0:
0,109,153015,6,0,P|47:86|109:163,1,150.075002862454,6|0,1:2|0:0,0:0:0:0:
105,152,153370,2,0,P|122:197|182:202,1,100.050001908302,8|0,0:0|0:0,0:0:0:0:
337,147,153725,1,2,1:2:0:0:
198,44,153902,1,0,1:2:0:0:
256,273,154080,2,0,P|275:218|297:157,1,100.050001908302,10|0,0:0|0:0,0:0:0:0:
159,355,154435,5,2,1:2:0:0:
385,264,154612,1,0,1:2:0:0:
183,124,154790,1,10,0:0:0:0:
323,375,154968,6,0,P|308:292|288:172,1,200.100003816605,2|0,1:2|1:2,0:0:0:0:
466,42,155500,2,0,P|437:87|375:77,1,100.050001908302,8|2,0:0|0:0,0:0:0:0:
320,94,155766,5,0,0:0:0:0:
311,96,155855,2,0,P|325:40|336:-6,1,100.050001908302,0|2,1:2|0:0,0:0:0:0:
385,282,156210,5,10,0:0:0:0:
191,137,156388,1,2,0:0:0:0:
391,275,156565,5,2,1:2:0:0:
170,371,156743,1,2,1:2:0:0:
299,136,156920,5,10,0:0:0:0:
375,375,157098,1,2,0:0:0:0:
31,265,157275,6,0,P|53:223|107:211,1,100.050001908302,2|0,1:2|1:2,0:0:0:0:
285,326,157630,1,10,0:0:0:0:
207,84,157808,2,0,P|187:187|166:299,1,200.100003816605,2|0,1:2|1:2,0:0:0:0:
376,317,158340,2,0,P|356:261|302:249,1,100.050001908302,8|0,0:0|0:0,0:0:0:0:
26,373,158695,6,0,P|103:336|241:279,2,200.100003816605,6|8|2,1:2|0:0|1:2,0:0:0:0:
265,384,159583,1,0,1:2:0:0:
83,248,159760,2,0,P|115:210|180:221,1,100.050001908302,10|0,0:0|0:0,0:0:0:0:
455,334,160115,5,2,1:2:0:0:
253,201,160293,1,8,0:0:0:0:
465,107,160470,1,10,0:0:0:0:
360,361,160648,6,0,B|321:265|321:265|346:207|403:227,1,200.100003816605,6|0,1:2|1:2,0:0:0:0:
226,338,161181,2,0,P|174:348|127:290,1,100.050001908302,8|2,0:0|0:0,0:0:0:0:
218,150,161536,5,2,1:2:0:0:
50,274,161713,2,0,P|72:212|92:163,1,100.050001908302,2|8,0:0|0:0,0:0:0:0:
55,19,162068,1,2,1:2:0:0:
46,15,162157,1,8,0:0:0:0:
38,11,162246,2,0,P|5:36|12:107,1,100.050001908302,0|2,1:2|1:2,0:0:0:0:
178,239,162601,1,10,0:0:0:0:
6,331,162778,1,2,0:0:0:0:
173,57,162956,5,2,1:2:0:0:
296,335,163133,1,10,0:0:0:0:
303,339,163222,1,8,0:0:0:0:
310,342,163311,1,10,0:0:0:0:
469,86,163488,6,0,B|434:54|376:62|352:126|392:106|350:177|294:169|258:136,1,234.900000896072,6|8,1:2|0:0,0:0:0:0:
190,159,163932,1,8,0:0:0:0:
181,155,164021,2,0,P|191:115|200:83,1,58.7250002240181,10|8,0:0|0:0,0:0:0:0:
56,273,164198,1,8,0:0:0:0:
43,271,164287,1,8,0:0:0:0:
29,271,164376,6,0,P|77:249|140:336,1,150.075002862454,6|0,1:2|0:0,0:0:0:0:
160,324,164731,2,0,P|151:260|142:207,1,100.050001908302,8|0,0:0|0:0,0:0:0:0:
35,5,165086,1,2,1:2:0:0:
227,78,165263,1,0,1:2:0:0:
18,166,165441,2,0,P|53:132|102:130,1,100.050001908302,10|0,0:0|0:0,0:0:0:0:
361,326,165796,5,2,1:2:0:0:
282,124,165973,1,0,1:2:0:0:
366,342,166151,1,10,0:0:0:0:
387,44,166328,6,0,P|357:162|336:247,1,200.100003816605,2|0,1:2|1:2,0:0:0:0:
189,357,166861,1,8,0:0:0:0:
489,293,167039,5,2,0:0:0:0:
495,297,167127,1,0,0:0:0:0:
501,302,167216,2,0,P|458:334|390:303,1,100.050001908302,0|2,1:2|0:0,0:0:0:0:
200,97,167571,5,10,0:0:0:0:
304,340,167749,1,2,0:0:0:0:
396,52,167926,5,2,1:2:0:0:
139,175,168104,1,2,1:2:0:0:
372,248,168281,5,10,0:0:0:0:
268,15,168459,1,2,0:0:0:0:
123,306,168636,6,0,P|150:265|226:272,1,100.050001908302,2|0,1:2|1:2,0:0:0:0:
26,173,168991,1,10,0:0:0:0:
215,73,169169,2,0,B|127:111|127:111|70:78|94:23,1,200.100003816605,2|0,1:2|1:2,0:0:0:0:
361,145,169701,2,0,P|412:161|467:182,1,100.050001908302,12|0,0:0|0:0,0:0:0:0:
335,312,170056,6,0,P|300:314|260:201,2,165.299995586014,6|8|10,1:2|0:0|0:0,0:0:0:0:
344,298,170944,1,0,1:2:0:0:
146,323,171121,2,0,P|107:326|76:372,1,82.649997793007,10|0,0:0|1:2,0:0:0:0:
126,82,171476,6,0,P|146:149|167:237,1,123.97499668951,10|0,0:0|0:0,0:0:0:0:
153,212,171831,1,10,0:0:0:0:
274,72,172009,1,0,1:2:0:0:
422,313,172186,5,10,0:0:0:0:
274,187,172364,1,0,1:2:0:0:
463,170,172541,5,10,0:0:0:0:
324,340,172719,1,0,1:2:0:0:
204,16,172897,6,0,P|254:20|289:77,1,100.050001908302,10|0,0:0|0:0,0:0:0:0:
126,207,173252,2,0,P|79:224|24:250,1,100.050001908302,8|0,0:0|1:2,0:0:0:0:
304,269,173607,5,8,0:0:0:0:
124,68,173784,1,0,1:2:0:0:
353,173,173962,1,8,0:0:0:0:
130,314,174139,1,0,1:2:0:0:
244,66,174317,5,8,0:0:0:0:
334,339,174494,1,0,0:0:0:0:
413,39,174672,5,8,0:0:0:0:
323,296,174849,1,0,1:2:0:0:
321,13,175027,5,8,0:0:0:0:
420,285,175204,1,2,1:2:0:0:
314,40,175382,5,10,0:0:0:0:
224,305,175559,1,2,0:0:0:0:
69,61,175737,5,0,1:2:0:0:
62,68,175914,1,0,1:2:0:0:
260,205,176092,2,0,P|245:148|230:92,1,100.050001908302,12|0,0:0|0:0,0:0:0:0:
157,321,176447,5,2,1:2:0:0:
376,169,176624,1,0,1:2:0:0:
175,42,176802,2,0,P|144:84|164:155,1,100.050001908302,12|0,0:0|0:0,0:0:0:0:
310,366,177157,5,2,1:2:0:0:
104,229,177334,1,0,1:2:0:0:
296,89,177512,2,0,P|283:137|270:185,1,100.050001908302,12|0,0:0|0:0,0:0:0:0:
186,384,177867,5,2,1:2:0:0:
375,244,178044,1,0,1:2:0:0:
109,220,178222,2,0,P|139:268|209:271,1,100.050001908302,12|0,0:0|0:0,0:0:0:0:
222,31,178577,5,2,1:2:0:0:
231,24,178755,1,0,1:2:0:0:
40,187,178932,2,0,P|26:122|11:59,1,100.050001908302,8|2,0:0|0:0,0:0:0:0:
312,174,179287,5,2,1:2:0:0:
321,181,179465,1,0,1:2:0:0:
138,5,179642,2,0,P|124:70|109:133,1,100.050001908302,8|2,0:0|0:0,0:0:0:0:
410,108,179997,5,2,1:2:0:0:
197,214,180175,1,2,1:2:0:0:
409,348,180352,1,10,0:0:0:0:
195,204,180530,6,0,B|143:173|97:220|97:220|77:282|14:262,1,200.100003816605,6|0,1:2|1:2,0:0:0:0:
288,377,181062,2,0,P|305:321|327:268,1,100.050001908302,8|2,0:0|0:0,0:0:0:0:
476,36,181417,5,2,1:2:0:0:
483,27,181595,1,0,1:2:0:0:
295,164,181772,2,0,P|244:164|205:112,1,100.050001908302,8|2,0:0|0:0,0:0:0:0:
441,298,182127,5,2,1:2:0:0:
446,307,182305,1,0,1:2:0:0:
354,17,182482,2,0,P|372:63|386:111,1,100.050001908302,8|2,0:0|0:0,0:0:0:0:
113,323,182837,5,2,1:2:0:0:
287,71,183015,1,2,1:2:0:0:
29,198,183192,1,10,0:0:0:0:
323,349,183370,1,10,1:2:0:0:
154,28,183725,5,8,0:0:0:0:
177,113,183902,1,8,0:3:0:0:
207,206,184080,1,4,0:3:0:0:
133,273,184257,6,0,P|90:269|59:357,1,147.900002820969,6|0,1:2|0:0,0:0:0:0:
67,355,184790,1,0,1:2:0:0:
231,319,184968,6,0,P|287:328|385:363,1,147.900002820969,10|0,0:0|0:0,0:0:0:0:
496,312,185500,1,10,0:0:0:0:
491,319,185589,1,8,0:0:0:0:
487,327,185678,1,2,1:2:0:0:
384,271,185855,2,0,P|351:230|407:142,1,147.900002820969,8|0,0:0|1:2,0:0:0:0:
484,89,186388,2,0,P|414:114|341:127,1,147.900002820969,8|2,0:0|0:0,0:0:0:0:
334,121,186920,1,0,1:2:0:0:
184,15,187098,6,0,P|202:73|224:172,1,147.900002820969,6|0,1:2|1:2,0:0:0:0:
214,166,187630,1,2,1:2:0:0:
83,352,187808,5,10,0:0:0:0:
181,280,187985,1,0,1:2:0:0:
77,230,188163,1,0,0:0:0:0:
203,366,188340,5,8,0:0:0:0:
213,369,188429,1,8,0:0:0:0:
222,371,188518,1,2,1:2:0:0:
402,300,188695,2,0,P|332:303|297:240,1,147.900002820969,8|2,0:0|1:2,0:0:0:0:
424,168,189228,5,8,0:0:0:0:
365,110,189405,1,2,1:2:0:0:
285,136,189583,1,10,0:3:0:0:
229,73,189760,1,4,0:3:0:0:
120,12,189938,6,0,P|107:62|73:180,1,147.900002820969,4|2,1:2|0:0,0:0:0:0:
68,156,190470,1,2,1:2:0:0:
141,228,190648,2,0,P|150:271|163:332,1,73.9500014104843,10|2,0:0|0:0,0:0:0:0:
101,367,191003,1,2,0:0:0:0:
279,320,191181,5,10,0:0:0:0:
286,326,191269,1,8,0:0:0:0:
294,330,191358,1,2,1:2:0:0:
396,253,191536,1,10,0:0:0:0:
284,172,191713,1,2,0:0:0:0:
302,159,191831,5,2,0:0:0:0:
320,149,191950,5,2,0:0:0:0:
341,135,192068,6,0,P|330:99|321:63,1,73.9500014104843,10|2,0:0|0:0,0:0:0:0:
196,274,192423,2,0,P|206:238|215:202,1,73.9500014104843,2|2,1:2|0:0,0:0:0:0:
480,338,192778,6,0,P|450:286|357:306,1,147.900002820969,2|0,1:2|0:0,0:0:0:0:
375,297,193311,1,0,1:2:0:0:
252,302,193488,2,0,P|222:354|129:334,1,147.900002820969,10|0,0:0|0:0,0:0:0:0:
41,249,194021,6,0,P|59:199|72:164,1,73.9500014104843,2|2,1:2|0:0,0:0:0:0:
144,62,194376,5,8,0:0:0:0:
208,232,194553,1,8,0:0:0:0:
288,38,194731,1,8,0:0:0:0:
395,280,194908,1,10,0:0:0:0:
473,55,195086,5,8,0:0:0:0:
476,46,195175,1,10,0:0:0:0:
479,36,195263,1,8,0:0:0:0:
265,281,195441,5,10,0:0:0:0:
268,291,195529,1,8,0:0:0:0:
271,302,195618,2,0,P|217:325|171:352,1,91.3499972122193,6|2,1:2|0:0,0:0:0:0:
386,371,195973,1,10,0:0:0:0:
199,206,196151,1,2,0:0:0:0:
377,100,196328,1,2,1:2:0:0:
361,287,196506,5,2,1:2:0:0:
355,281,196595,1,0,0:0:0:0:
350,273,196684,2,0,P|361:227|374:173,1,91.3499972122193,8|0,0:0|0:0,0:0:0:0:
153,36,197038,5,2,1:2:0:0:
161,32,197127,1,0,0:0:0:0:
168,29,197216,2,0,P|179:78|186:114,1,45.6749986061097,0|0,1:2|0:0,0:0:0:0:
175,256,197393,2,0,P|179:233|185:211,1,45.6749986061097,8|0,0:0|0:0,0:0:0:0:
39,127,197571,1,0,1:2:0:0:
39,127,197660,1,0,0:0:0:0:
39,127,197748,2,0,P|82:118|138:165,1,91.3499972122193,2|0,0:0|1:2,0:0:0:0:
190,265,198103,2,0,P|229:285|273:276,1,91.3499972122193,8|0,0:0|1:2,0:0:0:0:
338,244,198370,1,8,0:0:0:0:
346,238,198458,6,0,L|354:292,1,45.6749986061097,6|0,1:2|0:0,0:0:0:0:
431,382,198636,1,0,1:2:0:0:
437,377,198725,1,0,0:0:0:0:
442,372,198813,2,0,L|434:318,1,45.6749986061097,8|0,0:0|0:0,0:0:0:0:
504,246,198991,2,0,P|512:190|520:133,1,91.3499972122193,0|2,1:2|1:2,0:0:0:0:
383,67,199346,1,0,1:2:0:0:
375,60,199435,1,0,0:0:0:0:
364,55,199524,2,0,P|332:89|347:142,1,91.3499972122193,8|0,0:0|0:0,0:0:0:0:
406,233,199790,1,0,0:0:0:0:
397,232,199879,6,0,P|363:224|325:216,1,45.6749986061097,2|0,1:2|0:0,0:0:0:0:
231,334,200056,1,0,1:2:0:0:
222,330,200145,1,0,0:0:0:0:
212,327,200234,2,0,P|224:270|233:218,1,91.3499972122193,8|0,0:0|0:0,0:0:0:0:
106,29,200589,5,2,1:2:0:0:
68,48,200678,1,0,0:0:0:0:
51,95,200766,1,8,0:0:0:0:
71,144,200855,1,8,0:0:0:0:
122,164,200944,1,8,0:0:0:0:
180,167,201033,1,8,0:0:0:0:
221,215,201121,1,8,0:0:0:0:
204,272,201210,1,8,0:0:0:0:
155,304,201299,6,0,P|104:311|71:253,1,91.3499972122193,6|0,1:2|1:2,0:0:0:0:
22,232,201565,1,0,0:0:0:0:
18,224,201654,2,0,B|29:173|45:113,1,91.3499972122193,8|0,0:0|0:0,0:0:0:0:
307,26,202009,5,2,1:2:0:0:
316,54,202098,1,0,0:0:0:0:
325,79,202186,1,0,1:2:0:0:
330,103,202275,1,0,0:0:0:0:
338,131,202364,2,0,P|328:177|317:240,1,91.3499972122193,12|0,0:0|0:0,0:0:0:0:
269,300,202630,5,0,0:0:0:0:
260,303,202719,2,0,P|300:338|359:319,1,91.3499972122193,2|0,1:2|1:2,0:0:0:0:
471,268,203074,2,0,P|485:315|499:355,2,60.8999981414796,12|0|0,0:0|0:0|0:0,0:0:0:0:
402,213,203429,2,0,P|442:178|501:197,1,91.3499972122193,2|0,1:2|1:2,0:0:0:0:
260,338,203784,2,0,P|204:320|142:306,1,91.3499972122193,8|0,0:0|0:0,0:0:0:0:
34,123,204139,5,2,1:2:0:0:
26,118,204228,1,0,0:0:0:0:
19,113,204317,2,0,P|34:165|50:216,1,91.3499972122193,2|12,1:2|0:0,0:0:0:0:
185,139,204672,1,0,0:0:0:0:
188,131,204760,1,0,0:0:0:0:
192,123,204849,1,2,1:2:0:0:
118,315,205027,1,2,1:2:0:0:
396,270,205204,6,0,P|322:295|250:332,1,137.024995818329,14|0,0:0|0:0,0:0:0:0:
261,314,205559,1,2,1:2:0:0:
457,384,205737,1,2,1:2:0:0:
326,204,205914,2,0,P|341:142|359:88,1,91.3499972122193,12|0,0:0|0:0,0:0:0:0:
116,53,206269,5,2,1:2:0:0:
457,194,206447,1,10,0:0:0:0:
284,8,206624,1,14,1:2:0:0:
169,356,206802,1,10,1:2:0:0:
349,330,208222,5,2,0:0:0:0:
352,324,208311,1,2,0:0:0:0:
355,317,208399,2,0,B|372:275|422:278|422:278|379:238|292:232|243:327|300:292|251:401|157:363,1,395.849981879426,6|0,1:2|1:2,0:0:0:0:
82,296,209820,6,0,B|12:237|25:91|160:48|224:120|220:186|161:219|126:213,1,395.849981879426,6|2,1:2|1:2,0:0:0:0:
173,356,211240,6,0,P|147:252|74:29,1,334.950010221863,4|2,1:2|1:2,0:0:0:0:
38,150,212660,6,0,P|91:170|180:70,1,191.400005841065,6|8,1:2|0:3,0:0:0:0:
252,42,213547,1,8,0:3:0:0:
260,46,213725,2,0,P|298:60|351:65,1,71.7750021903992,4|0,0:3|0:0,0:0:0:0:
328,64,214080,6,0,P|319:110|306:226,1,147.900002820969,6|0,1:2|1:2,0:0:0:0:
367,286,214612,1,0,0:0:0:0:
374,282,214790,2,0,P|421:300|470:312,1,73.9500014104843,2|0,1:2|0:0,0:0:0:0:
329,369,215145,2,0,P|282:351|233:339,1,73.9500014104843,2|0,1:2|0:0,0:0:0:0:
155,381,215500,6,0,P|138:314|113:210,1,147.900002820969,2|2,1:2|1:2,0:0:0:0:
119,238,216033,1,2,0:0:0:0:
60,184,216210,2,0,P|70:138|77:94,1,73.9500014104843,0|0,1:2|0:0,0:0:0:0:
189,29,216565,2,0,P|179:75|172:119,1,73.9500014104843,0|2,1:2|0:0,0:0:0:0:
240,206,216920,5,2,1:2:0:0:
237,199,217098,2,0,P|279:211|332:234,1,73.9500014104843,2|0,0:0|1:2,0:0:0:0:
421,94,217453,2,0,P|379:106|326:129,1,73.9500014104843,2|0,0:0|1:2,0:0:0:0:
345,114,217808,1,2,1:2:0:0:
209,240,217985,5,10,0:0:0:0:
257,74,218163,1,2,0:0:0:0:
392,314,218340,5,6,1:2:0:0:
110,143,218518,1,2,0:0:0:0:
408,71,218695,1,10,0:0:0:0:
114,297,218873,1,6,1:2:0:0:
114,297,219228,5,8,0:0:0:0:
158,273,219317,1,8,0:0:0:0:
208,281,219405,1,10,0:0:0:0:
239,317,219494,1,8,0:0:0:0:
278,349,219583,1,8,0:0:0:0:
327,345,219672,1,8,0:0:0:0:
359,312,219760,6,0,P|363:253|280:227,1,150.075002862454,6|0,1:2|0:0,0:0:0:0:
280,219,220115,2,0,P|272:154|259:99,1,100.050001908302,8|0,0:0|0:0,0:0:0:0:
181,256,220470,1,2,1:2:0:0:
367,131,220648,1,0,1:2:0:0:
124,22,220826,2,0,P|159:66|217:55,1,100.050001908302,10|0,0:0|0:0,0:0:0:0:
380,32,221181,5,2,1:2:0:0:
154,177,221358,1,0,1:2:0:0:
407,284,221536,1,10,0:0:0:0:
260,130,221713,6,0,P|275:235|286:357,1,200.100003816605,2|0,1:2|1:2,0:0:0:0:
360,136,222246,1,8,0:0:0:0:
186,325,222423,5,2,0:0:0:0:
178,321,222512,1,0,0:0:0:0:
170,319,222601,2,0,P|122:334|63:365,1,100.050001908302,0|2,1:2|0:0,0:0:0:0:
273,190,222956,1,10,0:0:0:0:
83,71,223133,1,2,0:0:0:0:
259,32,223311,5,2,1:2:0:0:
41,192,223488,1,2,1:2:0:0:
283,314,223666,5,10,0:0:0:0:
180,65,223843,1,2,0:0:0:0:
87,318,224021,6,0,P|143:334|195:369,1,100.050001908302,2|0,1:2|1:2,0:0:0:0:
412,226,224376,1,10,0:0:0:0:
292,367,224553,2,0,B|328:302|269:255|279:301|204:235|260:167,1,200.100003816605,2|0,1:2|1:2,0:0:0:0:
437,43,225086,2,0,P|403:88|347:77,1,100.050001908302,12|0,0:0|1:2,0:0:0:0:
298,49,225352,1,8,0:0:0:0:
295,42,225441,1,6,1:2:0:0:
45,207,225796,6,0,P|108:222|193:254,1,123.97499668951,8|0,0:0|0:0,0:0:0:0:
172,241,226151,2,0,P|198:202|179:152,1,82.649997793007,10|0,0:0|1:2,0:0:0:0:
152,104,226506,1,10,0:0:0:0:
143,100,226684,1,0,1:2:0:0:
339,38,226861,6,0,P|324:92|301:192,1,123.97499668951,10|0,0:0|0:0,0:0:0:0:
301,162,227216,2,0,P|312:212|325:277,1,82.649997793007,10|0,0:0|1:2,0:0:0:0:
226,367,227571,5,10,0:0:0:0:
419,235,227749,1,0,1:2:0:0:
211,114,227926,1,10,0:0:0:0:
333,349,228104,5,0,1:2:0:0:
336,341,228192,1,0,1:2:0:0:
338,332,228281,2,0,P|327:280|312:214,1,100.050001908302,10|0,0:0|0:0,0:0:0:0:
482,25,228636,2,0,P|467:95|445:194,1,150.075002862454,8|0,0:0|0:0,0:0:0:0:
458,179,228991,5,8,0:0:0:0:
286,24,229169,1,0,1:2:0:0:
173,276,229346,1,8,0:0:0:0:
356,144,229524,1,0,1:2:0:0:
88,97,229701,5,8,0:0:0:0:
362,245,229879,1,0,0:0:0:0:
42,246,230056,5,8,0:0:0:0:
258,61,230234,1,0,1:2:0:0:
312,372,230411,5,8,0:0:0:0:
148,148,230589,1,2,1:2:0:0:
427,215,230766,5,10,0:0:0:0:
172,356,230944,1,2,0:0:0:0:
314,38,231121,5,0,1:2:0:0:
314,38,231299,1,0,1:2:0:0:
204,274,231476,2,0,P|179:218|210:162,1,100.050001908302,12|0,0:0|0:0,0:0:0:0:
463,260,231831,5,2,1:2:0:0:
267,382,232009,1,0,1:2:0:0:
290,111,232186,2,0,P|308:173|328:231,1,100.050001908302,12|0,0:0|0:0,0:0:0:0:
164,175,232541,5,2,1:2:0:0:
375,55,232719,1,0,1:2:0:0:
412,343,232897,2,0,P|360:342|318:282,1,100.050001908302,12|0,0:0|0:0,0:0:0:0:
180,48,233252,5,2,1:2:0:0:
155,301,233429,1,0,1:2:0:0:
407,171,233607,1,8,0:0:0:0:
374,159,233696,1,8,0:0:0:0:
342,147,233784,1,8,0:0:0:0:
313,136,233873,1,8,0:0:0:0:
287,123,233962,6,0,P|300:82|310:37,1,67.4250005144119,10|0,0:0|0:0,0:0:0:0:
492,315,234139,1,0,1:2:0:0:
486,302,234228,1,0,1:2:0:0:
480,288,234317,6,0,B|427:261|373:322|419:323|378:400|295:358,1,202.275001543236,6|0,1:2|0:0,0:0:0:0:
254,326,234672,5,2,1:2:0:0:
96,207,234849,1,0,1:2:0:0:
254,85,235027,1,10,0:0:0:0:
133,15,235204,5,0,1:2:0:0:
137,22,235293,1,8,0:0:0:0:
141,31,235382,1,2,1:2:0:0:
170,169,235560,1,0,1:2:0:0:
199,307,235737,1,10,0:0:0:0:
12,380,235915,6,0,P|28:313|119:309,1,150.075002862454,2|0,1:2|0:0,0:0:0:0:
101,307,236270,1,0,1:2:0:0:
297,384,236447,1,8,0:0:0:0:
259,146,236625,5,2,1:2:0:0:
252,139,236713,1,8,0:0:0:0:
245,134,236802,2,0,P|228:187|209:247,1,100.050001908302,0|2,1:2|0:0,0:0:0:0:
76,17,237157,2,0,P|106:63|169:56,1,100.050001908302,10|2,0:0|0:0,0:0:0:0:
50,207,237512,5,2,1:2:0:0:
268,83,237690,1,2,1:2:0:0:
44,200,237867,5,10,0:0:0:0:
265,324,238045,1,2,0:0:0:0:
147,67,238222,6,0,P|162:114|177:162,1,100.050001908302,2|0,1:2|1:2,0:0:0:0:
88,366,238577,1,10,0:0:0:0:
368,268,238755,2,0,B|329:207|265:234|265:234|247:295|170:273,1,200.100003816605,2|0,1:2|1:2,0:0:0:0:
0,110,239287,2,0,P|51:109|84:166,1,100.050001908302,8|0,0:0|0:0,0:0:0:0:
121,310,239642,6,0,P|140:230|174:90,2,200.100003816605,6|8|2,1:2|0:0|1:2,0:0:0:0:
109,304,240530,1,0,1:2:0:0:
302,384,240707,2,0,P|248:376|229:301,1,100.050001908302,10|0,0:0|0:0,0:0:0:0:
464,48,241062,5,2,1:2:0:0:
273,141,241240,1,8,0:0:0:0:
459,256,241418,1,10,0:0:0:0:
343,11,241595,6,0,P|361:97|389:222,1,200.100003816605,6|0,1:2|1:2,0:0:0:0:
208,330,242128,2,0,P|234:281|297:279,1,100.050001908302,8|2,0:0|0:0,0:0:0:0:
510,374,242483,5,2,1:2:0:0:
406,201,242660,2,0,P|394:264|383:324,1,100.050001908302,2|8,0:0|0:0,0:0:0:0:
254,60,243015,5,2,1:2:0:0:
246,55,243104,1,8,0:0:0:0:
237,50,243193,2,0,P|287:36|351:18,1,100.050001908302,0|2,1:2|1:2,0:0:0:0:
72,179,243548,1,10,0:0:0:0:
269,291,243725,1,2,0:0:0:0:
172,25,243903,5,2,1:2:0:0:
58,346,244080,1,10,0:0:0:0:
48,341,244169,1,8,0:0:0:0:
37,336,244258,1,10,0:0:0:0:
229,140,244435,6,0,B|281:114|319:163|314:170|308:177|344:245|414:204,1,200.100003816605,6|8,1:2|0:0,0:0:0:0:
464,182,244879,1,8,0:0:0:0:
456,178,244968,2,0,P|466:138|476:104,1,50.0250009541512,10|8,0:0|0:0,0:0:0:0:
349,25,245145,1,8,0:0:0:0:
342,19,245234,1,8,0:0:0:0:
335,12,245323,6,0,P|283:33|305:125,1,150.075002862454,6|0,1:2|0:0,0:0:0:0:
301,115,245678,2,0,P|291:172|284:231,1,100.050001908302,8|0,0:0|0:0,0:0:0:0:
114,265,246033,5,2,1:2:0:0:
249,361,246210,1,0,1:2:0:0:
117,187,246388,2,0,P|62:200|39:254,1,100.050001908302,10|0,0:0|0:0,0:0:0:0:
262,123,246743,5,2,1:2:0:0:
153,340,246920,1,0,1:2:0:0:
271,105,247098,1,10,0:0:0:0:
283,359,247276,6,0,B|242:261|242:261|264:204|321:222,1,200.100003816605,2|0,1:2|1:2,0:0:0:0:
507,295,247808,1,8,0:0:0:0:
469,102,247986,5,2,0:0:0:0:
472,96,248074,1,0,0:0:0:0:
474,89,248163,2,0,P|426:96|410:170,1,100.050001908302,0|2,1:2|0:0,0:0:0:0:
375,342,248518,5,10,0:0:0:0:
182,187,248696,1,2,0:0:0:0:
308,56,248873,5,2,1:2:0:0:
186,321,249051,1,2,1:2:0:0:
85,67,249228,5,10,0:0:0:0:
297,200,249406,1,2,0:0:0:0:
32,338,249583,6,0,P|63:298|122:303,1,100.050001908302,2|0,1:2|1:2,0:0:0:0:
325,344,249938,1,10,0:0:0:0:
198,112,250116,2,0,B|142:88|106:136|106:136|93:194|38:193,1,200.100003816605,2|0,1:2|1:2,0:0:0:0:
31,187,250560,1,0,1:2:0:0:
22,182,250648,2,0,P|70:172|113:221,1,100.050001908302,12|0,0:0|0:0,0:0:0:0:
307,359,251003,6,0,P|321:296|345:187,2,165.299995586014,6|8|10,1:2|0:0|0:0,0:0:0:0:
314,367,251891,1,0,1:2:0:0:
158,318,252068,2,0,P|185:291|245:302,1,82.649997793007,10|0,0:0|1:2,0:0:0:0:
500,367,252423,6,0,P|444:374|410:317,1,123.97499668951,10|0,0:0|0:0,0:0:0:0:
401,316,252778,2,0,P|412:266|422:213,1,82.649997793007,10|0,0:0|1:2,0:0:0:0:
412,225,253045,1,0,1:2:0:0:
405,214,253133,5,10,0:0:0:0:
354,13,253311,1,0,1:2:0:0:
188,279,253489,5,10,0:0:0:0:
260,67,253667,1,0,1:2:0:0:
403,350,253844,6,0,P|461:363|513:380,1,100.050001908302,10|0,0:0|0:0,0:0:0:0:
208,132,254199,2,0,P|264:124|296:221,1,150.075002862454,8|0,0:0|0:0,0:0:0:0:
307,197,254554,5,8,0:0:0:0:
83,290,254731,1,0,1:2:0:0:
165,46,254909,1,8,0:0:0:0:
259,313,255086,5,0,1:2:0:0:
263,323,255175,1,0,1:2:0:0:
268,335,255264,1,8,0:0:0:0:
170,66,255441,1,0,1:2:0:0:
131,384,255619,5,8,0:0:0:0:
221,127,255796,1,0,1:2:0:0:
381,354,255974,5,8,0:0:0:0:
122,204,256151,1,2,1:2:0:0:
451,145,256329,5,10,0:0:0:0:
220,295,256506,1,2,0:0:0:0:
298,22,256684,5,0,1:2:0:0:
303,32,256861,1,0,1:2:0:0:
446,247,257039,2,0,P|405:213|348:228,1,100.050001908302,12|0,0:0|0:0,0:0:0:0:
192,355,257394,5,2,1:2:0:0:
48,120,257571,1,0,1:2:0:0:
303,98,257749,2,0,P|283:159|266:222,1,100.050001908302,12|0,0:0|0:0,0:0:0:0:
67,357,258104,5,2,1:2:0:0:
332,266,258281,1,0,1:2:0:0:
147,81,258459,2,0,P|121:126|151:189,1,100.050001908302,12|0,0:0|0:0,0:0:0:0:
386,368,258814,5,2,1:2:0:0:
278,88,258991,1,0,1:2:0:0:
103,293,259169,2,0,P|173:312|239:336,1,100.050001908302,12|0,0:0|0:0,0:0:0:0:
466,243,259524,5,2,1:2:0:0:
473,250,259702,1,0,1:2:0:0:
248,132,259879,2,0,P|271:189|295:253,1,108.75,8|2,0:0|0:0,0:0:0:0:
422,58,260234,5,2,1:2:0:0:
430,50,260412,1,0,1:2:0:0:
227,317,260589,2,0,P|191:281|209:195,1,108.75,8|2,0:0|0:0,0:0:0:0:
85,332,260944,5,2,1:2:0:0:
305,150,261122,1,2,1:2:0:0:
76,46,261299,1,10,0:0:0:0:
227,322,261477,6,0,B|250:291|242:245|204:208|188:259|136:213|140:159|171:129,1,217.5,6|0,1:2|1:2,0:0:0:0:
368,12,262009,2,0,P|339:56|267:35,1,108.75,8|2,0:0|0:0,0:0:0:0:
32,185,262364,5,2,1:2:0:0:
23,182,262542,1,0,1:2:0:0:
170,9,262719,2,0,P|184:78|197:137,1,108.75,8|2,0:0|0:0,0:0:0:0:
128,358,263074,5,2,1:2:0:0:
120,351,263252,1,0,1:2:0:0:
370,163,263429,2,0,P|355:233|342:292,1,108.75,8|2,0:0|0:0,0:0:0:0:
137,163,263784,5,2,1:2:0:0:
447,306,263962,1,2,1:2:0:0:
149,384,264139,1,10,0:0:0:0:
251,45,264317,1,10,1:2:0:0:
256,53,264672,5,8,0:0:0:0:
354,360,264850,1,8,0:0:0:0:
115,114,265027,2,0,P|147:147|200:138,1,82.649997793007,2|0,1:2|0:0,0:0:0:0:
419,92,265382,5,8,0:0:0:0:
208,248,265560,1,8,0:3:0:0:
458,223,265737,2,0,P|409:205|368:189,1,82.649997793007,2|0,1:2|0:0,0:0:0:0:
137,331,266092,5,8,0:0:0:0:
307,58,266270,1,8,0:0:0:0:
289,372,266447,2,0,P|274:322|254:264,1,82.649997793007,2|0,1:2|0:0,0:0:0:0:
55,50,266802,5,8,0:0:0:0:
59,61,266891,1,8,0:0:0:0:
63,70,266980,1,8,0:0:0:0:
372,204,267157,6,0,B|317:180|253:228|310:254|241:311|165:266,1,217.5,6|0,1:2|0:0,0:0:0:0:
