osu file format v14

[General]
AudioFilename: audio1.mp3
AudioLeadIn: 0
PreviewTime: 56190
Countdown: 1
SampleSet: Soft
StackLeniency: 0.7
Mode: 0
LetterboxInBreaks: 0
WidescreenStoryboard: 1

[Editor]
Bookmarks: 28917
DistanceSpacing: 1
BeatDivisor: 2
GridSize: 4
TimelineZoom: 1

[Metadata]
Title:Kasukana Hisokana Tashikana Mirai (TV Size)
TitleUnicode:微かな密かな確かなミライ
Artist:Sphere
ArtistUnicode:スフィア
Creator:PumpkinIcedTea
Version:Normal
Source:Ryūgajō Nanana no Maizōkin
Tags:Nanana
BeatmapID:2109509
BeatmapSetID:1006782

[Difficulty]
HPDrainRate:4
CircleSize:3.5
OverallDifficulty:4
ApproachRate:5
SliderMultiplier:1
SliderTickRate:1

[Events]
//Background and Video events
0,0,"thumb-1920-565956.png",0,0
//Break Periods
//Storyboard Layer 0 (Background)
//Storyboard Layer 1 (Fail)
//Storyboard Layer 2 (Pass)
//Storyboard Layer 3 (Foreground)
//Storyboard Layer 4 (Overlay)
//Storyboard Sound Samples

[TimingPoints]
1463,363.636363636364,4,2,1,40,1,0
1463,-100,4,2,1,40,0,0
10190,-100,4,2,1,60,0,0
18917,-100,4,2,1,40,0,0
30553,-100,4,2,1,50,0,0
56735,-100,4,2,1,70,0,1
80008,-100,4,2,1,60,0,0

[Colours]
Combo1 : 166,0,166
Combo2 : 128,128,255
Combo3 : 128,0,255
Combo4 : 0,215,215

[HitObjects]
73,68,1463,6,0,P|71:125|67:199,1,100,2|0,0:0|0:0,0:0:0:0:
121,252,2190,2,0,P|224:257|239:261,1,100,8|0,0:0|0:0,0:0:0:0:
268,269,2735,1,0,0:0:0:0:
356,222,3099,2,0,P|375:282|353:318,2,100,2|2|2,0:0|0:0|0:0,0:0:0:0:
275,165,4190,6,0,P|192:181|108:148,1,150,8|0,0:0|0:0,0:0:0:0:
59,92,5099,1,0,0:0:0:0:
130,22,5463,1,0,0:0:0:0:
229,25,5826,2,0,P|299:23|341:37,2,100
206,122,6917,1,10,0:0:0:0:
228,219,7281,6,0,P|210:281|327:348,1,200
386,296,8372,1,0,0:0:0:0:
406,198,8735,2,0,L|292:149,1,100
267,138,9281,1,0,0:0:0:0:
184,81,9644,2,0,L|138:60,1,50
88,67,10008,1,8,0:0:0:0:
61,109,10190,6,0,L|-1:187,1,100,4|0,0:0|0:0,0:0:0:0:
61,253,10917,2,0,L|94:216,1,50
144,210,11281,2,0,L|180:244,1,50
214,280,11644,2,0,L|303:361,1,100,4|0,0:0|0:0,0:0:0:0:
335,363,12190,2,0,P|382:374|425:350,1,100,4|0,0:0|0:0,0:0:0:0:
456,311,12735,1,8,0:0:0:0:
437,212,13099,6,0,L|440:157,1,50,4|0,0:0|0:0,0:0:0:0:
444,111,13463,1,0,0:0:0:0:
444,61,13644,2,0,P|371:49|321:69,1,100
297,62,14190,1,0,0:0:0:0:
250,44,14372,6,0,L|103:13,1,150,4|0,0:0|0:0,0:0:0:0:
53,9,15099,2,0,L|21:125,1,100
61,199,15826,2,0,P|119:248|184:224,1,150,4|0,0:0|0:0,0:0:0:0:
226,202,16553,1,0,0:0:0:0:
316,244,16917,2,0,L|369:303,1,50
387,313,17281,1,4,0:0:0:0:
414,158,18917,6,0,L|312:116,1,100,2|0,0:0|0:0,0:0:0:0:
235,69,19644,1,0,0:0:0:0:
135,57,20008,2,0,P|97:112|117:171,1,100
134,236,20735,1,0,0:0:0:0:
186,150,21099,1,0,0:0:0:0:
283,126,21463,1,0,0:0:0:0:
382,124,21826,6,0,P|412:170|377:236,1,100,2|0,0:0|0:0,0:0:0:0:
374,307,22553,2,0,L|257:328,1,100,2|0,0:0|0:0,0:0:0:0:
175,326,23281,2,0,B|111:297|111:297|98:223|12:200,1,200
0,112,24372,1,2,0:0:0:0:
13,14,24735,6,0,P|118:16|170:89,1,200
223,171,25826,1,8,0:0:0:0:
321,152,26190,1,0,0:0:0:0:
374,236,26553,2,0,L|315:341,1,100
224,325,27281,1,0,0:0:0:0:
154,253,27644,2,2,L|221:152,1,100
235,126,28190,5,8,0:0:0:0:
283,38,28553,1,0,0:0:0:0:
370,87,28917,1,4,0:0:0:0:
394,183,29281,2,0,P|394:279|354:316,1,150
260,327,30190,1,4,0:0:0:0:
196,249,30553,6,0,P|167:201|87:185,1,100
46,125,31281,2,0,P|84:75|142:61,1,100,2|0,0:0|0:0,0:0:0:0:
167,57,31826,2,0,L|301:66,1,100,2|0,0:0|0:0,0:0:0:0:
366,74,32553,2,0,B|416:137|416:137|412:187|427:242,1,150,8|0,0:0|0:0,0:0:0:0:
364,290,33463,6,0,P|305:307|271:331,1,100,8|0,0:0|0:0,0:0:0:0:
201,259,34190,1,2,0:0:0:0:
146,175,34553,1,2,0:0:0:0:
190,85,34917,1,0,0:0:0:0:
286,49,35281,2,0,P|354:46|392:30,1,100
470,86,36008,1,2,0:0:0:0:
397,155,36372,6,0,L|269:198,1,100,8|0,0:0|0:0,0:0:0:0:
261,216,36917,2,0,P|239:268|142:291,1,150,2|2,0:0|0:0,0:0:0:0:
76,233,37826,2,0,L|56:132,1,100,8|0,0:0|0:0,0:0:0:0:
48,85,38372,1,4,0:0:0:0:
129,27,38735,2,0,L|243:22,1,100
268,53,39281,6,0,P|290:89|286:156,1,100,2|0,0:0|0:0,0:0:0:0:
298,194,39826,2,0,P|318:258|351:279,1,100
433,317,40553,1,4,0:0:0:0:
432,167,41099,1,2,0:0:0:0:
399,72,41463,2,0,P|334:57|293:63,1,100,8|0,0:0|0:0,0:0:0:0:
201,55,42190,6,0,L|105:98,1,100,4|2,0:0|0:0,0:0:0:0:
64,116,42735,1,0,0:0:0:0:
22,143,42917,2,0,P|37:198|27:248,1,100,4|0,0:0|0:0,0:0:0:0:
116,290,43644,2,0,P|186:290|230:256,1,100
254,252,44190,2,0,P|321:246|363:265,1,100,4|0,0:0|0:0,0:0:0:0:
396,276,44735,1,2,0:0:0:0:
494,295,45099,6,0,L|488:187,1,100,4|0,0:0|0:0,0:0:0:0:
466,150,45644,2,0,L|378:107,1,50,6|0,0:0|0:0,0:0:0:0:
375,107,46008,2,0,L|310:74,1,50,6|0,0:0|0:0,0:0:0:0:
282,69,46372,2,0,P|198:58|133:121,1,150,4|0,0:0|0:0,0:0:0:0:
182,187,47281,6,0,P|189:247|180:291,1,100,4|0,0:0|0:0,0:0:0:0:
172,334,47826,1,0,0:0:0:0:
172,334,48008,2,0,P|127:354|78:347,1,100,4|0,0:0|0:0,0:0:0:0:
50,305,48553,1,0,0:0:0:0:
36,256,48735,2,0,P|29:190|57:131,1,100,0|2,0:0|0:0,0:0:0:0:
107,85,49463,6,0,L|225:92,1,100,4|0,0:0|0:0,0:0:0:0:
249,116,50008,2,0,P|247:176|268:224,1,100,0|2,0:0|0:0,0:0:0:0:
286,255,50553,1,0,0:0:0:0:
334,342,50917,2,0,L|438:312,1,100,4|0,0:0|0:0,0:0:0:0:
492,235,51644,2,0,L|494:127,1,100,4|0,0:0|0:0,0:0:0:0:
490,34,52372,1,2,0:0:0:0:
391,50,52735,5,0,0:0:0:0:
292,30,53099,1,0,0:0:0:0:
237,105,53463,1,0,0:0:0:0:
309,173,53826,2,0,P|347:238|336:272,1,100,4|0,0:0|0:0,0:0:0:0:
313,298,54372,2,0,L|198:309,1,100,4|0,0:0|0:0,0:0:0:0:
163,313,54917,1,0,0:0:0:0:
113,319,55099,1,0,0:0:0:0:
36,254,55463,2,0,L|20:173,1,50
13,156,55826,1,4,0:0:0:0:
137,94,56735,6,0,P|214:106|242:90,1,100,4|0,0:0|0:0,0:0:0:0:
279,82,57281,1,0,0:0:0:0:
366,33,57644,1,2,0:0:0:0:
439,100,58008,2,0,P|452:149|427:206,1,100,4|0,0:0|0:0,0:0:0:0:
345,236,58735,2,0,L|226:257,1,100,4|0,0:0|0:0,0:0:0:0:
163,196,59463,1,2,0:0:0:0:
113,199,59644,6,0,P|84:273|136:341,1,150,4|0,0:0|0:0,0:0:0:0:
206,373,60553,1,0,0:0:0:0:
305,362,60917,1,2,0:0:0:0:
349,339,61099,2,0,B|418:299|418:299|424:236|424:229,1,150,4|0,0:0|0:0,0:0:0:0:
424,128,62008,1,0,0:0:0:0:
357,53,62372,1,2,0:0:0:0:
357,53,62553,6,0,P|267:57|222:37,1,100,4|0,0:0|0:0,0:0:0:0:
208,56,63099,2,0,P|153:69|106:132,1,100
50,167,63826,1,2,0:0:0:0:
34,214,64008,2,0,P|54:274|90:288,1,100
129,309,64553,1,0,0:0:0:0:
276,296,65099,1,4,0:0:0:0:
375,304,65463,6,0,P|404:201|398:128,1,150,2|0,0:0|0:0,0:0:0:0:
321,101,66372,2,2,L|238:102,2,50
420,88,67099,2,0,L|479:89,1,50
497,131,67463,2,0,L|505:193,1,50
501,280,68008,1,0,0:0:0:0:
436,356,68372,6,0,L|329:335,1,100,4|0,0:0|0:0,0:0:0:0:
294,311,68917,2,0,L|178:286,1,100
120,224,69644,2,0,P|80:309|149:386,1,200,4|0,0:0|0:0,0:0:0:0:
240,383,70735,1,2,0:0:0:0:
330,355,71099,1,0,0:0:0:0:
370,326,71281,6,0,P|413:296|445:252,1,100,4|0,0:0|0:0,0:0:0:0:
459,212,71826,2,0,L|468:108,1,100
403,35,72553,1,2,0:0:0:0:
403,35,72735,2,0,P|306:49|220:22,1,150,4|0,0:0|0:0,0:0:0:0:
156,40,73644,1,0,0:0:0:0:
156,40,73826,1,0,0:0:0:0:
99,123,74190,6,0,L|-31:125,1,100,4|0,0:0|0:0,0:0:0:0:
55,207,74917,2,0,L|194:205,1,100,4|0,0:0|0:0,0:0:0:0:
215,284,75644,2,0,L|96:287,1,100,4|0,0:0|0:0,0:0:0:0:
172,369,76372,2,0,L|308:364,1,100,4|0,0:0|0:0,0:0:0:0:
356,312,77099,5,2,0:0:0:0:
333,213,77463,1,0,0:0:0:0:
274,131,77826,1,2,0:0:0:0:
353,72,78190,2,0,L|415:39,1,50
442,28,78553,6,0,P|471:100|407:188,1,150,2|0,0:0|0:0,0:0:0:0:
420,207,79281,1,0,0:0:0:0:
310,309,79826,1,0,0:0:0:0:
310,309,80008,6,0,P|221:292|176:301,1,100,4|0,0:0|0:0,0:0:0:0:
162,292,80553,2,0,P|106:270|77:209,1,100,2|0,0:0|0:0,0:0:0:0:
41,147,81281,2,0,L|203:76,1,150,4|0,0:0|0:0,0:0:0:0:
226,73,82008,2,0,P|262:131|234:172,1,100,2|0,0:0|0:0,0:0:0:0:
211,246,82735,6,0,P|202:301|252:343,1,100,4|0,0:0|0:0,0:0:0:0:
276,343,83281,1,0,0:0:0:0:
326,342,83463,2,0,P|400:328|425:291,1,100
449,276,84008,1,0,0:0:0:0:
475,233,84190,1,0,0:0:0:0:
256,192,84372,12,0,87281,0:0:0:0:
