osu file format v14

[General]
AudioFilename: audio.mp3
AudioLeadIn: 0
PreviewTime: -1
Countdown: 1
SampleSet: None
StackLeniency: 0.7
Mode: 3
LetterboxInBreaks: 0
SpecialStyle: 0
WidescreenStoryboard: 0

[Editor]
DistanceSpacing: 1.9
BeatDivisor: 4
GridSize: 8
TimelineZoom: 1

[Metadata]
Title:Da Kvelden Sa Stopp
TitleUnicode:Da Kvelden Sa Stopp
Artist:Spelloppmaker
ArtistUnicode:Spelloppmaker
Creator:prebert123
Version:Moderat
Source:HBE
Tags:Spelloppmaker
BeatmapID:1927415
BeatmapSetID:922985

[Difficulty]
HPDrainRate:5
CircleSize:4
OverallDifficulty:4
ApproachRate:5
SliderMultiplier:1.4
SliderTickRate:1

[Events]
//Background and Video events
0,0,"zx.jpg",0,0
//Break Periods
//Storyboard Layer 0 (Background)
//Storyboard Layer 1 (Fail)
//Storyboard Layer 2 (Pass)
//Storyboard Layer 3 (Foreground)
//Storyboard Sound Samples

[TimingPoints]
8982.0638107519,458.014295037184,4,1,0,100,1,0
258141,-10,4,1,0,100,0,0
258256,-133.333333333333,4,1,0,100,0,0
258370,-10,4,1,0,100,0,0
258485,-133.333333333333,4,1,0,100,0,0
258599,-10,4,1,0,100,0,0
258714,-133.333333333333,4,1,0,100,0,0
258828,-10,4,1,0,100,0,0
258943,-133.333333333333,4,1,0,100,0,0
259057,-10,4,1,0,100,0,0
259172,-133.333333333333,4,1,0,100,0,0
259286,-10,4,1,0,100,0,0
259401,-133.333333333333,4,1,0,100,0,0
259515,-10,4,1,0,100,0,0
259630,-133.333333333333,4,1,0,100,0,0
259744,-10,4,1,0,100,0,0
259859,-133.333333333333,4,1,0,100,0,0

[HitObjects]
320,192,737,5,8,0:0:0:0:
448,192,737,1,8,0:0:0:0:
64,192,966,1,0,0:0:0:0:
192,192,966,1,0,0:0:0:0:
320,192,1081,1,0,0:0:0:0:
448,192,1195,1,8,0:0:0:0:
192,192,1195,1,8,0:0:0:0:
320,192,1424,1,0,0:0:0:0:
64,192,1424,1,0,0:0:0:0:
192,192,1539,1,0,0:0:0:0:
320,192,1653,1,8,0:0:0:0:
448,192,1653,1,8,0:0:0:0:
192,192,1882,1,0,0:0:0:0:
64,192,2111,1,2,0:0:0:0:
320,192,2111,1,2,0:0:0:0:
192,192,2340,1,0,0:0:0:0:
320,192,2569,1,8,0:0:0:0:
448,192,2569,1,8,0:0:0:0:
320,192,2798,1,0,0:0:0:0:
64,192,3027,1,4,0:0:0:0:
192,192,3027,1,4,0:0:0:0:
320,192,3256,1,0,0:0:0:0:
448,192,3485,1,0,0:0:0:0:
192,192,3485,1,0,0:0:0:0:
64,192,3600,1,0,0:0:0:0:
320,192,3714,1,0,0:0:0:0:
192,192,3943,1,2,0:0:0:0:
448,192,4172,1,0,0:0:0:0:
320,192,4172,1,0,0:0:0:0:
64,192,4401,1,4,0:0:0:0:
64,192,4630,1,8,0:0:0:0:
192,192,4630,1,8,0:0:0:0:
320,192,4745,1,0,0:0:0:0:
448,192,4859,1,0,0:0:0:0:
64,192,4974,1,0,0:0:0:0:
192,192,5088,1,0,0:0:0:0:
320,192,5203,1,0,0:0:0:0:
448,192,5317,1,8,0:0:0:0:
64,192,5317,1,8,0:0:0:0:
192,192,5546,1,0,0:0:0:0:
320,192,5775,1,0,0:0:0:0:
64,192,5775,1,0,0:0:0:0:
448,192,6004,1,0,0:0:0:0:
192,192,6233,1,0,0:0:0:0:
320,192,6233,1,0,0:0:0:0:
64,192,6462,1,0,0:0:0:0:
192,192,6577,1,0,0:0:0:0:
448,192,6691,1,8,0:0:0:0:
320,192,6691,1,8,0:0:0:0:
192,192,6806,1,0,0:0:0:0:
64,192,6920,1,0,0:0:0:0:
320,192,7150,1,0,0:0:0:0:
448,192,7150,1,0,0:0:0:0:
320,192,7379,1,0,0:0:0:0:
320,192,7608,1,8,0:0:0:0:
64,192,7608,1,8,0:0:0:0:
192,192,7837,1,0,0:0:0:0:
320,192,8066,1,0,0:0:0:0:
448,192,8066,1,0,0:0:0:0:
192,192,8295,1,0,0:0:0:0:
64,192,8524,1,8,0:0:0:0:
448,192,8524,1,8,0:0:0:0:
320,192,8753,1,0,0:0:0:0:
192,192,8753,1,0,0:0:0:0:
64,192,8982,1,0,0:0:0:0:
320,192,8982,1,0,0:0:0:0:
448,192,8982,1,0,0:0:0:0:
192,192,9440,1,8,0:0:0:0:
64,192,9440,1,8,0:0:0:0:
320,192,9669,1,0,0:0:0:0:
448,192,9898,1,0,0:0:0:0:
192,192,9898,1,0,0:0:0:0:
64,192,10127,1,0,0:0:0:0:
192,192,10241,1,0,0:0:0:0:
320,192,10356,1,8,0:0:0:0:
448,192,10356,1,8,0:0:0:0:
64,192,10470,1,0,0:0:0:0:
192,192,10585,1,0,0:0:0:0:
448,192,10699,1,0,0:0:0:0:
320,192,10814,1,0,0:0:0:0:
64,192,10814,1,0,0:0:0:0:
192,192,10928,1,0,0:0:0:0:
320,192,11043,1,0,0:0:0:0:
448,192,11043,1,0,0:0:0:0:
64,192,11272,1,8,0:0:0:0:
192,192,11272,1,8,0:0:0:0:
320,192,11501,1,0,0:0:0:0:
192,192,11501,1,0,0:0:0:0:
448,192,11730,1,0,0:0:0:0:
64,192,11959,1,0,0:0:0:0:
192,192,11959,1,0,0:0:0:0:
320,192,12073,1,0,0:0:0:0:
192,192,12188,1,8,0:0:0:0:
320,192,12302,1,0,0:0:0:0:
448,192,12302,1,0,0:0:0:0:
192,192,12417,1,0,0:0:0:0:
320,192,12531,1,0,0:0:0:0:
192,192,12646,1,0,0:0:0:0:
448,192,12646,1,0,0:0:0:0:
64,192,12875,1,0,0:0:0:0:
320,192,13104,1,8,0:0:0:0:
192,192,13104,1,8,0:0:0:0:
320,192,13333,1,0,0:0:0:0:
64,192,13562,1,0,0:0:0:0:
448,192,13562,1,0,0:0:0:0:
192,192,13791,1,0,0:0:0:0:
64,192,13905,1,0,0:0:0:0:
320,192,14020,1,8,0:0:0:0:
448,192,14020,1,8,0:0:0:0:
192,192,14134,1,0,0:0:0:0:
320,192,14249,1,0,0:0:0:0:
448,192,14363,1,0,0:0:0:0:
64,192,14478,1,0,0:0:0:0:
192,192,14478,1,0,0:0:0:0:
320,192,14592,1,0,0:0:0:0:
448,192,14707,1,0,0:0:0:0:
192,192,14936,1,0,0:0:0:0:
320,192,15050,1,0,0:0:0:0:
448,192,15165,1,0,0:0:0:0:
64,192,15394,1,0,0:0:0:0:
192,192,15508,1,0,0:0:0:0:
320,192,15623,1,0,0:0:0:0:
448,192,15852,1,0,0:0:0:0:
320,192,15966,1,0,0:0:0:0:
192,192,16081,1,0,0:0:0:0:
64,192,16195,1,0,0:0:0:0:
192,192,16310,1,12,0:0:0:0:
64,192,16310,1,12,0:0:0:0:
320,192,16539,1,0,0:0:0:0:
64,192,16539,1,0,0:0:0:0:
192,192,16653,1,0,0:0:0:0:
320,192,16768,1,0,0:0:0:0:
448,192,16997,1,0,0:0:0:0:
192,192,16997,1,0,0:0:0:0:
320,192,17226,1,12,0:0:0:0:
192,192,17226,1,12,0:0:0:0:
64,192,17455,1,0,0:0:0:0:
448,192,17455,1,0,0:0:0:0:
192,192,17569,1,0,0:0:0:0:
320,192,17684,1,0,0:0:0:0:
64,192,17913,1,0,0:0:0:0:
192,192,17913,1,0,0:0:0:0:
448,192,18027,1,0,0:0:0:0:
192,192,18142,1,12,0:0:0:0:
320,192,18371,1,0,0:0:0:0:
64,192,18600,1,0,0:0:0:0:
448,192,18714,1,0,0:0:0:0:
320,192,18829,1,0,0:0:0:0:
192,192,19058,1,12,0:0:0:0:
64,192,19058,1,12,0:0:0:0:
320,192,19287,1,0,0:0:0:0:
192,192,19401,1,0,0:0:0:0:
64,192,19516,1,0,0:0:0:0:
448,192,19516,1,0,0:0:0:0:
320,192,19745,1,0,0:0:0:0:
192,192,19745,128,0,20203:0:0:0:0:
64,192,19974,1,12,0:0:0:0:
448,192,20203,128,0,20661:0:0:0:0:
192,192,20432,1,0,0:0:0:0:
64,192,20661,128,0,21119:0:0:0:0:
320,192,20661,1,0,0:0:0:0:
192,192,20890,1,12,0:0:0:0:
320,192,21119,128,0,21577:0:0:0:0:
448,192,21119,1,0,0:0:0:0:
192,192,21348,128,0,21577:0:0:0:0:
64,192,21577,128,0,22722:0:0:0:0:
448,192,21577,1,0,0:0:0:0:
192,192,21806,1,12,0:0:0:0:
320,192,21920,1,0,0:0:0:0:
448,192,22035,1,0,0:0:0:0:
192,192,22264,1,0,0:0:0:0:
320,192,22264,1,0,0:0:0:0:
448,192,22493,1,0,0:0:0:0:
320,192,22493,1,0,0:0:0:0:
320,192,22722,1,12,0:0:0:0:
192,192,22722,1,12,0:0:0:0:
192,192,22951,1,0,0:0:0:0:
320,192,23066,1,0,0:0:0:0:
192,192,23180,1,0,0:0:0:0:
192,192,23409,1,0,0:0:0:0:
320,192,23524,1,0,0:0:0:0:
192,192,23638,1,12,0:0:0:0:
448,192,23638,1,12,0:0:0:0:
64,192,23867,1,0,0:0:0:0:
192,192,23867,1,0,0:0:0:0:
448,192,24096,1,0,0:0:0:0:
320,192,24211,1,0,0:0:0:0:
192,192,24325,1,0,0:0:0:0:
64,192,24554,1,12,0:0:0:0:
320,192,24554,1,12,0:0:0:0:
192,192,24783,1,0,0:0:0:0:
320,192,25012,1,0,0:0:0:0:
64,192,25012,1,0,0:0:0:0:
192,192,25241,1,0,0:0:0:0:
448,192,25241,1,0,0:0:0:0:
320,192,25470,1,12,0:0:0:0:
448,192,25470,1,12,0:0:0:0:
320,192,25585,1,0,0:0:0:0:
192,192,25699,1,0,0:0:0:0:
448,192,25928,1,0,0:0:0:0:
320,192,25928,128,0,26157:0:0:0:0:
64,192,26157,1,0,0:0:0:0:
192,192,26157,128,0,26501:0:0:0:0:
448,192,26386,1,12,0:0:0:0:
320,192,26386,1,12,0:0:0:0:
192,192,26615,128,0,27302:0:0:0:0:
64,192,26844,1,0,0:0:0:0:
320,192,27073,128,0,27760:0:0:0:0:
448,192,27302,1,12,0:0:0:0:
192,192,27531,1,0,0:0:0:0:
64,192,27531,1,0,0:0:0:0:
192,192,27760,128,0,27989:0:0:0:0:
64,192,27989,128,0,28676:0:0:0:0:
448,192,28218,1,12,0:0:0:0:
320,192,28333,1,0,0:0:0:0:
192,192,28447,1,0,0:0:0:0:
192,192,28676,128,0,29363:0:0:0:0:
448,192,28905,1,0,0:0:0:0:
64,192,29134,1,12,0:0:0:0:
320,192,29134,1,12,0:0:0:0:
320,192,29363,128,0,29592:0:0:0:0:
448,192,29592,128,0,29821:0:0:0:0:
192,192,29821,128,0,30050:0:0:0:0:
64,192,30050,1,12,0:0:0:0:
192,192,30165,1,0,0:0:0:0:
320,192,30279,1,0,0:0:0:0:
192,192,30394,1,0,0:0:0:0:
448,192,30508,1,0,0:0:0:0:
64,192,30623,1,0,0:0:0:0:
192,192,30737,1,0,0:0:0:0:
320,192,30852,1,0,0:0:0:0:
448,192,30966,1,12,0:0:0:0:
64,192,30966,1,12,0:0:0:0:
192,192,30966,1,12,0:0:0:0:
320,192,31195,1,0,0:0:0:0:
448,192,31310,1,0,0:0:0:0:
64,192,31424,1,0,0:0:0:0:
192,192,31653,1,0,0:0:0:0:
320,192,31653,1,0,0:0:0:0:
320,192,31882,1,12,0:0:0:0:
192,192,31882,1,12,0:0:0:0:
64,192,32111,1,0,0:0:0:0:
448,192,32111,128,0,32340:0:0:0:0:
192,192,32340,128,0,32569:0:0:0:0:
320,192,32569,128,0,32798:0:0:0:0:
64,192,32798,128,12,33027:0:0:0:0:
320,192,32913,1,0,0:0:0:0:
448,192,33027,128,0,33256:0:0:0:0:
192,192,33027,1,0,0:0:0:0:
320,192,33256,128,0,33485:0:0:0:0:
448,192,33485,128,0,33714:0:0:0:0:
64,192,33714,128,12,33943:0:0:0:0:
192,192,33943,1,0,0:0:0:0:
320,192,33943,128,0,34401:0:0:0:0:
64,192,34172,1,0,0:0:0:0:
192,192,34401,1,0,0:0:0:0:
448,192,34401,128,0,34859:0:0:0:0:
64,192,34630,1,12,0:0:0:0:
320,192,34859,128,0,35088:0:0:0:0:
192,192,35088,128,0,35317:0:0:0:0:
64,192,35317,128,0,35775:0:0:0:0:
448,192,35546,1,12,0:0:0:0:
320,192,35775,128,0,36004:0:0:0:0:
192,192,36004,128,0,36233:0:0:0:0:
448,192,36233,128,0,36462:0:0:0:0:
64,192,36462,1,12,0:0:0:0:
192,192,36462,1,12,0:0:0:0:
448,192,36691,1,0,0:0:0:0:
192,192,36691,1,0,0:0:0:0:
320,192,36806,1,0,0:0:0:0:
192,192,36920,1,0,0:0:0:0:
64,192,36920,1,0,0:0:0:0:
448,192,37149,128,0,37378:0:0:0:0:
64,192,37149,1,0,0:0:0:0:
320,192,37378,128,12,37607:0:0:0:0:
192,192,37607,128,0,37836:0:0:0:0:
64,192,37836,128,0,38065:0:0:0:0:
192,192,38065,1,0,0:0:0:0:
320,192,38180,1,0,0:0:0:0:
448,192,38294,1,12,0:0:0:0:
64,192,38294,1,12,0:0:0:0:
64,192,38523,1,0,0:0:0:0:
192,192,38523,1,0,0:0:0:0:
448,192,38752,1,0,0:0:0:0:
320,192,38752,1,0,0:0:0:0:
192,192,38867,1,0,0:0:0:0:
64,192,38982,1,0,0:0:0:0:
320,192,39211,1,12,0:0:0:0:
448,192,39440,1,0,0:0:0:0:
192,192,39440,1,0,0:0:0:0:
448,192,39669,1,0,0:0:0:0:
192,192,39669,1,0,0:0:0:0:
320,192,39898,1,0,0:0:0:0:
64,192,39898,1,0,0:0:0:0:
320,192,40127,1,12,0:0:0:0:
192,192,40127,1,12,0:0:0:0:
192,192,40356,1,0,0:0:0:0:
320,192,40356,1,0,0:0:0:0:
448,192,40585,1,0,0:0:0:0:
192,192,40585,1,0,0:0:0:0:
64,192,40699,1,0,0:0:0:0:
320,192,40699,1,0,0:0:0:0:
192,192,40814,1,0,0:0:0:0:
448,192,40814,1,0,0:0:0:0:
64,192,41043,1,12,0:0:0:0:
192,192,41043,1,12,0:0:0:0:
320,192,41272,1,0,0:0:0:0:
192,192,41272,1,0,0:0:0:0:
448,192,41501,1,0,0:0:0:0:
320,192,41501,1,0,0:0:0:0:
64,192,41730,128,0,42417:0:0:0:0:
192,192,41730,128,0,42073:0:0:0:0:
320,192,41959,1,12,0:0:0:0:
448,192,41959,1,12,0:0:0:0:
320,192,42188,1,0,0:0:0:0:
448,192,42417,128,0,42646:0:0:0:0:
192,192,42417,1,0,0:0:0:0:
320,192,42646,128,0,43104:0:0:0:0:
64,192,42646,1,0,0:0:0:0:
192,192,42875,1,12,0:0:0:0:
192,192,43104,128,0,43562:0:0:0:0:
448,192,43104,1,0,0:0:0:0:
320,192,43333,1,0,0:0:0:0:
64,192,43562,128,0,43791:0:0:0:0:
448,192,43791,1,12,0:0:0:0:
320,192,43791,1,12,0:0:0:0:
448,192,44020,128,0,44134:0:0:0:0:
320,192,44134,128,0,44249:0:0:0:0:
192,192,44249,1,12,0:0:0:0:
64,192,44249,1,12,0:0:0:0:
448,192,44478,1,0,0:0:0:0:
320,192,44478,1,0,0:0:0:0:
192,192,44592,1,0,0:0:0:0:
64,192,44707,1,12,0:0:0:0:
64,192,44936,1,0,0:0:0:0:
192,192,44936,1,0,0:0:0:0:
320,192,45050,1,0,0:0:0:0:
448,192,45165,1,8,0:0:0:0:
64,192,45279,1,0,0:0:0:0:
320,192,45394,1,8,0:0:0:0:
448,192,45394,1,8,0:0:0:0:
64,192,45508,1,0,0:0:0:0:
320,192,45623,1,8,0:0:0:0:
448,192,45623,1,8,0:0:0:0:
192,192,45623,1,8,0:0:0:0:
448,192,45966,1,8,0:0:0:0:
320,192,45966,1,8,0:0:0:0:
448,192,46310,1,8,0:0:0:0:
320,192,46310,1,8,0:0:0:0:
64,192,46539,1,0,0:0:0:0:
192,192,46768,1,0,0:0:0:0:
320,192,46997,1,0,0:0:0:0:
448,192,47226,1,0,0:0:0:0:
64,192,47455,1,8,0:0:0:0:
192,192,47455,1,8,0:0:0:0:
320,192,47684,1,2,0:0:0:0:
192,192,47798,1,8,0:0:0:0:
64,192,47798,1,8,0:0:0:0:
448,192,48027,1,2,0:0:0:0:
192,192,48142,1,8,0:0:0:0:
64,192,48142,1,8,0:0:0:0:
320,192,48371,1,0,0:0:0:0:
448,192,48371,1,0,0:0:0:0:
192,192,48600,1,4,0:0:0:0:
64,192,48600,1,4,0:0:0:0:
192,192,48829,1,4,0:0:0:0:
64,192,48829,1,4,0:0:0:0:
192,192,49058,1,0,0:0:0:0:
320,192,49058,1,0,0:0:0:0:
64,192,49287,1,4,0:0:0:0:
448,192,49287,128,0,52951:0:0:0:0:
320,192,49516,1,0,0:0:0:0:
192,192,49630,1,0,0:0:0:0:
64,192,49745,1,8,0:0:0:0:
192,192,49974,1,4,0:0:0:0:
320,192,49974,1,4,0:0:0:0:
64,192,50203,1,8,0:0:0:0:
192,192,50203,1,8,0:0:0:0:
320,192,50432,1,0,0:0:0:0:
192,192,50661,1,8,0:0:0:0:
64,192,50890,1,0,0:0:0:0:
320,192,51119,128,8,51348:0:0:0:0:
192,192,51348,128,0,51577:0:0:0:0:
64,192,51577,128,8,51806:0:0:0:0:
192,192,51806,128,0,52035:0:0:0:0:
320,192,52035,128,8,52264:0:0:0:0:
192,192,52264,128,0,52493:0:0:0:0:
64,192,52493,128,8,52722:0:0:0:0:
192,192,52722,128,0,52951:0:0:0:0:
320,192,52951,1,8,0:0:0:0:
64,192,52951,1,8,0:0:0:0:
320,192,53294,1,8,0:0:0:0:
64,192,53294,1,8,0:0:0:0:
64,192,53638,1,8,0:0:0:0:
320,192,53638,1,8,0:0:0:0:
192,192,53638,128,0,53867:0:0:0:0:
448,192,53867,128,0,54096:0:0:0:0:
320,192,54096,128,0,54554:0:0:0:0:
192,192,54325,1,0,0:0:0:0:
64,192,54325,1,0,0:0:0:0:
192,192,54554,128,0,54783:0:0:0:0:
64,192,54554,128,0,54783:0:0:0:0:
448,192,54783,1,8,0:0:0:0:
320,192,54783,1,8,0:0:0:0:
192,192,55012,1,0,0:0:0:0:
320,192,55127,1,8,0:0:0:0:
448,192,55127,1,8,0:0:0:0:
64,192,55356,1,0,0:0:0:0:
320,192,55470,1,8,0:0:0:0:
448,192,55470,1,8,0:0:0:0:
192,192,55699,1,0,0:0:0:0:
64,192,55699,1,0,0:0:0:0:
320,192,55928,1,0,0:0:0:0:
192,192,55928,1,0,0:0:0:0:
320,192,56157,1,0,0:0:0:0:
448,192,56157,1,0,0:0:0:0:
320,192,56386,1,0,0:0:0:0:
192,192,56386,1,0,0:0:0:0:
192,192,56615,1,8,0:0:0:0:
64,192,56615,1,8,0:0:0:0:
320,192,56615,1,8,0:0:0:0:
448,192,56844,1,8,0:0:0:0:
192,192,56844,1,8,0:0:0:0:
64,192,56844,1,8,0:0:0:0:
448,192,57073,1,8,0:0:0:0:
320,192,57073,1,8,0:0:0:0:
64,192,57073,1,8,0:0:0:0:
192,192,57302,1,8,0:0:0:0:
320,192,57302,1,8,0:0:0:0:
448,192,57302,1,8,0:0:0:0:
320,192,57531,1,8,0:0:0:0:
64,192,57531,1,8,0:0:0:0:
448,192,57531,1,8,0:0:0:0:
192,192,57760,1,8,0:0:0:0:
64,192,57760,1,8,0:0:0:0:
448,192,57760,1,8,0:0:0:0:
320,192,57989,1,8,0:0:0:0:
192,192,57989,1,8,0:0:0:0:
64,192,57989,1,8,0:0:0:0:
448,192,58218,1,8,0:0:0:0:
320,192,58218,1,8,0:0:0:0:
64,192,58447,1,8,0:0:0:0:
192,192,58447,1,8,0:0:0:0:
448,192,58676,1,8,0:0:0:0:
320,192,58676,1,8,0:0:0:0:
192,192,58905,1,8,0:0:0:0:
64,192,58905,1,8,0:0:0:0:
320,192,59134,1,8,0:0:0:0:
192,192,59134,1,8,0:0:0:0:
64,192,59363,1,8,0:0:0:0:
192,192,59478,1,8,0:0:0:0:
320,192,59592,1,8,0:0:0:0:
448,192,59707,1,8,0:0:0:0:
64,192,59821,1,8,0:0:0:0:
192,192,59936,1,8,0:0:0:0:
320,192,60050,1,8,0:0:0:0:
64,192,60165,1,0,0:0:0:0:
192,192,60279,1,8,0:0:0:0:
448,192,60279,1,8,0:0:0:0:
320,192,60394,1,0,0:0:0:0:
64,192,60508,1,0,0:0:0:0:
192,192,60623,1,0,0:0:0:0:
320,192,60737,1,8,0:0:0:0:
448,192,60737,1,8,0:0:0:0:
64,192,60852,1,0,0:0:0:0:
320,192,60966,1,0,0:0:0:0:
192,192,61081,1,0,0:0:0:0:
448,192,61195,1,8,0:0:0:0:
64,192,61195,1,8,0:0:0:0:
192,192,61310,1,0,0:0:0:0:
320,192,61424,1,0,0:0:0:0:
64,192,61539,1,0,0:0:0:0:
192,192,61653,1,8,0:0:0:0:
448,192,61653,1,8,0:0:0:0:
320,192,61768,1,0,0:0:0:0:
192,192,61882,1,0,0:0:0:0:
64,192,61997,1,0,0:0:0:0:
320,192,62111,1,8,0:0:0:0:
448,192,62111,1,8,0:0:0:0:
192,192,62226,1,0,0:0:0:0:
320,192,62340,1,0,0:0:0:0:
448,192,62455,1,0,0:0:0:0:
320,192,62569,1,8,0:0:0:0:
192,192,62569,1,8,0:0:0:0:
64,192,62684,1,0,0:0:0:0:
448,192,62798,1,0,0:0:0:0:
192,192,62913,1,0,0:0:0:0:
64,192,63027,1,8,0:0:0:0:
320,192,63027,1,8,0:0:0:0:
192,192,63142,1,0,0:0:0:0:
320,192,63256,1,8,0:0:0:0:
448,192,63371,1,0,0:0:0:0:
192,192,63485,1,8,0:0:0:0:
64,192,63485,1,8,0:0:0:0:
320,192,63600,1,0,0:0:0:0:
192,192,63714,1,8,0:0:0:0:
64,192,63829,1,0,0:0:0:0:
320,192,63943,1,8,0:0:0:0:
192,192,63943,1,8,0:0:0:0:
448,192,64058,1,0,0:0:0:0:
64,192,64172,1,0,0:0:0:0:
192,192,64287,1,0,0:0:0:0:
320,192,64401,1,8,0:0:0:0:
448,192,64401,1,8,0:0:0:0:
192,192,64516,1,0,0:0:0:0:
64,192,64630,1,0,0:0:0:0:
320,192,64745,1,0,0:0:0:0:
192,192,64859,1,8,0:0:0:0:
448,192,64859,1,8,0:0:0:0:
64,192,64974,1,0,0:0:0:0:
320,192,65088,1,0,0:0:0:0:
192,192,65203,1,0,0:0:0:0:
64,192,65317,1,8,0:0:0:0:
448,192,65317,1,8,0:0:0:0:
192,192,65432,1,0,0:0:0:0:
320,192,65546,1,0,0:0:0:0:
448,192,65661,1,0,0:0:0:0:
320,192,65775,1,8,0:0:0:0:
192,192,65775,1,8,0:0:0:0:
448,192,65890,1,0,0:0:0:0:
64,192,66004,1,0,0:0:0:0:
448,192,66119,1,0,0:0:0:0:
320,192,66233,1,8,0:0:0:0:
64,192,66233,1,8,0:0:0:0:
192,192,66348,1,0,0:0:0:0:
320,192,66462,1,0,0:0:0:0:
448,192,66577,1,0,0:0:0:0:
64,192,66691,1,8,0:0:0:0:
320,192,66691,1,8,0:0:0:0:
192,192,66806,1,0,0:0:0:0:
64,192,66920,1,8,0:0:0:0:
448,192,66920,1,8,0:0:0:0:
320,192,67035,1,0,0:0:0:0:
192,192,67149,1,8,0:0:0:0:
448,192,67149,1,8,0:0:0:0:
320,192,67264,1,0,0:0:0:0:
64,192,67378,1,8,0:0:0:0:
192,192,67378,1,8,0:0:0:0:
320,192,67493,1,0,0:0:0:0:
448,192,67607,1,8,0:0:0:0:
192,192,67607,1,8,0:0:0:0:
64,192,67607,1,8,0:0:0:0:
320,192,67722,1,0,0:0:0:0:
192,192,67836,1,0,0:0:0:0:
64,192,67951,1,0,0:0:0:0:
320,192,68065,1,8,0:0:0:0:
448,192,68065,1,8,0:0:0:0:
192,192,68180,1,0,0:0:0:0:
320,192,68294,1,0,0:0:0:0:
64,192,68409,1,0,0:0:0:0:
192,192,68523,1,8,0:0:0:0:
320,192,68523,1,8,0:0:0:0:
448,192,68638,1,0,0:0:0:0:
320,192,68752,1,0,0:0:0:0:
448,192,68867,1,0,0:0:0:0:
192,192,68981,1,8,0:0:0:0:
64,192,68981,1,8,0:0:0:0:
320,192,69096,1,0,0:0:0:0:
192,192,69210,1,0,0:0:0:0:
64,192,69325,1,0,0:0:0:0:
320,192,69439,1,8,0:0:0:0:
448,192,69439,1,8,0:0:0:0:
192,192,69554,1,0,0:0:0:0:
448,192,69668,1,0,0:0:0:0:
64,192,69783,1,0,0:0:0:0:
192,192,69897,1,8,0:0:0:0:
320,192,69897,1,8,0:0:0:0:
448,192,70012,1,0,0:0:0:0:
64,192,70126,1,0,0:0:0:0:
192,192,70241,1,0,0:0:0:0:
320,192,70355,1,8,0:0:0:0:
448,192,70355,1,8,0:0:0:0:
192,192,70470,1,0,0:0:0:0:
320,192,70584,1,0,0:0:0:0:
192,192,70699,1,0,0:0:0:0:
64,192,70813,1,8,0:0:0:0:
320,192,70813,1,8,0:0:0:0:
448,192,70928,1,0,0:0:0:0:
448,192,71043,1,0,0:0:0:0:
192,192,71157,1,0,0:0:0:0:
320,192,71272,1,8,0:0:0:0:
64,192,71272,1,8,0:0:0:0:
192,192,71386,1,0,0:0:0:0:
320,192,71501,1,0,0:0:0:0:
448,192,71615,1,0,0:0:0:0:
320,192,71730,1,8,0:0:0:0:
192,192,71730,1,8,0:0:0:0:
448,192,71844,1,0,0:0:0:0:
192,192,71959,1,0,0:0:0:0:
320,192,72073,1,0,0:0:0:0:
192,192,72188,1,8,0:0:0:0:
64,192,72188,1,8,0:0:0:0:
320,192,72302,1,0,0:0:0:0:
192,192,72417,1,0,0:0:0:0:
64,192,72531,1,0,0:0:0:0:
320,192,72646,1,8,0:0:0:0:
448,192,72646,1,8,0:0:0:0:
192,192,72760,1,0,0:0:0:0:
320,192,72875,1,0,0:0:0:0:
64,192,72989,1,0,0:0:0:0:
192,192,73104,1,8,0:0:0:0:
448,192,73104,1,8,0:0:0:0:
320,192,73218,1,0,0:0:0:0:
448,192,73333,1,0,0:0:0:0:
64,192,73447,1,0,0:0:0:0:
320,192,73562,1,8,0:0:0:0:
448,192,73562,1,8,0:0:0:0:
192,192,73676,1,0,0:0:0:0:
448,192,73791,1,0,0:0:0:0:
64,192,73905,1,0,0:0:0:0:
192,192,74020,1,8,0:0:0:0:
320,192,74020,1,8,0:0:0:0:
64,192,74134,1,0,0:0:0:0:
192,192,74249,1,8,0:0:0:0:
320,192,74363,1,0,0:0:0:0:
192,192,74478,1,8,0:0:0:0:
64,192,74478,1,8,0:0:0:0:
448,192,74592,1,0,0:0:0:0:
320,192,74707,1,6,0:0:0:0:
192,192,74821,1,0,0:0:0:0:
320,192,74936,1,8,0:0:0:0:
64,192,74936,1,8,0:0:0:0:
448,192,75165,1,0,0:0:0:0:
192,192,75165,1,0,0:0:0:0:
320,192,75394,1,8,0:0:0:0:
192,192,75508,1,0,0:0:0:0:
320,192,75623,1,0,0:0:0:0:
64,192,75852,1,8,0:0:0:0:
192,192,75852,1,8,0:0:0:0:
320,192,75966,1,0,0:0:0:0:
448,192,76081,1,0,0:0:0:0:
192,192,76195,1,0,0:0:0:0:
64,192,76310,1,8,0:0:0:0:
320,192,76310,1,8,0:0:0:0:
192,192,76424,1,0,0:0:0:0:
320,192,76539,1,0,0:0:0:0:
448,192,76653,1,0,0:0:0:0:
320,192,76768,1,8,0:0:0:0:
64,192,76768,1,8,0:0:0:0:
192,192,76882,1,0,0:0:0:0:
448,192,76997,1,0,0:0:0:0:
320,192,77111,1,0,0:0:0:0:
192,192,77226,1,8,0:0:0:0:
64,192,77226,1,8,0:0:0:0:
448,192,77340,1,0,0:0:0:0:
192,192,77455,1,0,0:0:0:0:
320,192,77569,1,0,0:0:0:0:
192,192,77684,1,8,0:0:0:0:
64,192,77684,1,8,0:0:0:0:
448,192,77798,1,0,0:0:0:0:
320,192,77913,1,0,0:0:0:0:
64,192,78027,1,0,0:0:0:0:
192,192,78142,1,8,0:0:0:0:
448,192,78142,1,8,0:0:0:0:
320,192,78256,1,0,0:0:0:0:
192,192,78371,1,0,0:0:0:0:
64,192,78485,1,0,0:0:0:0:
320,192,78600,1,8,0:0:0:0:
448,192,78600,1,8,0:0:0:0:
192,192,78714,1,0,0:0:0:0:
320,192,78829,1,0,0:0:0:0:
448,192,78943,1,0,0:0:0:0:
320,192,79058,1,8,0:0:0:0:
192,192,79058,1,8,0:0:0:0:
64,192,79172,1,0,0:0:0:0:
192,192,79287,1,0,0:0:0:0:
320,192,79401,1,0,0:0:0:0:
448,192,79516,1,0,0:0:0:0:
64,192,79516,1,0,0:0:0:0:
192,192,79630,1,0,0:0:0:0:
320,192,79745,1,0,0:0:0:0:
192,192,79859,1,0,0:0:0:0:
320,192,79974,1,0,0:0:0:0:
448,192,79974,1,0,0:0:0:0:
192,192,80088,1,0,0:0:0:0:
64,192,80203,1,0,0:0:0:0:
448,192,80317,1,0,0:0:0:0:
320,192,80432,1,8,0:0:0:0:
192,192,80432,1,8,0:0:0:0:
64,192,80546,1,0,0:0:0:0:
192,192,80661,1,0,0:0:0:0:
320,192,80775,1,0,0:0:0:0:
448,192,80775,1,0,0:0:0:0:
192,192,80890,1,0,0:0:0:0:
64,192,80890,1,0,0:0:0:0:
320,192,81004,1,0,0:0:0:0:
448,192,81119,1,0,0:0:0:0:
192,192,81233,1,0,0:0:0:0:
64,192,81233,1,0,0:0:0:0:
320,192,81348,1,8,0:0:0:0:
448,192,81348,1,8,0:0:0:0:
192,192,81462,1,0,0:0:0:0:
320,192,81577,1,8,0:0:0:0:
192,192,81691,1,0,0:0:0:0:
64,192,81691,1,0,0:0:0:0:
320,192,81806,1,8,0:0:0:0:
448,192,81806,1,8,0:0:0:0:
192,192,81920,1,0,0:0:0:0:
64,192,81920,1,0,0:0:0:0:
320,192,82035,1,8,0:0:0:0:
448,192,82035,1,8,0:0:0:0:
192,192,82149,1,0,0:0:0:0:
64,192,82149,1,0,0:0:0:0:
320,192,82264,1,8,0:0:0:0:
448,192,82264,1,8,0:0:0:0:
64,192,82264,1,8,0:0:0:0:
192,192,82378,1,0,0:0:0:0:
320,192,82493,1,0,0:0:0:0:
448,192,82607,1,0,0:0:0:0:
192,192,82722,1,0,0:0:0:0:
64,192,82722,1,0,0:0:0:0:
320,192,82836,1,0,0:0:0:0:
192,192,82951,1,0,0:0:0:0:
448,192,83065,1,0,0:0:0:0:
320,192,83180,1,0,0:0:0:0:
64,192,83180,1,0,0:0:0:0:
192,192,83294,1,0,0:0:0:0:
448,192,83409,1,0,0:0:0:0:
320,192,83523,1,0,0:0:0:0:
192,192,83638,1,0,0:0:0:0:
64,192,83638,1,0,0:0:0:0:
448,192,83752,1,0,0:0:0:0:
192,192,83867,1,0,0:0:0:0:
64,192,83981,1,0,0:0:0:0:
192,192,84096,1,0,0:0:0:0:
448,192,84096,1,0,0:0:0:0:
320,192,84210,1,0,0:0:0:0:
192,192,84325,1,0,0:0:0:0:
64,192,84439,1,0,0:0:0:0:
320,192,84554,1,0,0:0:0:0:
448,192,84554,1,0,0:0:0:0:
192,192,84668,1,0,0:0:0:0:
448,192,84783,1,0,0:0:0:0:
192,192,84897,1,0,0:0:0:0:
320,192,85012,1,0,0:0:0:0:
64,192,85012,1,0,0:0:0:0:
192,192,85126,1,0,0:0:0:0:
320,192,85241,1,0,0:0:0:0:
448,192,85355,1,0,0:0:0:0:
192,192,85470,1,0,0:0:0:0:
64,192,85470,1,0,0:0:0:0:
320,192,85584,1,0,0:0:0:0:
448,192,85699,1,0,0:0:0:0:
64,192,85813,1,0,0:0:0:0:
192,192,85928,1,0,0:0:0:0:
320,192,85928,1,0,0:0:0:0:
448,192,86042,1,0,0:0:0:0:
320,192,86157,1,0,0:0:0:0:
192,192,86271,1,0,0:0:0:0:
64,192,86386,1,0,0:0:0:0:
448,192,86386,1,0,0:0:0:0:
320,192,86500,1,0,0:0:0:0:
448,192,86615,1,0,0:0:0:0:
192,192,86729,1,0,0:0:0:0:
320,192,86844,1,0,0:0:0:0:
64,192,86844,1,0,0:0:0:0:
192,192,86958,1,0,0:0:0:0:
64,192,87073,1,0,0:0:0:0:
192,192,87188,1,0,0:0:0:0:
320,192,87302,1,0,0:0:0:0:
448,192,87302,1,0,0:0:0:0:
64,192,87417,1,0,0:0:0:0:
192,192,87531,1,0,0:0:0:0:
320,192,87646,1,0,0:0:0:0:
448,192,87760,1,0,0:0:0:0:
192,192,87760,1,0,0:0:0:0:
64,192,87875,1,0,0:0:0:0:
192,192,87989,1,0,0:0:0:0:
448,192,87989,1,0,0:0:0:0:
64,192,88104,1,0,0:0:0:0:
192,192,88218,1,0,0:0:0:0:
448,192,88218,1,0,0:0:0:0:
320,192,88333,1,0,0:0:0:0:
192,192,88447,1,0,0:0:0:0:
64,192,88447,1,0,0:0:0:0:
320,192,88562,1,0,0:0:0:0:
192,192,88676,1,0,0:0:0:0:
64,192,88676,1,0,0:0:0:0:
320,192,88791,1,0,0:0:0:0:
192,192,88905,1,0,0:0:0:0:
64,192,88905,1,0,0:0:0:0:
320,192,89020,1,0,0:0:0:0:
448,192,89134,1,0,0:0:0:0:
192,192,89134,1,0,0:0:0:0:
64,192,89134,1,0,0:0:0:0:
320,192,89249,1,0,0:0:0:0:
192,192,89363,1,0,0:0:0:0:
64,192,89363,1,0,0:0:0:0:
448,192,89363,1,0,0:0:0:0:
320,192,89478,1,0,0:0:0:0:
192,192,89592,1,0,0:0:0:0:
64,192,89592,1,0,0:0:0:0:
448,192,89592,1,0,0:0:0:0:
64,192,89821,128,0,90279:0:0:0:0:
192,192,90050,128,0,90279:0:0:0:0:
320,192,90165,128,0,90279:0:0:0:0:
448,192,90279,1,0,0:0:0:0:
64,192,90508,128,0,91424:0:0:0:0:
192,192,90508,128,0,91424:0:0:0:0:
320,192,90737,128,0,90852:0:0:0:0:
448,192,90852,128,0,90966:0:0:0:0:
320,192,90966,128,0,91310:0:0:0:0:
448,192,91195,1,0,0:0:0:0:
448,192,91424,1,0,0:0:0:0:
320,192,91424,1,0,0:0:0:0:
192,192,91653,1,0,0:0:0:0:
320,192,91882,1,0,0:0:0:0:
64,192,91882,1,0,0:0:0:0:
192,192,92111,1,0,0:0:0:0:
448,192,92111,1,0,0:0:0:0:
320,192,92340,1,0,0:0:0:0:
64,192,92569,1,0,0:0:0:0:
192,192,92569,1,0,0:0:0:0:
320,192,92684,1,0,0:0:0:0:
192,192,92798,1,0,0:0:0:0:
448,192,92913,1,0,0:0:0:0:
64,192,93027,1,0,0:0:0:0:
192,192,93142,1,0,0:0:0:0:
320,192,93256,1,0,0:0:0:0:
448,192,93256,1,0,0:0:0:0:
64,192,93371,1,0,0:0:0:0:
192,192,93485,1,0,0:0:0:0:
320,192,93714,1,0,0:0:0:0:
448,192,93714,1,0,0:0:0:0:
448,192,93943,1,0,0:0:0:0:
192,192,93943,1,0,0:0:0:0:
64,192,94172,1,0,0:0:0:0:
320,192,94401,1,0,0:0:0:0:
448,192,94401,1,0,0:0:0:0:
192,192,94516,1,0,0:0:0:0:
64,192,94630,1,0,0:0:0:0:
320,192,94630,1,0,0:0:0:0:
192,192,94745,1,0,0:0:0:0:
448,192,94859,1,0,0:0:0:0:
320,192,94974,1,0,0:0:0:0:
192,192,95088,1,0,0:0:0:0:
64,192,95088,128,0,95317:0:0:0:0:
192,192,95317,1,0,0:0:0:0:
320,192,95546,1,0,0:0:0:0:
448,192,95546,1,0,0:0:0:0:
192,192,95775,1,0,0:0:0:0:
64,192,96004,1,0,0:0:0:0:
320,192,96004,1,0,0:0:0:0:
192,192,96233,1,0,0:0:0:0:
320,192,96348,1,0,0:0:0:0:
448,192,96462,1,0,0:0:0:0:
192,192,96577,1,0,0:0:0:0:
64,192,96691,1,0,0:0:0:0:
320,192,96691,1,0,0:0:0:0:
192,192,96806,1,0,0:0:0:0:
320,192,96920,1,0,0:0:0:0:
448,192,96920,1,0,0:0:0:0:
192,192,97035,1,0,0:0:0:0:
64,192,97149,1,0,0:0:0:0:
448,192,97264,1,0,0:0:0:0:
192,192,97378,1,0,0:0:0:0:
64,192,97378,1,0,0:0:0:0:
320,192,97493,1,0,0:0:0:0:
448,192,97607,1,0,0:0:0:0:
320,192,97722,1,0,0:0:0:0:
192,192,97836,1,0,0:0:0:0:
64,192,97951,1,0,0:0:0:0:
320,192,97951,1,0,0:0:0:0:
192,192,98065,1,0,0:0:0:0:
448,192,98180,1,0,0:0:0:0:
448,192,98294,1,0,0:0:0:0:
320,192,98409,1,0,0:0:0:0:
192,192,98523,1,0,0:0:0:0:
64,192,98638,1,0,0:0:0:0:
320,192,98752,1,0,0:0:0:0:
448,192,98752,1,0,0:0:0:0:
192,192,98981,1,0,0:0:0:0:
64,192,98981,1,0,0:0:0:0:
320,192,99210,1,0,0:0:0:0:
448,192,99439,1,0,0:0:0:0:
192,192,99439,1,0,0:0:0:0:
320,192,99668,1,0,0:0:0:0:
64,192,99668,128,0,99897:0:0:0:0:
192,192,99897,128,0,100126:0:0:0:0:
320,192,100126,128,0,100355:0:0:0:0:
448,192,100355,128,0,100584:0:0:0:0:
192,192,100584,1,0,0:0:0:0:
64,192,100584,1,0,0:0:0:0:
320,192,100813,1,0,0:0:0:0:
192,192,100813,1,0,0:0:0:0:
448,192,101042,1,0,0:0:0:0:
320,192,101271,1,0,0:0:0:0:
192,192,101500,1,0,0:0:0:0:
320,192,101729,128,0,102187:0:0:0:0:
192,192,101958,1,0,0:0:0:0:
64,192,101958,1,0,0:0:0:0:
448,192,102187,128,0,102645:0:0:0:0:
192,192,102416,1,0,0:0:0:0:
320,192,102645,128,0,103104:0:0:0:0:
448,192,102874,1,0,0:0:0:0:
192,192,103104,128,0,103562:0:0:0:0:
320,192,103333,1,0,0:0:0:0:
64,192,103562,128,0,104020:0:0:0:0:
320,192,103791,1,0,0:0:0:0:
448,192,103791,1,0,0:0:0:0:
192,192,104020,128,0,104707:0:0:0:0:
448,192,104249,1,0,0:0:0:0:
320,192,104249,1,0,0:0:0:0:
64,192,104363,1,0,0:0:0:0:
320,192,104478,1,0,0:0:0:0:
448,192,104707,1,0,0:0:0:0:
64,192,104707,1,0,0:0:0:0:
192,192,104936,1,0,0:0:0:0:
64,192,105050,1,0,0:0:0:0:
320,192,105165,1,0,0:0:0:0:
192,192,105394,1,0,0:0:0:0:
320,192,105508,1,0,0:0:0:0:
448,192,105623,1,0,0:0:0:0:
320,192,105737,1,0,0:0:0:0:
192,192,105852,1,0,0:0:0:0:
64,192,105966,1,0,0:0:0:0:
320,192,106081,1,0,0:0:0:0:
448,192,106081,1,0,0:0:0:0:
192,192,106310,1,0,0:0:0:0:
64,192,106310,1,0,0:0:0:0:
448,192,106539,1,0,0:0:0:0:
320,192,106653,1,0,0:0:0:0:
192,192,106768,1,0,0:0:0:0:
320,192,106997,1,0,0:0:0:0:
64,192,107226,128,0,107913:0:0:0:0:
448,192,107340,1,0,0:0:0:0:
192,192,107455,128,0,107913:0:0:0:0:
320,192,107455,1,0,0:0:0:0:
320,192,107684,128,0,107913:0:0:0:0:
448,192,107913,1,0,0:0:0:0:
320,192,108027,1,0,0:0:0:0:
192,192,108142,1,0,0:0:0:0:
64,192,108371,1,0,0:0:0:0:
320,192,108371,1,0,0:0:0:0:
320,192,108600,1,0,0:0:0:0:
192,192,108600,1,0,0:0:0:0:
192,192,108829,128,0,109058:0:0:0:0:
448,192,108829,128,0,109058:0:0:0:0:
320,192,109058,128,0,109516:0:0:0:0:
192,192,109287,1,0,0:0:0:0:
64,192,109287,1,0,0:0:0:0:
192,192,109516,128,0,110203:0:0:0:0:
448,192,109745,1,0,0:0:0:0:
64,192,109974,1,0,0:0:0:0:
320,192,110203,1,0,0:0:0:0:
448,192,110203,1,0,0:0:0:0:
64,192,110432,1,0,0:0:0:0:
192,192,110432,1,0,0:0:0:0:
448,192,110661,1,0,0:0:0:0:
320,192,110890,1,0,0:0:0:0:
448,192,111119,1,0,0:0:0:0:
192,192,111348,1,0,0:0:0:0:
64,192,111348,1,0,0:0:0:0:
448,192,111577,1,0,0:0:0:0:
320,192,111577,1,0,0:0:0:0:
64,192,111806,1,0,0:0:0:0:
192,192,111920,1,0,0:0:0:0:
320,192,112035,1,0,0:0:0:0:
448,192,112264,1,0,0:0:0:0:
192,192,112264,1,0,0:0:0:0:
64,192,112378,1,0,0:0:0:0:
192,192,112493,1,0,0:0:0:0:
320,192,112722,1,0,0:0:0:0:
448,192,112836,1,0,0:0:0:0:
192,192,112951,128,0,113180:0:0:0:0:
64,192,113180,128,0,113409:0:0:0:0:
192,192,113294,1,0,0:0:0:0:
320,192,113409,1,0,0:0:0:0:
448,192,113409,1,0,0:0:0:0:
192,192,113638,1,0,0:0:0:0:
320,192,113638,1,0,0:0:0:0:
448,192,113867,1,0,0:0:0:0:
192,192,113867,1,0,0:0:0:0:
320,192,114096,1,0,0:0:0:0:
64,192,114096,1,0,0:0:0:0:
192,192,114325,1,0,0:0:0:0:
320,192,114325,1,0,0:0:0:0:
64,192,114554,1,0,0:0:0:0:
192,192,114554,128,0,114668:0:0:0:0:
192,192,114783,128,0,114897:0:0:0:0:
192,192,115012,128,0,115126:0:0:0:0:
320,192,115241,1,0,0:0:0:0:
192,192,115355,1,0,0:0:0:0:
64,192,115470,1,0,0:0:0:0:
320,192,115699,1,0,0:0:0:0:
448,192,115699,1,0,0:0:0:0:
192,192,115813,1,0,0:0:0:0:
64,192,115813,1,0,0:0:0:0:
320,192,115928,1,0,0:0:0:0:
192,192,116157,1,0,0:0:0:0:
64,192,116157,1,0,0:0:0:0:
320,192,116386,1,0,0:0:0:0:
192,192,116386,1,0,0:0:0:0:
192,192,116615,1,0,0:0:0:0:
320,192,116844,1,0,0:0:0:0:
448,192,116844,1,0,0:0:0:0:
64,192,116844,128,0,117302:0:0:0:0:
320,192,117073,1,0,0:0:0:0:
192,192,117302,128,0,117760:0:0:0:0:
448,192,117302,1,0,0:0:0:0:
320,192,117531,1,0,0:0:0:0:
320,192,117760,128,0,118218:0:0:0:0:
64,192,117760,1,0,0:0:0:0:
192,192,117989,1,0,0:0:0:0:
448,192,118218,128,0,118676:0:0:0:0:
64,192,118218,1,0,0:0:0:0:
320,192,118447,1,0,0:0:0:0:
320,192,118676,128,0,119363:0:0:0:0:
192,192,118676,1,0,0:0:0:0:
64,192,118905,1,0,0:0:0:0:
64,192,119249,1,0,0:0:0:0:
192,192,119363,128,0,119592:0:0:0:0:
448,192,119592,1,0,0:0:0:0:
320,192,119707,1,0,0:0:0:0:
192,192,119821,1,0,0:0:0:0:
64,192,120050,1,0,0:0:0:0:
320,192,120050,1,0,0:0:0:0:
448,192,120165,1,0,0:0:0:0:
192,192,120279,1,0,0:0:0:0:
320,192,120394,1,0,0:0:0:0:
192,192,120508,1,0,0:0:0:0:
320,192,120623,1,0,0:0:0:0:
192,192,120737,1,0,0:0:0:0:
448,192,120737,1,0,0:0:0:0:
64,192,120737,1,0,0:0:0:0:
64,192,120966,1,0,0:0:0:0:
320,192,120966,1,0,0:0:0:0:
448,192,121195,1,0,0:0:0:0:
320,192,121195,1,0,0:0:0:0:
192,192,121310,1,0,0:0:0:0:
64,192,121424,1,0,0:0:0:0:
320,192,121653,1,0,0:0:0:0:
192,192,121653,1,0,0:0:0:0:
64,192,121882,128,0,121997:0:0:0:0:
192,192,121882,128,0,121997:0:0:0:0:
192,192,122111,128,0,122226:0:0:0:0:
320,192,122111,128,0,122226:0:0:0:0:
320,192,122340,128,0,122455:0:0:0:0:
448,192,122340,128,0,122455:0:0:0:0:
64,192,122569,128,0,122684:0:0:0:0:
192,192,122569,1,0,0:0:0:0:
320,192,122684,1,0,0:0:0:0:
448,192,122798,1,0,0:0:0:0:
192,192,123027,1,0,0:0:0:0:
64,192,123027,1,0,0:0:0:0:
320,192,123256,1,0,0:0:0:0:
192,192,123371,1,0,0:0:0:0:
64,192,123485,1,0,0:0:0:0:
320,192,123714,1,0,0:0:0:0:
448,192,123714,128,0,124172:0:0:0:0:
64,192,123943,1,0,0:0:0:0:
192,192,124172,128,0,124859:0:0:0:0:
320,192,124401,1,0,0:0:0:0:
64,192,124630,1,0,0:0:0:0:
448,192,124859,1,0,0:0:0:0:
192,192,125088,1,0,0:0:0:0:
64,192,125088,128,0,125546:0:0:0:0:
448,192,125546,1,0,0:0:0:0:
320,192,125546,1,0,0:0:0:0:
192,192,125546,128,0,126004:0:0:0:0:
64,192,126004,128,0,126233:0:0:0:0:
320,192,126233,1,0,0:0:0:0:
448,192,126233,1,0,0:0:0:0:
192,192,126348,1,0,0:0:0:0:
64,192,126462,1,0,0:0:0:0:
192,192,126577,1,0,0:0:0:0:
320,192,126691,1,0,0:0:0:0:
448,192,126691,1,0,0:0:0:0:
64,192,126806,1,0,0:0:0:0:
192,192,126920,1,0,0:0:0:0:
448,192,127035,1,0,0:0:0:0:
320,192,127149,1,0,0:0:0:0:
64,192,127149,1,0,0:0:0:0:
192,192,127264,1,0,0:0:0:0:
64,192,127378,1,0,0:0:0:0:
320,192,127493,1,0,0:0:0:0:
192,192,127607,1,0,0:0:0:0:
64,192,127607,1,0,0:0:0:0:
448,192,127722,1,0,0:0:0:0:
320,192,127836,1,0,0:0:0:0:
64,192,127836,1,0,0:0:0:0:
192,192,127951,1,0,0:0:0:0:
64,192,128065,1,0,0:0:0:0:
320,192,128065,1,0,0:0:0:0:
448,192,128065,1,0,0:0:0:0:
320,192,128409,1,0,0:0:0:0:
448,192,128409,1,0,0:0:0:0:
320,192,128752,1,0,0:0:0:0:
448,192,128752,1,0,0:0:0:0:
192,192,128981,1,0,0:0:0:0:
64,192,129210,1,0,0:0:0:0:
448,192,129439,1,0,0:0:0:0:
320,192,129668,1,0,0:0:0:0:
64,192,129897,1,0,0:0:0:0:
192,192,129897,1,0,0:0:0:0:
192,192,130126,1,0,0:0:0:0:
320,192,130241,1,0,0:0:0:0:
448,192,130241,1,0,0:0:0:0:
192,192,130470,1,0,0:0:0:0:
320,192,130584,1,0,0:0:0:0:
448,192,130584,1,0,0:0:0:0:
192,192,130813,1,0,0:0:0:0:
64,192,130813,1,0,0:0:0:0:
448,192,130928,1,0,0:0:0:0:
320,192,131042,1,0,0:0:0:0:
192,192,131042,1,0,0:0:0:0:
64,192,131157,1,0,0:0:0:0:
448,192,131271,1,0,0:0:0:0:
320,192,131271,1,0,0:0:0:0:
64,192,131386,1,0,0:0:0:0:
320,192,131500,1,0,0:0:0:0:
192,192,131500,1,0,0:0:0:0:
448,192,131615,1,0,0:0:0:0:
192,192,131729,1,0,0:0:0:0:
64,192,131729,1,0,0:0:0:0:
320,192,131958,1,0,0:0:0:0:
192,192,131958,1,0,0:0:0:0:
448,192,132187,1,0,0:0:0:0:
320,192,132187,1,0,0:0:0:0:
320,192,132416,1,0,0:0:0:0:
192,192,132416,1,0,0:0:0:0:
192,192,132645,1,0,0:0:0:0:
64,192,132645,1,0,0:0:0:0:
448,192,132645,1,0,0:0:0:0:
320,192,132874,1,0,0:0:0:0:
192,192,132874,1,0,0:0:0:0:
64,192,133103,1,0,0:0:0:0:
192,192,133103,1,0,0:0:0:0:
448,192,133332,1,0,0:0:0:0:
320,192,133332,1,0,0:0:0:0:
192,192,133561,1,0,0:0:0:0:
64,192,133561,1,0,0:0:0:0:
448,192,133561,1,0,0:0:0:0:
320,192,133790,1,0,0:0:0:0:
192,192,134019,1,0,0:0:0:0:
448,192,134248,1,0,0:0:0:0:
64,192,134477,1,0,0:0:0:0:
320,192,134592,1,0,0:0:0:0:
448,192,134706,1,0,0:0:0:0:
320,192,134821,1,0,0:0:0:0:
192,192,134935,1,0,0:0:0:0:
64,192,134935,1,0,0:0:0:0:
448,192,135050,1,0,0:0:0:0:
320,192,135165,1,0,0:0:0:0:
192,192,135165,1,0,0:0:0:0:
64,192,135279,1,0,0:0:0:0:
320,192,135394,1,0,0:0:0:0:
448,192,135394,1,0,0:0:0:0:
320,192,135737,1,0,0:0:0:0:
448,192,135737,1,0,0:0:0:0:
320,192,136081,1,0,0:0:0:0:
448,192,136081,1,0,0:0:0:0:
192,192,136310,1,0,0:0:0:0:
64,192,136310,1,0,0:0:0:0:
320,192,136539,1,0,0:0:0:0:
192,192,136539,1,0,0:0:0:0:
448,192,136768,1,0,0:0:0:0:
320,192,136768,1,0,0:0:0:0:
192,192,136997,1,0,0:0:0:0:
64,192,137226,1,0,0:0:0:0:
320,192,137226,1,0,0:0:0:0:
448,192,137455,1,0,0:0:0:0:
192,192,137455,1,0,0:0:0:0:
192,192,137684,1,0,0:0:0:0:
448,192,137684,1,0,0:0:0:0:
192,192,137913,1,0,0:0:0:0:
64,192,138142,1,0,0:0:0:0:
320,192,138142,128,0,138371:0:0:0:0:
192,192,138371,1,0,0:0:0:0:
448,192,138600,128,0,138829:0:0:0:0:
192,192,138829,1,0,0:0:0:0:
64,192,138829,1,0,0:0:0:0:
320,192,138943,1,0,0:0:0:0:
448,192,139058,1,0,0:0:0:0:
192,192,139058,1,0,0:0:0:0:
320,192,139287,1,0,0:0:0:0:
64,192,139287,1,0,0:0:0:0:
448,192,139516,1,0,0:0:0:0:
320,192,139516,1,0,0:0:0:0:
64,192,139745,1,0,0:0:0:0:
192,192,139745,1,0,0:0:0:0:
320,192,139974,1,0,0:0:0:0:
192,192,139974,1,0,0:0:0:0:
448,192,140203,1,0,0:0:0:0:
320,192,140203,1,0,0:0:0:0:
192,192,140432,1,0,0:0:0:0:
64,192,140432,1,0,0:0:0:0:
448,192,140661,1,0,0:0:0:0:
192,192,140661,1,0,0:0:0:0:
320,192,140661,1,0,0:0:0:0:
320,192,140890,1,0,0:0:0:0:
64,192,140890,1,0,0:0:0:0:
448,192,140890,1,0,0:0:0:0:
448,192,141119,1,0,0:0:0:0:
64,192,141119,1,0,0:0:0:0:
192,192,141119,1,0,0:0:0:0:
64,192,141348,1,0,0:0:0:0:
320,192,141348,1,0,0:0:0:0:
448,192,141348,1,0,0:0:0:0:
192,192,141577,1,0,0:0:0:0:
320,192,141577,1,0,0:0:0:0:
448,192,141577,1,0,0:0:0:0:
64,192,141577,1,0,0:0:0:0:
64,192,141806,1,0,0:0:0:0:
192,192,141806,1,0,0:0:0:0:
448,192,141806,1,0,0:0:0:0:
320,192,141806,1,0,0:0:0:0:
192,192,142035,1,0,0:0:0:0:
448,192,142035,1,0,0:0:0:0:
64,192,142035,1,0,0:0:0:0:
320,192,142149,1,0,0:0:0:0:
192,192,142264,1,0,0:0:0:0:
448,192,142264,1,0,0:0:0:0:
64,192,142378,1,0,0:0:0:0:
192,192,142493,1,0,0:0:0:0:
448,192,142493,1,0,0:0:0:0:
320,192,142607,1,0,0:0:0:0:
192,192,142722,1,0,0:0:0:0:
64,192,142722,1,0,0:0:0:0:
320,192,142836,1,0,0:0:0:0:
448,192,142951,1,0,0:0:0:0:
320,192,143065,1,0,0:0:0:0:
192,192,143180,1,0,0:0:0:0:
64,192,143180,1,0,0:0:0:0:
320,192,143294,1,0,0:0:0:0:
448,192,143409,1,0,0:0:0:0:
192,192,143523,1,0,0:0:0:0:
64,192,143638,1,0,0:0:0:0:
320,192,143638,1,0,0:0:0:0:
448,192,143752,1,0,0:0:0:0:
320,192,143867,1,0,0:0:0:0:
192,192,143981,1,0,0:0:0:0:
64,192,144096,1,0,0:0:0:0:
448,192,144096,1,0,0:0:0:0:
320,192,144210,1,0,0:0:0:0:
64,192,144325,1,0,0:0:0:0:
192,192,144439,1,0,0:0:0:0:
320,192,144554,1,0,0:0:0:0:
448,192,144554,1,0,0:0:0:0:
64,192,144668,1,0,0:0:0:0:
448,192,144783,1,0,0:0:0:0:
192,192,144897,1,0,0:0:0:0:
320,192,145012,1,0,0:0:0:0:
64,192,145012,1,0,0:0:0:0:
448,192,145126,1,0,0:0:0:0:
320,192,145241,1,0,0:0:0:0:
192,192,145355,1,0,0:0:0:0:
320,192,145470,1,0,0:0:0:0:
448,192,145470,1,0,0:0:0:0:
64,192,145584,1,0,0:0:0:0:
320,192,145699,1,0,0:0:0:0:
448,192,145813,1,0,0:0:0:0:
320,192,145928,1,0,0:0:0:0:
192,192,145928,1,0,0:0:0:0:
448,192,146042,1,0,0:0:0:0:
320,192,146157,1,0,0:0:0:0:
192,192,146271,1,0,0:0:0:0:
64,192,146386,1,0,0:0:0:0:
320,192,146386,1,0,0:0:0:0:
192,192,146500,1,0,0:0:0:0:
64,192,146615,1,0,0:0:0:0:
192,192,146729,1,0,0:0:0:0:
448,192,146844,1,0,0:0:0:0:
320,192,146844,1,0,0:0:0:0:
64,192,146958,1,0,0:0:0:0:
320,192,147073,1,0,0:0:0:0:
448,192,147187,1,0,0:0:0:0:
192,192,147302,1,0,0:0:0:0:
64,192,147302,1,0,0:0:0:0:
320,192,147416,1,0,0:0:0:0:
448,192,147531,1,0,0:0:0:0:
192,192,147645,1,0,0:0:0:0:
320,192,147760,1,0,0:0:0:0:
64,192,147760,1,0,0:0:0:0:
448,192,147874,1,0,0:0:0:0:
320,192,147989,1,0,0:0:0:0:
192,192,148103,1,0,0:0:0:0:
64,192,148218,1,0,0:0:0:0:
448,192,148218,1,0,0:0:0:0:
320,192,148332,1,0,0:0:0:0:
192,192,148447,1,0,0:0:0:0:
448,192,148447,1,0,0:0:0:0:
320,192,148561,1,0,0:0:0:0:
64,192,148676,1,0,0:0:0:0:
192,192,148676,1,0,0:0:0:0:
320,192,148790,1,0,0:0:0:0:
448,192,148905,1,0,0:0:0:0:
64,192,148905,1,0,0:0:0:0:
320,192,149019,1,0,0:0:0:0:
192,192,149134,1,0,0:0:0:0:
448,192,149134,1,0,0:0:0:0:
320,192,149248,1,0,0:0:0:0:
192,192,149363,1,0,0:0:0:0:
64,192,149363,1,0,0:0:0:0:
320,192,149477,1,0,0:0:0:0:
448,192,149477,1,0,0:0:0:0:
192,192,149592,1,0,0:0:0:0:
64,192,149592,1,0,0:0:0:0:
320,192,149706,1,0,0:0:0:0:
448,192,149706,1,0,0:0:0:0:
192,192,149821,1,0,0:0:0:0:
64,192,149821,1,0,0:0:0:0:
320,192,149935,1,0,0:0:0:0:
448,192,149935,1,0,0:0:0:0:
192,192,150050,1,0,0:0:0:0:
64,192,150050,128,0,150279:0:0:0:0:
448,192,150279,1,0,0:0:0:0:
320,192,150279,1,0,0:0:0:0:
192,192,150508,1,0,0:0:0:0:
64,192,150508,1,0,0:0:0:0:
320,192,150622,1,0,0:0:0:0:
448,192,150737,1,0,0:0:0:0:
192,192,150851,1,0,0:0:0:0:
64,192,150966,1,0,0:0:0:0:
320,192,150966,1,0,0:0:0:0:
192,192,151080,1,0,0:0:0:0:
448,192,151195,1,0,0:0:0:0:
320,192,151310,1,0,0:0:0:0:
64,192,151424,1,0,0:0:0:0:
192,192,151424,1,0,0:0:0:0:
320,192,151539,1,0,0:0:0:0:
192,192,151653,1,0,0:0:0:0:
64,192,151768,1,0,0:0:0:0:
320,192,151882,1,0,0:0:0:0:
448,192,151882,1,0,0:0:0:0:
192,192,151997,1,0,0:0:0:0:
320,192,152111,1,0,0:0:0:0:
192,192,152226,1,0,0:0:0:0:
448,192,152340,1,0,0:0:0:0:
64,192,152340,1,0,0:0:0:0:
192,192,152455,1,0,0:0:0:0:
320,192,152569,1,0,0:0:0:0:
448,192,152684,1,0,0:0:0:0:
320,192,152798,1,0,0:0:0:0:
192,192,152798,1,0,0:0:0:0:
448,192,152913,1,0,0:0:0:0:
64,192,153027,1,0,0:0:0:0:
320,192,153142,1,0,0:0:0:0:
192,192,153256,1,0,0:0:0:0:
448,192,153256,1,0,0:0:0:0:
320,192,153371,1,0,0:0:0:0:
64,192,153485,1,0,0:0:0:0:
320,192,153600,1,0,0:0:0:0:
192,192,153714,1,0,0:0:0:0:
64,192,153714,1,0,0:0:0:0:
320,192,153829,1,0,0:0:0:0:
448,192,153943,1,0,0:0:0:0:
64,192,154058,1,0,0:0:0:0:
192,192,154172,1,0,0:0:0:0:
320,192,154172,1,0,0:0:0:0:
448,192,154287,1,0,0:0:0:0:
320,192,154401,1,0,0:0:0:0:
192,192,154516,1,0,0:0:0:0:
320,192,154630,1,0,0:0:0:0:
448,192,154630,1,0,0:0:0:0:
64,192,154745,1,0,0:0:0:0:
192,192,154859,1,0,0:0:0:0:
320,192,154974,1,0,0:0:0:0:
448,192,155088,1,0,0:0:0:0:
64,192,155088,1,0,0:0:0:0:
192,192,155203,1,0,0:0:0:0:
320,192,155317,1,0,0:0:0:0:
448,192,155432,1,0,0:0:0:0:
192,192,155546,1,0,0:0:0:0:
64,192,155546,1,0,0:0:0:0:
320,192,155661,1,0,0:0:0:0:
192,192,155775,1,0,0:0:0:0:
448,192,155775,1,0,0:0:0:0:
64,192,155890,1,0,0:0:0:0:
320,192,156004,1,0,0:0:0:0:
448,192,156004,1,0,0:0:0:0:
192,192,156119,1,0,0:0:0:0:
64,192,156233,1,0,0:0:0:0:
448,192,156348,1,0,0:0:0:0:
192,192,156462,1,0,0:0:0:0:
64,192,156462,1,0,0:0:0:0:
320,192,156577,1,0,0:0:0:0:
192,192,156691,1,0,0:0:0:0:
448,192,156691,1,0,0:0:0:0:
64,192,156806,1,0,0:0:0:0:
192,192,156920,1,0,0:0:0:0:
320,192,156920,1,0,0:0:0:0:
448,192,157035,1,0,0:0:0:0:
64,192,157035,1,0,0:0:0:0:
192,192,157149,1,0,0:0:0:0:
320,192,157149,1,0,0:0:0:0:
448,192,157264,1,0,0:0:0:0:
64,192,157264,1,0,0:0:0:0:
192,192,157378,128,0,157836:0:0:0:0:
320,192,157378,128,0,157722:0:0:0:0:
64,192,157836,1,0,0:0:0:0:
192,192,157951,1,0,0:0:0:0:
320,192,158065,1,0,0:0:0:0:
448,192,158180,1,0,0:0:0:0:
192,192,158294,1,0,0:0:0:0:
64,192,158294,1,0,0:0:0:0:
320,192,158409,1,0,0:0:0:0:
192,192,158523,1,0,0:0:0:0:
64,192,158638,1,0,0:0:0:0:
320,192,158752,1,0,0:0:0:0:
192,192,158752,1,0,0:0:0:0:
448,192,158867,1,0,0:0:0:0:
64,192,158981,1,0,0:0:0:0:
192,192,159096,1,0,0:0:0:0:
320,192,159210,1,0,0:0:0:0:
448,192,159210,1,0,0:0:0:0:
64,192,159325,1,0,0:0:0:0:
320,192,159439,1,0,0:0:0:0:
192,192,159554,1,0,0:0:0:0:
320,192,159668,1,0,0:0:0:0:
448,192,159668,1,0,0:0:0:0:
192,192,159783,1,0,0:0:0:0:
64,192,159897,1,0,0:0:0:0:
320,192,160012,1,0,0:0:0:0:
448,192,160126,1,0,0:0:0:0:
192,192,160126,1,0,0:0:0:0:
64,192,160241,1,0,0:0:0:0:
448,192,160355,1,0,0:0:0:0:
320,192,160470,1,0,0:0:0:0:
192,192,160584,1,0,0:0:0:0:
64,192,160584,1,0,0:0:0:0:
320,192,160699,1,0,0:0:0:0:
192,192,160813,1,0,0:0:0:0:
64,192,160928,1,0,0:0:0:0:
320,192,161042,1,0,0:0:0:0:
448,192,161042,1,0,0:0:0:0:
192,192,161157,1,0,0:0:0:0:
320,192,161271,1,0,0:0:0:0:
192,192,161386,1,0,0:0:0:0:
448,192,161500,1,0,0:0:0:0:
64,192,161500,1,0,0:0:0:0:
320,192,161615,1,0,0:0:0:0:
192,192,161729,1,0,0:0:0:0:
320,192,161844,1,0,0:0:0:0:
64,192,161958,1,0,0:0:0:0:
448,192,161958,1,0,0:0:0:0:
192,192,162073,1,0,0:0:0:0:
320,192,162187,1,0,0:0:0:0:
448,192,162302,1,0,0:0:0:0:
320,192,162416,1,0,0:0:0:0:
192,192,162416,1,0,0:0:0:0:
64,192,162531,1,0,0:0:0:0:
320,192,162645,1,0,0:0:0:0:
192,192,162760,1,0,0:0:0:0:
448,192,162874,1,0,0:0:0:0:
320,192,162874,1,0,0:0:0:0:
192,192,162989,1,0,0:0:0:0:
320,192,163103,1,0,0:0:0:0:
192,192,163218,1,0,0:0:0:0:
320,192,163332,1,0,0:0:0:0:
64,192,163332,1,0,0:0:0:0:
192,192,163447,1,0,0:0:0:0:
320,192,163561,1,0,0:0:0:0:
192,192,163676,1,0,0:0:0:0:
320,192,163790,1,0,0:0:0:0:
448,192,163790,1,0,0:0:0:0:
192,192,163905,1,0,0:0:0:0:
320,192,164019,1,0,0:0:0:0:
448,192,164019,1,0,0:0:0:0:
192,192,164134,1,0,0:0:0:0:
320,192,164248,1,0,0:0:0:0:
448,192,164248,1,0,0:0:0:0:
192,192,164363,1,0,0:0:0:0:
320,192,164477,1,0,0:0:0:0:
448,192,164477,1,0,0:0:0:0:
192,192,164592,1,0,0:0:0:0:
320,192,164706,1,0,0:0:0:0:
448,192,164706,1,0,0:0:0:0:
64,192,164706,1,0,0:0:0:0:
192,192,164821,1,0,0:0:0:0:
320,192,164935,1,0,0:0:0:0:
448,192,165050,1,0,0:0:0:0:
320,192,165164,1,0,0:0:0:0:
192,192,165164,1,0,0:0:0:0:
64,192,165279,1,0,0:0:0:0:
192,192,165393,1,0,0:0:0:0:
448,192,165508,1,0,0:0:0:0:
320,192,165622,1,0,0:0:0:0:
64,192,165622,1,0,0:0:0:0:
192,192,165737,1,0,0:0:0:0:
64,192,165851,1,0,0:0:0:0:
448,192,165966,1,0,0:0:0:0:
320,192,166080,1,0,0:0:0:0:
192,192,166080,1,0,0:0:0:0:
448,192,166195,1,0,0:0:0:0:
320,192,166309,1,0,0:0:0:0:
64,192,166424,1,0,0:0:0:0:
192,192,166538,1,0,0:0:0:0:
448,192,166538,1,0,0:0:0:0:
320,192,166653,1,0,0:0:0:0:
64,192,166767,1,0,0:0:0:0:
192,192,166882,1,0,0:0:0:0:
320,192,166996,1,0,0:0:0:0:
448,192,166996,1,0,0:0:0:0:
320,192,167111,1,0,0:0:0:0:
192,192,167226,1,0,0:0:0:0:
64,192,167340,1,0,0:0:0:0:
320,192,167455,1,0,0:0:0:0:
448,192,167455,1,0,0:0:0:0:
192,192,167569,1,0,0:0:0:0:
64,192,167684,1,0,0:0:0:0:
192,192,167798,1,0,0:0:0:0:
320,192,167913,1,0,0:0:0:0:
64,192,167913,1,0,0:0:0:0:
192,192,168027,1,0,0:0:0:0:
448,192,168142,1,0,0:0:0:0:
320,192,168256,1,0,0:0:0:0:
192,192,168371,1,0,0:0:0:0:
64,192,168371,1,0,0:0:0:0:
448,192,168485,1,0,0:0:0:0:
64,192,168600,1,0,0:0:0:0:
192,192,168714,1,0,0:0:0:0:
320,192,168829,1,0,0:0:0:0:
448,192,168829,1,0,0:0:0:0:
64,192,168943,1,0,0:0:0:0:
320,192,169058,1,0,0:0:0:0:
192,192,169172,1,0,0:0:0:0:
448,192,169287,1,0,0:0:0:0:
320,192,169287,1,0,0:0:0:0:
64,192,169401,1,0,0:0:0:0:
192,192,169516,1,0,0:0:0:0:
320,192,169630,1,0,0:0:0:0:
448,192,169745,1,0,0:0:0:0:
192,192,169745,1,0,0:0:0:0:
320,192,169859,1,0,0:0:0:0:
192,192,169974,1,0,0:0:0:0:
64,192,170088,1,0,0:0:0:0:
320,192,170203,128,0,170432:0:0:0:0:
192,192,170203,128,0,170317:0:0:0:0:
448,192,170432,128,0,170661:0:0:0:0:
192,192,170432,1,0,0:0:0:0:
64,192,170661,128,0,170890:0:0:0:0:
192,192,170661,1,0,0:0:0:0:
320,192,170890,128,0,171119:0:0:0:0:
448,192,170890,1,0,0:0:0:0:
448,192,171119,128,0,171348:0:0:0:0:
64,192,171119,1,0,0:0:0:0:
320,192,171348,128,0,171577:0:0:0:0:
192,192,171348,1,0,0:0:0:0:
192,192,171577,128,0,171806:0:0:0:0:
64,192,171577,1,0,0:0:0:0:
320,192,171806,128,0,172035:0:0:0:0:
448,192,171806,1,0,0:0:0:0:
192,192,172035,1,0,0:0:0:0:
64,192,172035,1,0,0:0:0:0:
448,192,172035,1,0,0:0:0:0:
64,192,172264,1,0,0:0:0:0:
448,192,172493,1,0,0:0:0:0:
320,192,172493,1,0,0:0:0:0:
192,192,172607,1,0,0:0:0:0:
64,192,172722,1,0,0:0:0:0:
320,192,172951,1,0,0:0:0:0:
192,192,172951,1,0,0:0:0:0:
448,192,173180,1,0,0:0:0:0:
64,192,173180,1,0,0:0:0:0:
192,192,173294,1,0,0:0:0:0:
320,192,173294,1,0,0:0:0:0:
64,192,173409,1,0,0:0:0:0:
448,192,173409,1,0,0:0:0:0:
192,192,173638,1,0,0:0:0:0:
320,192,173638,1,0,0:0:0:0:
448,192,173752,1,0,0:0:0:0:
64,192,173752,1,0,0:0:0:0:
192,192,173867,1,0,0:0:0:0:
320,192,173867,128,0,175699:0:0:0:0:
192,192,174096,1,0,0:0:0:0:
448,192,174325,1,0,0:0:0:0:
192,192,174554,1,0,0:0:0:0:
448,192,174783,1,0,0:0:0:0:
192,192,175012,1,0,0:0:0:0:
448,192,175241,1,0,0:0:0:0:
192,192,175355,1,0,0:0:0:0:
64,192,175470,1,0,0:0:0:0:
448,192,175584,1,0,0:0:0:0:
64,192,175699,1,0,0:0:0:0:
192,192,175699,128,0,176386:0:0:0:0:
320,192,175928,1,0,0:0:0:0:
448,192,175928,1,0,0:0:0:0:
320,192,176157,1,0,0:0:0:0:
448,192,176157,1,0,0:0:0:0:
448,192,176386,128,0,176844:0:0:0:0:
64,192,176615,1,0,0:0:0:0:
320,192,176844,128,0,177302:0:0:0:0:
64,192,177073,1,0,0:0:0:0:
192,192,177302,128,0,177760:0:0:0:0:
448,192,177531,1,0,0:0:0:0:
320,192,177531,1,0,0:0:0:0:
320,192,177760,1,0,0:0:0:0:
320,192,177989,1,0,0:0:0:0:
64,192,177989,1,0,0:0:0:0:
320,192,178218,1,0,0:0:0:0:
320,192,178447,1,0,0:0:0:0:
192,192,178447,1,0,0:0:0:0:
192,192,178676,1,0,0:0:0:0:
448,192,178905,1,0,0:0:0:0:
192,192,178905,1,0,0:0:0:0:
320,192,179134,1,0,0:0:0:0:
320,192,179363,1,0,0:0:0:0:
64,192,179363,1,0,0:0:0:0:
192,192,179592,1,0,0:0:0:0:
320,192,179821,1,0,0:0:0:0:
448,192,179821,1,0,0:0:0:0:
320,192,180050,1,0,0:0:0:0:
192,192,180279,1,0,0:0:0:0:
320,192,180279,1,0,0:0:0:0:
192,192,180508,1,0,0:0:0:0:
64,192,180508,1,0,0:0:0:0:
320,192,180622,1,0,0:0:0:0:
448,192,180737,128,0,181195:0:0:0:0:
320,192,180966,128,0,181195:0:0:0:0:
192,192,181195,1,0,0:0:0:0:
64,192,181195,128,0,183027:0:0:0:0:
448,192,181653,1,0,0:0:0:0:
448,192,181996,1,0,0:0:0:0:
320,192,182054,1,0,0:0:0:0:
192,192,182111,1,0,0:0:0:0:
320,192,182340,1,0,0:0:0:0:
448,192,182340,1,0,0:0:0:0:
448,192,182569,1,0,0:0:0:0:
320,192,182569,1,0,0:0:0:0:
320,192,182798,1,0,0:0:0:0:
448,192,182798,1,0,0:0:0:0:
192,192,183027,1,0,0:0:0:0:
320,192,183027,1,0,0:0:0:0:
448,192,183256,1,0,0:0:0:0:
320,192,183371,1,0,0:0:0:0:
192,192,183485,1,0,0:0:0:0:
64,192,183600,1,0,0:0:0:0:
320,192,183714,1,0,0:0:0:0:
448,192,183714,1,0,0:0:0:0:
192,192,183829,1,0,0:0:0:0:
320,192,183943,1,0,0:0:0:0:
448,192,183943,1,0,0:0:0:0:
192,192,184058,1,0,0:0:0:0:
64,192,184172,1,0,0:0:0:0:
320,192,184172,1,0,0:0:0:0:
192,192,184287,1,0,0:0:0:0:
320,192,184401,1,0,0:0:0:0:
448,192,184401,1,0,0:0:0:0:
192,192,184516,1,0,0:0:0:0:
64,192,184630,1,0,0:0:0:0:
320,192,184630,1,0,0:0:0:0:
192,192,184745,1,0,0:0:0:0:
320,192,184859,1,0,0:0:0:0:
448,192,184859,1,0,0:0:0:0:
448,192,185088,1,0,0:0:0:0:
320,192,185317,1,0,0:0:0:0:
192,192,185317,1,0,0:0:0:0:
192,192,185546,1,0,0:0:0:0:
320,192,185775,1,0,0:0:0:0:
448,192,185775,1,0,0:0:0:0:
64,192,185775,1,0,0:0:0:0:
192,192,186004,1,0,0:0:0:0:
320,192,186233,1,0,0:0:0:0:
448,192,186233,1,0,0:0:0:0:
448,192,186462,1,0,0:0:0:0:
320,192,186691,1,0,0:0:0:0:
64,192,186691,1,0,0:0:0:0:
192,192,186920,1,0,0:0:0:0:
320,192,187149,1,0,0:0:0:0:
448,192,187149,1,0,0:0:0:0:
192,192,187378,1,0,0:0:0:0:
64,192,187607,1,0,0:0:0:0:
448,192,187607,1,0,0:0:0:0:
192,192,187836,1,0,0:0:0:0:
448,192,188065,1,0,0:0:0:0:
320,192,188065,128,0,188523:0:0:0:0:
64,192,188294,1,0,0:0:0:0:
192,192,188523,1,0,0:0:0:0:
448,192,188523,128,0,190355:0:0:0:0:
192,192,188981,1,0,0:0:0:0:
320,192,188981,1,0,0:0:0:0:
64,192,189325,1,0,0:0:0:0:
192,192,189439,1,0,0:0:0:0:
320,192,189439,1,0,0:0:0:0:
192,192,189668,1,0,0:0:0:0:
192,192,189897,1,0,0:0:0:0:
64,192,190126,1,0,0:0:0:0:
192,192,190241,1,0,0:0:0:0:
320,192,190355,1,0,0:0:0:0:
64,192,190355,1,0,0:0:0:0:
192,192,190584,1,0,0:0:0:0:
448,192,190699,1,0,0:0:0:0:
192,192,190813,1,0,0:0:0:0:
320,192,191042,1,0,0:0:0:0:
64,192,191042,128,0,191500:0:0:0:0:
192,192,191271,1,0,0:0:0:0:
448,192,191500,128,0,191958:0:0:0:0:
320,192,191729,1,0,0:0:0:0:
192,192,191958,128,0,194019:0:0:0:0:
320,192,192187,1,0,0:0:0:0:
448,192,193332,1,0,0:0:0:0:
320,192,193447,1,0,0:0:0:0:
64,192,193561,128,0,194019:0:0:0:0:
320,192,193790,128,0,194019:0:0:0:0:
448,192,194019,128,0,194477:0:0:0:0:
192,192,194248,128,0,194706:0:0:0:0:
320,192,194477,128,0,194935:0:0:0:0:
448,192,194706,1,0,0:0:0:0:
64,192,194935,128,0,195164:0:0:0:0:
192,192,195164,1,0,0:0:0:0:
192,192,195393,1,0,0:0:0:0:
320,192,195393,1,0,0:0:0:0:
448,192,195622,1,0,0:0:0:0:
320,192,195851,1,0,0:0:0:0:
64,192,195851,1,0,0:0:0:0:
320,192,196309,1,0,0:0:0:0:
192,192,196309,1,0,0:0:0:0:
64,192,196538,1,0,0:0:0:0:
192,192,196653,1,0,0:0:0:0:
320,192,196767,1,0,0:0:0:0:
448,192,196996,1,0,0:0:0:0:
192,192,196996,1,0,0:0:0:0:
448,192,197225,1,0,0:0:0:0:
192,192,197225,1,0,0:0:0:0:
320,192,197340,1,0,0:0:0:0:
448,192,197454,1,0,0:0:0:0:
192,192,197454,1,0,0:0:0:0:
320,192,197683,1,0,0:0:0:0:
192,192,197683,1,0,0:0:0:0:
192,192,197912,1,0,0:0:0:0:
64,192,197912,1,0,0:0:0:0:
320,192,198027,1,0,0:0:0:0:
448,192,198141,1,0,0:0:0:0:
192,192,198256,1,0,0:0:0:0:
64,192,198370,1,0,0:0:0:0:
320,192,198370,1,0,0:0:0:0:
192,192,198599,1,0,0:0:0:0:
320,192,198714,1,0,0:0:0:0:
448,192,198828,1,0,0:0:0:0:
192,192,198828,1,0,0:0:0:0:
320,192,199057,1,0,0:0:0:0:
192,192,199172,1,0,0:0:0:0:
64,192,199287,1,0,0:0:0:0:
320,192,199287,1,0,0:0:0:0:
448,192,199516,1,0,0:0:0:0:
192,192,199516,1,0,0:0:0:0:
320,192,199745,1,0,0:0:0:0:
64,192,199974,1,0,0:0:0:0:
192,192,200088,1,0,0:0:0:0:
320,192,200203,1,0,0:0:0:0:
448,192,200203,1,0,0:0:0:0:
64,192,200317,1,0,0:0:0:0:
192,192,200432,1,0,0:0:0:0:
448,192,200546,1,0,0:0:0:0:
64,192,200661,1,0,0:0:0:0:
320,192,200661,1,0,0:0:0:0:
192,192,200775,1,0,0:0:0:0:
64,192,200890,1,0,0:0:0:0:
448,192,200890,1,0,0:0:0:0:
320,192,201004,1,0,0:0:0:0:
192,192,201119,1,0,0:0:0:0:
64,192,201233,1,0,0:0:0:0:
192,192,201348,1,0,0:0:0:0:
448,192,201348,1,0,0:0:0:0:
320,192,201462,1,0,0:0:0:0:
192,192,201577,1,0,0:0:0:0:
64,192,201691,1,0,0:0:0:0:
320,192,201806,1,0,0:0:0:0:
192,192,201806,1,0,0:0:0:0:
448,192,201920,1,0,0:0:0:0:
192,192,202035,1,0,0:0:0:0:
64,192,202149,1,0,0:0:0:0:
320,192,202264,1,0,0:0:0:0:
448,192,202264,1,0,0:0:0:0:
192,192,202378,1,0,0:0:0:0:
320,192,202493,1,0,0:0:0:0:
448,192,202607,1,0,0:0:0:0:
192,192,202722,1,0,0:0:0:0:
320,192,202722,1,0,0:0:0:0:
64,192,202836,1,0,0:0:0:0:
192,192,202951,1,0,0:0:0:0:
448,192,203065,1,0,0:0:0:0:
320,192,203180,1,0,0:0:0:0:
64,192,203180,1,0,0:0:0:0:
192,192,203294,1,0,0:0:0:0:
64,192,203409,1,0,0:0:0:0:
320,192,203523,1,0,0:0:0:0:
192,192,203638,1,0,0:0:0:0:
448,192,203638,1,0,0:0:0:0:
320,192,203752,1,0,0:0:0:0:
64,192,203867,1,0,0:0:0:0:
192,192,203981,1,0,0:0:0:0:
320,192,204096,1,0,0:0:0:0:
448,192,204096,1,0,0:0:0:0:
64,192,204210,1,0,0:0:0:0:
192,192,204325,1,0,0:0:0:0:
448,192,204439,1,0,0:0:0:0:
320,192,204554,1,0,0:0:0:0:
64,192,204554,1,0,0:0:0:0:
192,192,204668,1,0,0:0:0:0:
320,192,204783,1,0,0:0:0:0:
448,192,204897,1,0,0:0:0:0:
192,192,205012,1,0,0:0:0:0:
64,192,205012,1,0,0:0:0:0:
320,192,205126,1,0,0:0:0:0:
448,192,205241,1,0,0:0:0:0:
192,192,205241,1,0,0:0:0:0:
320,192,205355,1,0,0:0:0:0:
448,192,205470,1,0,0:0:0:0:
64,192,205470,1,0,0:0:0:0:
192,192,205584,1,0,0:0:0:0:
64,192,205699,1,0,0:0:0:0:
320,192,205699,1,0,0:0:0:0:
192,192,205813,1,0,0:0:0:0:
320,192,205928,1,0,0:0:0:0:
448,192,205928,1,0,0:0:0:0:
192,192,206042,1,0,0:0:0:0:
64,192,206157,1,0,0:0:0:0:
320,192,206157,1,0,0:0:0:0:
192,192,206271,1,0,0:0:0:0:
320,192,206386,1,0,0:0:0:0:
448,192,206386,1,0,0:0:0:0:
192,192,206500,1,0,0:0:0:0:
64,192,206500,1,0,0:0:0:0:
320,192,206615,1,0,0:0:0:0:
448,192,206615,1,0,0:0:0:0:
64,192,206729,1,0,0:0:0:0:
192,192,206729,1,0,0:0:0:0:
320,192,206844,1,0,0:0:0:0:
448,192,206844,1,0,0:0:0:0:
192,192,206958,1,0,0:0:0:0:
64,192,207073,1,0,0:0:0:0:
448,192,207187,1,0,0:0:0:0:
320,192,207302,1,0,0:0:0:0:
64,192,207302,1,0,0:0:0:0:
192,192,207416,1,0,0:0:0:0:
64,192,207531,1,0,0:0:0:0:
448,192,207531,1,0,0:0:0:0:
320,192,207645,1,0,0:0:0:0:
192,192,207760,1,0,0:0:0:0:
448,192,207760,1,0,0:0:0:0:
320,192,207874,1,0,0:0:0:0:
192,192,207989,1,0,0:0:0:0:
64,192,208103,1,0,0:0:0:0:
192,192,208218,1,0,0:0:0:0:
448,192,208218,1,0,0:0:0:0:
320,192,208332,1,0,0:0:0:0:
192,192,208447,1,0,0:0:0:0:
448,192,208561,1,0,0:0:0:0:
320,192,208676,1,0,0:0:0:0:
64,192,208676,1,0,0:0:0:0:
448,192,208790,1,0,0:0:0:0:
320,192,208905,1,0,0:0:0:0:
192,192,209019,1,0,0:0:0:0:
320,192,209134,1,0,0:0:0:0:
448,192,209134,1,0,0:0:0:0:
192,192,209248,1,0,0:0:0:0:
64,192,209363,1,0,0:0:0:0:
320,192,209477,1,0,0:0:0:0:
448,192,209592,1,0,0:0:0:0:
192,192,209592,1,0,0:0:0:0:
64,192,209706,1,0,0:0:0:0:
192,192,209821,1,0,0:0:0:0:
320,192,209935,1,0,0:0:0:0:
448,192,210050,1,0,0:0:0:0:
64,192,210050,1,0,0:0:0:0:
192,192,210164,1,0,0:0:0:0:
320,192,210279,1,0,0:0:0:0:
448,192,210393,1,0,0:0:0:0:
320,192,210508,1,0,0:0:0:0:
64,192,210508,1,0,0:0:0:0:
448,192,210622,1,0,0:0:0:0:
320,192,210737,1,0,0:0:0:0:
192,192,210851,1,0,0:0:0:0:
320,192,210966,1,0,0:0:0:0:
448,192,210966,1,0,0:0:0:0:
64,192,211080,1,0,0:0:0:0:
320,192,211195,1,0,0:0:0:0:
192,192,211309,1,0,0:0:0:0:
320,192,211424,1,0,0:0:0:0:
448,192,211424,1,0,0:0:0:0:
64,192,211538,1,0,0:0:0:0:
320,192,211653,1,0,0:0:0:0:
448,192,211767,1,0,0:0:0:0:
192,192,211882,1,0,0:0:0:0:
64,192,211882,1,0,0:0:0:0:
320,192,211996,1,0,0:0:0:0:
192,192,212111,1,0,0:0:0:0:
64,192,212225,1,0,0:0:0:0:
320,192,212340,1,0,0:0:0:0:
448,192,212340,1,0,0:0:0:0:
192,192,212454,1,0,0:0:0:0:
448,192,212569,1,0,0:0:0:0:
320,192,212683,1,0,0:0:0:0:
192,192,212798,1,0,0:0:0:0:
64,192,212798,1,0,0:0:0:0:
448,192,212912,1,0,0:0:0:0:
448,192,213027,1,0,0:0:0:0:
320,192,213141,1,0,0:0:0:0:
192,192,213256,1,0,0:0:0:0:
64,192,213256,1,0,0:0:0:0:
320,192,213370,1,0,0:0:0:0:
448,192,213485,1,0,0:0:0:0:
192,192,213485,1,0,0:0:0:0:
320,192,213599,1,0,0:0:0:0:
192,192,213714,1,0,0:0:0:0:
64,192,213714,1,0,0:0:0:0:
320,192,213828,1,0,0:0:0:0:
448,192,213943,1,0,0:0:0:0:
64,192,213943,1,0,0:0:0:0:
192,192,214057,1,0,0:0:0:0:
320,192,214172,1,0,0:0:0:0:
448,192,214172,1,0,0:0:0:0:
64,192,214286,1,0,0:0:0:0:
192,192,214401,1,0,0:0:0:0:
320,192,214515,1,0,0:0:0:0:
448,192,214630,1,0,0:0:0:0:
64,192,214630,1,0,0:0:0:0:
320,192,214744,1,0,0:0:0:0:
192,192,214859,1,0,0:0:0:0:
448,192,214973,1,0,0:0:0:0:
320,192,215088,1,0,0:0:0:0:
64,192,215088,1,0,0:0:0:0:
192,192,215203,1,0,0:0:0:0:
320,192,215317,1,0,0:0:0:0:
448,192,215432,1,0,0:0:0:0:
320,192,215546,1,0,0:0:0:0:
192,192,215546,1,0,0:0:0:0:
448,192,215661,1,0,0:0:0:0:
64,192,215775,1,0,0:0:0:0:
192,192,215890,1,0,0:0:0:0:
320,192,216004,1,0,0:0:0:0:
448,192,216004,1,0,0:0:0:0:
64,192,216119,1,0,0:0:0:0:
448,192,216233,1,0,0:0:0:0:
320,192,216348,1,0,0:0:0:0:
192,192,216462,1,0,0:0:0:0:
64,192,216462,1,0,0:0:0:0:
320,192,216577,1,0,0:0:0:0:
192,192,216691,1,0,0:0:0:0:
64,192,216806,1,0,0:0:0:0:
320,192,216920,1,0,0:0:0:0:
448,192,216920,1,0,0:0:0:0:
192,192,217035,1,0,0:0:0:0:
448,192,217149,1,0,0:0:0:0:
320,192,217264,1,0,0:0:0:0:
192,192,217378,1,0,0:0:0:0:
64,192,217378,1,0,0:0:0:0:
320,192,217493,1,0,0:0:0:0:
64,192,217607,1,0,0:0:0:0:
192,192,217722,1,0,0:0:0:0:
320,192,217836,1,0,0:0:0:0:
448,192,217836,1,0,0:0:0:0:
448,192,217951,1,0,0:0:0:0:
320,192,218065,1,0,0:0:0:0:
192,192,218180,1,0,0:0:0:0:
448,192,218294,1,0,0:0:0:0:
64,192,218294,1,0,0:0:0:0:
320,192,218409,1,0,0:0:0:0:
448,192,218523,1,0,0:0:0:0:
320,192,218638,1,0,0:0:0:0:
192,192,218752,1,0,0:0:0:0:
64,192,218752,1,0,0:0:0:0:
320,192,218867,1,0,0:0:0:0:
192,192,218981,1,0,0:0:0:0:
64,192,219096,1,0,0:0:0:0:
320,192,219210,1,0,0:0:0:0:
192,192,219210,1,0,0:0:0:0:
448,192,219325,1,0,0:0:0:0:
192,192,219439,1,0,0:0:0:0:
320,192,219554,1,0,0:0:0:0:
192,192,219668,1,0,0:0:0:0:
64,192,219668,1,0,0:0:0:0:
448,192,219783,1,0,0:0:0:0:
320,192,219897,1,0,0:0:0:0:
192,192,220012,1,0,0:0:0:0:
320,192,220126,1,0,0:0:0:0:
448,192,220126,1,0,0:0:0:0:
192,192,220241,1,0,0:0:0:0:
320,192,220355,1,0,0:0:0:0:
448,192,220470,1,0,0:0:0:0:
192,192,220584,1,0,0:0:0:0:
64,192,220584,1,0,0:0:0:0:
320,192,220699,1,0,0:0:0:0:
448,192,220813,1,0,0:0:0:0:
192,192,220813,1,0,0:0:0:0:
320,192,220928,1,0,0:0:0:0:
64,192,221042,1,0,0:0:0:0:
448,192,221042,1,0,0:0:0:0:
320,192,221157,1,0,0:0:0:0:
448,192,221271,1,0,0:0:0:0:
192,192,221271,1,0,0:0:0:0:
320,192,221386,1,0,0:0:0:0:
192,192,221500,1,0,0:0:0:0:
64,192,221500,1,0,0:0:0:0:
320,192,221615,1,0,0:0:0:0:
448,192,221729,1,0,0:0:0:0:
320,192,221844,1,0,0:0:0:0:
64,192,221958,1,0,0:0:0:0:
448,192,221958,1,0,0:0:0:0:
192,192,222073,1,0,0:0:0:0:
320,192,222187,1,0,0:0:0:0:
448,192,222302,1,0,0:0:0:0:
320,192,222416,1,0,0:0:0:0:
192,192,222416,1,0,0:0:0:0:
64,192,222531,1,0,0:0:0:0:
320,192,222645,1,0,0:0:0:0:
192,192,222760,1,0,0:0:0:0:
320,192,222874,1,0,0:0:0:0:
448,192,222874,1,0,0:0:0:0:
192,192,222989,1,0,0:0:0:0:
320,192,223103,1,0,0:0:0:0:
448,192,223218,1,0,0:0:0:0:
64,192,223332,1,0,0:0:0:0:
192,192,223332,1,0,0:0:0:0:
64,192,223447,1,0,0:0:0:0:
192,192,223561,1,0,0:0:0:0:
320,192,223676,1,0,0:0:0:0:
448,192,223790,1,0,0:0:0:0:
192,192,223790,1,0,0:0:0:0:
320,192,223905,1,0,0:0:0:0:
64,192,224019,1,0,0:0:0:0:
192,192,224134,1,0,0:0:0:0:
448,192,224248,1,0,0:0:0:0:
64,192,224248,1,0,0:0:0:0:
320,192,224363,1,0,0:0:0:0:
192,192,224477,1,0,0:0:0:0:
448,192,224592,1,0,0:0:0:0:
320,192,224706,1,0,0:0:0:0:
192,192,224706,1,0,0:0:0:0:
64,192,224821,1,0,0:0:0:0:
320,192,224935,1,0,0:0:0:0:
192,192,225050,1,0,0:0:0:0:
320,192,225164,1,0,0:0:0:0:
448,192,225164,1,0,0:0:0:0:
64,192,225279,1,0,0:0:0:0:
448,192,225393,1,0,0:0:0:0:
64,192,225508,1,0,0:0:0:0:
320,192,225622,1,0,0:0:0:0:
448,192,225622,1,0,0:0:0:0:
192,192,225737,1,0,0:0:0:0:
320,192,225851,1,0,0:0:0:0:
192,192,225966,1,0,0:0:0:0:
448,192,226080,1,0,0:0:0:0:
320,192,226080,1,0,0:0:0:0:
64,192,226195,1,0,0:0:0:0:
192,192,226309,1,0,0:0:0:0:
320,192,226424,1,0,0:0:0:0:
448,192,226538,1,0,0:0:0:0:
64,192,226538,1,0,0:0:0:0:
192,192,226653,1,0,0:0:0:0:
64,192,226767,1,0,0:0:0:0:
192,192,226882,1,0,0:0:0:0:
320,192,226996,1,0,0:0:0:0:
448,192,226996,1,0,0:0:0:0:
320,192,227168,1,0,0:0:0:0:
192,192,227168,1,0,0:0:0:0:
64,192,227340,1,0,0:0:0:0:
192,192,227340,1,0,0:0:0:0:
320,192,227454,1,0,0:0:0:0:
448,192,227454,1,0,0:0:0:0:
64,192,227626,1,0,0:0:0:0:
192,192,227626,1,0,0:0:0:0:
320,192,227626,1,0,0:0:0:0:
448,192,227798,1,0,0:0:0:0:
192,192,227798,1,0,0:0:0:0:
64,192,227951,1,0,0:0:0:0:
320,192,227951,1,0,0:0:0:0:
320,192,228084,1,0,0:0:0:0:
192,192,228084,1,0,0:0:0:0:
448,192,228218,1,0,0:0:0:0:
320,192,228218,1,0,0:0:0:0:
192,192,228370,1,0,0:0:0:0:
320,192,228370,1,0,0:0:0:0:
192,192,228523,1,0,0:0:0:0:
64,192,228523,1,0,0:0:0:0:
448,192,228676,1,0,0:0:0:0:
320,192,228676,1,0,0:0:0:0:
192,192,228676,1,0,0:0:0:0:
192,192,228828,1,0,0:0:0:0:
64,192,228828,1,0,0:0:0:0:
320,192,228828,1,0,0:0:0:0:
448,192,229057,1,0,0:0:0:0:
320,192,229057,1,0,0:0:0:0:
64,192,229286,1,0,0:0:0:0:
192,192,229286,1,0,0:0:0:0:
320,192,229401,1,0,0:0:0:0:
448,192,229515,1,0,0:0:0:0:
320,192,229744,1,0,0:0:0:0:
192,192,229744,1,0,0:0:0:0:
192,192,229973,1,0,0:0:0:0:
320,192,229973,1,0,0:0:0:0:
448,192,230088,1,0,0:0:0:0:
64,192,230088,1,0,0:0:0:0:
192,192,230202,1,0,0:0:0:0:
320,192,230202,1,0,0:0:0:0:
320,192,230660,1,0,0:0:0:0:
64,192,230660,1,0,0:0:0:0:
192,192,230660,1,0,0:0:0:0:
448,192,231118,1,0,0:0:0:0:
192,192,231348,1,0,0:0:0:0:
320,192,231462,1,0,0:0:0:0:
448,192,231577,1,0,0:0:0:0:
192,192,231806,1,0,0:0:0:0:
64,192,231806,1,0,0:0:0:0:
320,192,231920,1,0,0:0:0:0:
448,192,232035,1,0,0:0:0:0:
192,192,232149,1,0,0:0:0:0:
320,192,232264,1,0,0:0:0:0:
64,192,232378,1,0,0:0:0:0:
192,192,232493,1,0,0:0:0:0:
320,192,232493,1,0,0:0:0:0:
448,192,232607,1,0,0:0:0:0:
320,192,232722,1,0,0:0:0:0:
64,192,232836,1,0,0:0:0:0:
192,192,232951,1,0,0:0:0:0:
320,192,233065,1,0,0:0:0:0:
448,192,233180,1,0,0:0:0:0:
64,192,233638,1,0,0:0:0:0:
192,192,233638,1,0,0:0:0:0:
448,192,233752,1,0,0:0:0:0:
320,192,233752,1,0,0:0:0:0:
64,192,233867,1,0,0:0:0:0:
320,192,233981,1,0,0:0:0:0:
192,192,234096,1,0,0:0:0:0:
448,192,234210,1,0,0:0:0:0:
192,192,234325,1,0,0:0:0:0:
64,192,234325,1,0,0:0:0:0:
320,192,234783,1,0,0:0:0:0:
448,192,234783,1,0,0:0:0:0:
64,192,235012,1,0,0:0:0:0:
320,192,235126,1,0,0:0:0:0:
192,192,235241,1,0,0:0:0:0:
448,192,235470,1,0,0:0:0:0:
320,192,235584,1,0,0:0:0:0:
192,192,235699,1,0,0:0:0:0:
64,192,235813,1,0,0:0:0:0:
192,192,235928,1,0,0:0:0:0:
320,192,236042,1,0,0:0:0:0:
448,192,236157,1,0,0:0:0:0:
64,192,236157,1,0,0:0:0:0:
192,192,236386,1,0,0:0:0:0:
320,192,236386,1,0,0:0:0:0:
448,192,236615,1,0,0:0:0:0:
320,192,236615,1,0,0:0:0:0:
192,192,236729,1,0,0:0:0:0:
64,192,236844,1,0,0:0:0:0:
448,192,237073,1,0,0:0:0:0:
64,192,237073,1,0,0:0:0:0:
448,192,237302,1,0,0:0:0:0:
64,192,237302,1,0,0:0:0:0:
192,192,237416,1,0,0:0:0:0:
320,192,237416,1,0,0:0:0:0:
448,192,237531,1,0,0:0:0:0:
64,192,237531,1,0,0:0:0:0:
320,192,237760,1,0,0:0:0:0:
448,192,237989,1,0,0:0:0:0:
192,192,237989,1,0,0:0:0:0:
320,192,237989,1,0,0:0:0:0:
64,192,238218,1,0,0:0:0:0:
192,192,238447,1,0,0:0:0:0:
320,192,238447,1,0,0:0:0:0:
448,192,238676,1,0,0:0:0:0:
448,192,238905,1,0,0:0:0:0:
320,192,238905,1,0,0:0:0:0:
64,192,239134,1,0,0:0:0:0:
320,192,239248,1,0,0:0:0:0:
192,192,239363,1,0,0:0:0:0:
448,192,239477,1,0,0:0:0:0:
64,192,239592,1,0,0:0:0:0:
320,192,239706,1,0,0:0:0:0:
192,192,239821,1,0,0:0:0:0:
448,192,239821,1,0,0:0:0:0:
320,192,239935,1,0,0:0:0:0:
64,192,240050,1,0,0:0:0:0:
192,192,240279,1,0,0:0:0:0:
448,192,240279,1,0,0:0:0:0:
320,192,240508,1,0,0:0:0:0:
64,192,240508,1,0,0:0:0:0:
192,192,240966,1,0,0:0:0:0:
448,192,240966,1,0,0:0:0:0:
320,192,241080,1,0,0:0:0:0:
64,192,241195,1,0,0:0:0:0:
192,192,241309,1,0,0:0:0:0:
448,192,241424,1,0,0:0:0:0:
64,192,241538,1,0,0:0:0:0:
320,192,241653,1,0,0:0:0:0:
192,192,241653,1,0,0:0:0:0:
448,192,241681,1,0,0:0:0:0:
64,192,242111,1,0,0:0:0:0:
320,192,242111,1,0,0:0:0:0:
192,192,242111,1,0,0:0:0:0:
448,192,242340,1,0,0:0:0:0:
320,192,242454,1,0,0:0:0:0:
192,192,242569,1,0,0:0:0:0:
64,192,242798,1,0,0:0:0:0:
448,192,242798,1,0,0:0:0:0:
320,192,242912,1,0,0:0:0:0:
192,192,243027,1,0,0:0:0:0:
448,192,243141,1,0,0:0:0:0:
64,192,243256,1,0,0:0:0:0:
192,192,243370,1,0,0:0:0:0:
320,192,243485,1,0,0:0:0:0:
448,192,243485,1,0,0:0:0:0:
192,192,243714,1,0,0:0:0:0:
64,192,243714,1,0,0:0:0:0:
320,192,243714,1,0,0:0:0:0:
448,192,243943,1,0,0:0:0:0:
320,192,243943,1,0,0:0:0:0:
192,192,243943,1,0,0:0:0:0:
320,192,244172,1,0,0:0:0:0:
192,192,244172,1,0,0:0:0:0:
64,192,244172,1,0,0:0:0:0:
192,192,244401,1,0,0:0:0:0:
320,192,244401,1,0,0:0:0:0:
448,192,244401,1,0,0:0:0:0:
320,192,244630,1,0,0:0:0:0:
192,192,244630,1,0,0:0:0:0:
64,192,244630,1,0,0:0:0:0:
448,192,244859,1,0,0:0:0:0:
320,192,244859,1,0,0:0:0:0:
320,192,245088,1,0,0:0:0:0:
192,192,245088,1,0,0:0:0:0:
192,192,245317,1,0,0:0:0:0:
64,192,245317,1,0,0:0:0:0:
448,192,245317,128,0,246462:0:0:0:0:
320,192,245546,1,0,0:0:0:0:
192,192,245775,1,0,0:0:0:0:
64,192,245775,1,0,0:0:0:0:
192,192,246004,1,0,0:0:0:0:
320,192,246233,1,0,0:0:0:0:
320,192,246462,128,0,246691:0:0:0:0:
64,192,246462,1,0,0:0:0:0:
192,192,246691,128,0,246920:0:0:0:0:
64,192,246920,128,0,247149:0:0:0:0:
320,192,247149,128,0,247836:0:0:0:0:
448,192,247378,1,0,0:0:0:0:
192,192,247607,1,0,0:0:0:0:
64,192,247836,128,0,248523:0:0:0:0:
448,192,248065,1,0,0:0:0:0:
320,192,248294,1,0,0:0:0:0:
192,192,248523,128,0,248638:0:0:0:0:
320,192,248638,128,0,248752:0:0:0:0:
448,192,248752,128,0,248867:0:0:0:0:
320,192,248867,128,0,248981:0:0:0:0:
192,192,248981,128,0,249210:0:0:0:0:
64,192,249210,128,0,249439:0:0:0:0:
192,192,249439,128,0,249668:0:0:0:0:
320,192,249668,128,0,249897:0:0:0:0:
448,192,249897,128,0,250355:0:0:0:0:
192,192,250126,1,0,0:0:0:0:
64,192,250126,1,0,0:0:0:0:
320,192,250355,128,0,250813:0:0:0:0:
192,192,250355,1,0,0:0:0:0:
64,192,250355,1,0,0:0:0:0:
192,192,250584,1,0,0:0:0:0:
64,192,250584,1,0,0:0:0:0:
448,192,250813,1,0,0:0:0:0:
320,192,250870,1,0,0:0:0:0:
192,192,250928,1,0,0:0:0:0:
64,192,250985,1,0,0:0:0:0:
448,192,251042,1,0,0:0:0:0:
320,192,251099,1,0,0:0:0:0:
192,192,251157,1,0,0:0:0:0:
64,192,251214,1,0,0:0:0:0:
448,192,251271,1,0,0:0:0:0:
320,192,251328,1,0,0:0:0:0:
192,192,251386,1,0,0:0:0:0:
64,192,251443,1,0,0:0:0:0:
448,192,251500,1,0,0:0:0:0:
320,192,251557,1,0,0:0:0:0:
192,192,251615,1,0,0:0:0:0:
64,192,251672,1,0,0:0:0:0:
448,192,251729,1,0,0:0:0:0:
320,192,251786,1,0,0:0:0:0:
64,192,251844,1,0,0:0:0:0:
192,192,251901,1,0,0:0:0:0:
448,192,251958,1,0,0:0:0:0:
320,192,252015,1,0,0:0:0:0:
64,192,252073,1,0,0:0:0:0:
192,192,252130,1,0,0:0:0:0:
320,192,252187,1,0,0:0:0:0:
448,192,252244,1,0,0:0:0:0:
64,192,252302,1,0,0:0:0:0:
192,192,252359,1,0,0:0:0:0:
320,192,252416,1,0,0:0:0:0:
448,192,252473,1,0,0:0:0:0:
64,192,252531,1,0,0:0:0:0:
192,192,252588,1,0,0:0:0:0:
320,192,252645,1,0,0:0:0:0:
448,192,252645,1,0,0:0:0:0:
64,192,252874,1,0,0:0:0:0:
192,192,252989,1,0,0:0:0:0:
320,192,253103,1,0,0:0:0:0:
448,192,253332,1,0,0:0:0:0:
192,192,253561,1,0,0:0:0:0:
64,192,253676,1,0,0:0:0:0:
320,192,253790,1,0,0:0:0:0:
192,192,253790,1,0,0:0:0:0:
64,192,254019,1,0,0:0:0:0:
192,192,254248,1,0,0:0:0:0:
448,192,254477,1,0,0:0:0:0:
64,192,254477,1,0,0:0:0:0:
192,192,254592,1,0,0:0:0:0:
320,192,254592,1,0,0:0:0:0:
448,192,254706,1,0,0:0:0:0:
64,192,254706,1,0,0:0:0:0:
192,192,254935,1,0,0:0:0:0:
320,192,254935,1,0,0:0:0:0:
448,192,255164,1,0,0:0:0:0:
64,192,255393,1,0,0:0:0:0:
192,192,255393,1,0,0:0:0:0:
320,192,255622,1,0,0:0:0:0:
448,192,255737,1,0,0:0:0:0:
192,192,255851,1,0,0:0:0:0:
320,192,255966,1,0,0:0:0:0:
64,192,256080,1,0,0:0:0:0:
192,192,256195,1,0,0:0:0:0:
448,192,256309,1,0,0:0:0:0:
320,192,256309,1,0,0:0:0:0:
192,192,256538,1,0,0:0:0:0:
448,192,256767,1,0,0:0:0:0:
320,192,256767,1,0,0:0:0:0:
192,192,256996,1,0,0:0:0:0:
64,192,257225,1,0,0:0:0:0:
320,192,257454,1,0,0:0:0:0:
448,192,257569,1,0,0:0:0:0:
192,192,257683,1,0,0:0:0:0:
320,192,257798,1,0,0:0:0:0:
448,192,257912,1,0,0:0:0:0:
320,192,258141,1,0,0:0:0:0:
448,192,258141,1,0,0:0:0:0:
64,192,258141,1,0,0:0:0:0:
192,192,258141,1,0,0:0:0:0:
64,192,258370,1,0,0:0:0:0:
192,192,258370,1,0,0:0:0:0:
320,192,258370,1,0,0:0:0:0:
448,192,258370,1,0,0:0:0:0:
448,192,258599,1,0,0:0:0:0:
320,192,258599,1,0,0:0:0:0:
192,192,258599,1,0,0:0:0:0:
64,192,258599,1,0,0:0:0:0:
64,192,258828,1,0,0:0:0:0:
192,192,258828,1,0,0:0:0:0:
320,192,258828,1,0,0:0:0:0:
448,192,258828,1,0,0:0:0:0:
448,192,259057,1,0,0:0:0:0:
192,192,259057,1,0,0:0:0:0:
320,192,259057,1,0,0:0:0:0:
64,192,259057,1,0,0:0:0:0:
64,192,259286,1,0,0:0:0:0:
192,192,259286,1,0,0:0:0:0:
320,192,259286,1,0,0:0:0:0:
448,192,259286,1,0,0:0:0:0:
448,192,259515,1,0,0:0:0:0:
320,192,259515,1,0,0:0:0:0:
192,192,259515,1,0,0:0:0:0:
64,192,259515,1,0,0:0:0:0:
64,192,259744,1,0,0:0:0:0:
192,192,259744,1,0,0:0:0:0:
320,192,259744,1,0,0:0:0:0:
448,192,259744,1,0,0:0:0:0:
448,192,259973,1,0,0:0:0:0:
320,192,259973,1,0,0:0:0:0:
192,192,259973,1,0,0:0:0:0:
64,192,259973,1,0,0:0:0:0:
