osu file format v14

[General]
AudioFilename: audio.mp3
AudioLeadIn: 0
PreviewTime: 21647
Countdown: 0
SampleSet: Soft
StackLeniency: 0.5
Mode: 0
LetterboxInBreaks: 0
WidescreenStoryboard: 1

[Editor]
Bookmarks: 11150,45814,88482,112815,136482,179148
DistanceSpacing: 1.3
BeatDivisor: 4
GridSize: 32
TimelineZoom: 1.700001

[Metadata]
Title:Science Blaster (Nirre & Acid Usagi Remix)
TitleUnicode:Science Blaster (Nirre & Acid Usagi Remix)
Artist:SpellingPhailer
ArtistUnicode:SpellingPhailer
Creator:MrRainbowDoge
Version:Hyde's Another
Source:The Game Theorists
Tags:electronic instrumental rock guitar matpat matthew patrick the game film food style theorists theory mario hydemanrs arutama kenpi
BeatmapID:4534824
BeatmapSetID:2131881

[Difficulty]
HPDrainRate:4
CircleSize:3.7
OverallDifficulty:8.7
ApproachRate:9.1
SliderMultiplier:1.8
SliderTickRate:1

[Events]
//Background and Video events
0,0,"gametheorybg_scienceblasterrremix.png",0,0
//Break Periods
2,112682,122482
//Storyboard Layer 0 (Background)
//Storyboard Layer 1 (Fail)
//Storyboard Layer 2 (Pass)
//Storyboard Layer 3 (Foreground)
//Storyboard Layer 4 (Overlay)
//Storyboard Sound Samples

[TimingPoints]
484,333.333333333333,4,2,1,50,1,0
11150,-133.333333333333,4,2,1,50,0,0
19149,333.333333333333,4,2,1,50,1,0
24482,-90.9090909090909,4,2,1,80,0,0
24648,-90.9090909090909,4,2,1,80,0,0
24732,-90.9090909090909,4,2,1,65,0,0
27148,-90.9090909090909,4,2,1,80,0,0
27315,-90.9090909090909,4,2,1,65,0,0
29815,-90.9090909090909,4,2,1,80,0,0
29982,-90.9090909090909,4,2,1,80,0,0
30065,-90.9090909090909,4,2,1,65,0,0
32482,-90.9090909090909,4,2,1,80,0,0
32648,-90.9090909090909,4,2,1,65,0,0
35148,-90.9090909090909,4,2,1,80,0,0
35398,-90.9090909090909,4,2,1,65,0,0
37815,-90.9090909090909,4,2,1,80,0,0
37982,-90.9090909090909,4,2,1,65,0,0
40482,-90.9090909090909,4,2,1,80,0,0
40732,-90.9090909090909,4,2,1,65,0,0
43148,-90.9090909090909,4,2,1,80,0,0
43315,-90.9090909090909,4,2,1,65,0,0
44482,-90.9090909090909,4,2,1,80,0,0
45815,-166.666666666667,4,2,1,65,0,0
45982,-166.666666666667,4,2,1,50,0,0
47148,-166.666666666667,4,2,1,50,0,0
47815,-166.666666666667,4,2,1,50,0,0
47982,-111.111111111111,4,2,1,50,0,0
48482,-111.111111111111,4,2,1,60,0,0
59148,-111.111111111111,4,2,1,80,0,0
59398,-111.111111111111,4,2,1,65,0,0
80482,-133.333333333333,4,2,1,60,0,0
88482,-111.111111111111,4,2,1,60,0,0
91148,-90.9090909090908,4,2,1,80,0,0
91398,-90.9090909090908,4,2,1,65,0,0
93815,-90.9090909090908,4,2,1,80,0,0
93982,-90.9090909090908,4,2,1,65,0,0
96482,-90.9090909090908,4,2,1,80,0,0
96732,-90.9090909090908,4,2,1,65,0,0
99148,-90.9090909090908,4,2,1,80,0,0
99315,-90.9090909090908,4,2,1,65,0,0
101815,-90.9090909090908,4,2,1,80,0,0
102065,-90.9090909090908,4,2,1,65,0,0
104482,-90.9090909090908,4,2,1,80,0,0
104648,-90.9090909090908,4,2,1,65,0,0
107148,-90.9090909090908,4,2,1,80,0,0
107398,-90.9090909090908,4,2,1,65,0,0
109815,-90.9090909090908,4,2,1,80,0,0
109982,-90.9090909090908,4,2,1,65,0,0
111148,-71.4285714285714,4,2,1,65,0,0
112482,-100,4,2,1,90,0,0
112565,-100,4,2,1,50,0,0
123148,-133.333333333333,4,2,1,50,0,0
134357,-133.333333333333,4,2,1,5,0,0
134378,-133.333333333333,4,2,1,50,0,0
134398,-133.333333333333,4,2,1,5,0,0
134419,-133.333333333333,4,2,1,50,0,0
134440,-133.333333333333,4,2,1,5,0,0
134461,-133.333333333333,4,2,1,50,0,0
134482,-133.333333333333,4,2,1,5,0,0
134503,-133.333333333333,4,2,1,50,0,0
134523,-133.333333333333,4,2,1,5,0,0
134544,-133.333333333333,4,2,1,50,0,0
134565,-133.333333333333,4,2,1,5,0,0
134586,-133.333333333333,4,2,1,50,0,0
135169,-133.333333333333,4,2,1,5,0,0
135176,-133.333333333333,4,2,1,50,0,0
135190,-133.333333333333,4,2,1,5,0,0
135204,-133.333333333333,4,2,1,50,0,0
135211,-133.333333333333,4,2,1,5,0,0
135232,-133.333333333333,4,2,1,50,0,0
135253,-133.333333333333,4,2,1,5,0,0
135260,-133.333333333333,4,2,1,50,0,0
135273,-133.333333333333,4,2,1,5,0,0
135287,-133.333333333333,4,2,1,50,0,0
135294,-133.333333333333,4,2,1,5,0,0
135315,-133.333333333333,4,2,1,50,0,0
136482,-90.9090909090909,4,2,1,80,0,0
136732,-90.9090909090909,4,2,1,65,0,0
139148,-90.9090909090909,4,2,1,80,0,0
139315,-90.9090909090909,4,2,1,65,0,0
141815,-90.9090909090909,4,2,1,80,0,0
142065,-90.9090909090909,4,2,1,65,0,0
144482,-90.9090909090909,4,2,1,80,0,0
144648,-90.9090909090909,4,2,1,65,0,0
147148,-90.9090909090909,4,2,1,80,0,0
147398,-90.9090909090909,4,2,1,65,0,0
149815,-90.9090909090909,4,2,1,80,0,0
149982,-90.9090909090909,4,2,1,65,0,0
152482,-90.9090909090909,4,2,1,80,0,0
152732,-90.9090909090909,4,2,1,65,0,0
155148,-90.9090909090909,4,2,1,80,0,0
155315,-90.9090909090909,4,2,1,65,0,0
156482,-90.9090909090909,4,2,1,80,0,0
158065,-90.9090909090909,4,2,1,65,0,0
160482,-90.9090909090909,4,2,1,80,0,0
160648,-90.9090909090909,4,2,1,65,0,0
163148,-90.9090909090909,4,2,1,80,0,0
163398,-90.9090909090909,4,2,1,65,0,0
165815,-90.9090909090909,4,2,1,80,0,0
165982,-90.9090909090909,4,2,1,65,0,0
168482,-90.9090909090909,4,2,1,80,0,0
168732,-90.9090909090909,4,2,1,65,0,0
171148,-90.9090909090909,4,2,1,80,0,0
171315,-90.9090909090909,4,2,1,65,0,0
173815,-90.9090909090909,4,2,1,80,0,0
174065,-90.9090909090909,4,2,1,65,0,0
176482,-90.9090909090909,4,2,1,80,0,0
176648,-90.9090909090909,4,2,1,65,0,0
177815,-90.9090909090909,4,2,1,80,0,0
179148,-90.9090909090909,4,2,1,5,0,0

[Colours]
Combo1 : 56,171,239
Combo2 : 10,184,49
Combo3 : 206,38,9
Combo4 : 250,235,133

[HitObjects]
10,153,11150,6,0,L|43:283,1,135.000005149842,4|0,0:1|0:0,0:0:0:0:
157,247,11650,2,0,L|124:377,1,135.000005149842,4|0,0:1|0:0,0:0:0:0:
252,278,12150,2,0,P|255:213|213:159,1,135.000005149842,4|0,0:1|0:0,0:0:0:0:
130,37,12650,2,0,P|133:102|91:156,1,135.000005149842,4|0,0:1|0:0,0:0:0:0:
252,278,13150,6,0,P|288:280|326:267,1,67.5000025749208,4|0,0:1|0:0,0:0:0:0:
135,232,13484,2,0,P|102:222|69:225,1,67.5000025749208,4|8,0:1|0:0,0:0:0:0:
227,147,13817,6,0,L|357:114,1,135.000005149842,4|0,0:1|0:0,0:0:0:0:
303,1,14317,2,0,L|433:34,1,135.000005149842,4|0,0:1|0:0,0:0:0:0:
493,156,14817,2,0,P|428:153|374:195,1,135.000005149842,4|0,0:1|0:0,0:0:0:0:
252,278,15317,2,0,P|317:275|371:317,1,135.000005149842,4|0,0:1|0:0,0:0:0:0:
502,384,15817,6,0,L|512:318,1,67.5000025749208,4|0,0:1|0:0,0:0:0:0:
430,132,16151,2,0,L|421:199,1,67.5000025749208,4|8,0:1|0:0,0:0:0:0:
252,278,16484,6,0,P|249:213|291:159,1,135.000005149842,4|0,0:1|0:0,0:0:0:0:
392,13,16984,2,0,P|389:78|431:132,1,135.000005149842,4|0,0:1|0:0,0:0:0:0:
512,249,17484,2,0,L|369:223,1,135.000005149842,4|0,0:1|0:0,0:0:0:0:
217,114,17984,2,0,L|360:88,1,135.000005149842,4|0,0:1|0:0,0:0:0:0:
210,179,18484,6,0,P|207:143|221:105,1,67.5000025749208,4|0,0:1|0:0,0:0:0:0:
252,278,18818,2,0,P|261:310|258:343,1,67.5000025749208,4|8,0:1|0:0,0:0:0:0:
155,384,19149,5,4,0:0:0:0:
149,359,19232,1,0,0:0:0:0:
143,334,19315,2,0,L|130:274,2,45,0|0|0,0:0|0:0|0:0,0:0:0:0:
193,207,19649,5,8,0:0:0:0:
198,182,19732,1,0,0:0:0:0:
204,158,19815,2,0,L|216:98,2,45,0|0|0,0:0|0:0|0:0,0:0:0:0:
278,271,20149,5,8,0:0:0:0:
283,297,20232,1,0,0:0:0:0:
289,322,20315,2,0,L|301:381,2,45,0|0|0,0:0|0:0|0:0,0:0:0:0:
362,207,20649,5,8,0:0:0:0:
364,181,20732,1,0,0:0:0:0:
368,157,20815,1,0,0:0:0:0:
371,133,20898,1,0,0:0:0:0:
374,108,20982,1,0,0:0:0:0:
318,28,21148,6,0,L|224:11,1,90,8|8,0:0|0:0,0:0:0:0:
124,130,21482,2,0,L|212:113,1,90,8|8,0:0|0:0,0:0:0:0:
337,165,21815,37,2,0:0:0:0:
435,188,22148,5,2,0:0:0:0:
314,263,22482,37,2,0:0:0:0:
412,286,22648,21,2,0:0:0:0:
412,286,22982,1,2,0:0:0:0:
272,242,23315,5,8,0:0:0:0:
272,242,23398,1,8,0:0:0:0:
272,242,23482,2,0,P|241:245|208:261,2,45,8|8|8,0:0|0:0|0:0,0:0:0:0:
45,360,23815,1,8,3:2:0:0:
45,360,23898,1,0,0:0:0:0:
45,360,23982,1,0,3:0:0:0:
112,156,24148,1,8,0:0:0:0:
208,354,24315,1,8,0:0:0:0:
17,234,24482,6,0,L|-6:106,1,99.0000030212403,4|0,3:0|0:0,0:0:0:0:
221,3,24815,2,0,L|198:131,1,99.0000030212403,10|0,0:0|0:0,0:0:0:0:
0,25,25148,1,2,3:2:0:0:
199,265,25315,2,0,P|238:252|310:260,1,99.0000030212403,2|8,3:2|0:0,0:0:0:0:
395,357,25648,2,0,L|407:243,1,99.0000030212403,2|0,0:0|0:0,0:0:0:0:
214,55,25982,5,2,3:2:0:0:
378,6,26148,1,10,0:0:0:0:
282,135,26315,1,2,3:2:0:0:
475,78,26482,2,0,P|496:136|484:195,1,99.0000030212403,2|2,3:2|3:2,0:0:0:0:
328,319,26815,2,0,P|307:261|319:202,1,99.0000030212403,10|2,0:0|3:2,0:0:0:0:
385,146,27148,5,4,3:0:0:0:
183,241,27315,1,2,3:2:0:0:
389,374,27482,2,0,L|499:374,1,99.0000030212403,10|2,0:0|0:0,0:0:0:0:
176,249,27815,2,0,L|77:249,1,99.0000030212403,2|2,3:2|3:2,0:0:0:0:
228,378,28148,1,8,0:0:0:0:
348,208,28315,6,0,P|335:142|282:108,1,99.0000030212403,2|0,3:2|0:0,0:0:0:0:
51,156,28648,1,2,3:2:0:0:
229,215,28815,1,10,0:0:0:0:
153,49,28982,1,2,3:2:0:0:
127,273,29148,5,2,3:2:0:0:
245,70,29315,1,2,3:2:0:0:
36,163,29482,1,10,0:0:0:0:
278,142,29649,1,2,3:2:0:0:
85,363,29815,6,0,P|138:375|197:352,1,99.0000030212403,4|0,3:0|0:0,0:0:0:0:
360,182,30148,2,0,P|312:170|265:182,1,99.0000030212403,10|0,0:0|0:0,0:0:0:0:
127,273,30482,1,2,3:2:0:0:
170,84,30648,2,0,L|144:206,1,99.0000030212403,2|8,3:2|0:0,0:0:0:0:
0,301,30982,2,0,L|20:204,1,99.0000030212403,2|0,3:2|0:0,0:0:0:0:
150,181,31315,5,2,3:2:0:0:
185,354,31481,1,10,0:0:0:0:
17,227,31648,1,2,3:2:0:0:
227,252,31815,2,0,P|248:194|236:135,1,99.0000030212403,2|2,3:2|3:2,0:0:0:0:
43,44,32148,2,0,P|41:93|60:138,1,99.0000030212403,8|2,0:0|0:0,0:0:0:0:
209,268,32482,5,4,3:0:0:0:
382,196,32649,1,2,3:2:0:0:
232,86,32816,2,0,L|122:86,1,99.0000030212403,10|2,0:0|0:0,0:0:0:0:
0,226,33149,2,0,L|99:226,1,99.0000030212403,2|2,3:2|3:2,0:0:0:0:
37,84,33482,1,8,0:0:0:0:
168,0,33649,6,0,P|155:66|102:100,1,99.0000030212403,2|6,3:2|0:0,0:0:0:0:
1,164,33982,1,2,3:2:0:0:
196,150,34148,1,14,0:0:0:0:
83,0,34315,1,0,0:0:0:0:
88,217,34482,5,2,3:2:0:0:
175,39,34648,1,2,3:2:0:0:
98,204,34815,1,10,0:0:0:0:
170,50,34981,1,2,0:0:0:0:
244,338,35148,6,0,L|116:361,1,99.0000030212403,4|0,3:0|0:0,0:0:0:0:
7,165,35481,2,0,L|135:188,1,99.0000030212403,8|0,0:0|0:0,0:0:0:0:
27,384,35814,1,2,3:2:0:0:
208,228,35982,2,0,L|311:226,1,99.0000030212403,2|8,3:2|0:0,0:0:0:0:
498,201,36315,2,0,L|395:199,1,99.0000030212403,2|0,3:2|0:0,0:0:0:0:
380,280,36648,5,2,3:2:0:0:
335,135,36815,1,10,0:0:0:0:
505,210,36982,1,2,3:2:0:0:
279,384,37148,2,0,L|259:276,1,99.0000030212403,2|2,3:2|3:2,0:0:0:0:
483,214,37482,2,0,L|464:311,1,99.0000030212403,10|2,0:0|3:2,0:0:0:0:
231,140,37815,5,4,3:0:0:0:
133,321,37982,1,2,3:2:0:0:
92,127,38148,2,0,P|35:120|-11:151,1,99.0000030212403,10|2,0:0|3:2,0:0:0:0:
4,326,38482,2,0,P|48:346|96:337,1,99.0000030212403,2|2,3:2|3:2,0:0:0:0:
211,201,38815,1,10,0:0:0:0:
39,55,38982,6,0,L|61:272,1,198.000006042481,2|2,3:2|3:2,0:0:0:0:
147,106,39482,1,10,0:0:0:0:
218,331,39648,1,2,3:2:0:0:
372,137,39815,5,2,3:2:0:0:
134,213,39982,1,2,3:2:0:0:
359,141,40148,1,10,0:0:0:0:
149,208,40315,1,2,3:2:0:0:
268,357,40482,6,0,L|373:347,1,99.0000030212403,4|0,3:0|0:0,0:0:0:0:
512,267,40815,2,0,L|413:276,1,99.0000030212403,10|0,0:0|0:0,0:0:0:0:
317,169,41148,2,0,L|335:289,1,99.0000030212403,2|2,3:2|3:2,0:0:0:0:
415,384,41482,1,8,0:0:0:0:
245,253,41648,2,0,P|185:286|181:347,1,99.0000030212403,2|0,3:2|0:0,0:0:0:0:
87,384,41982,5,2,3:2:0:0:
159,164,42148,1,10,0:0:0:0:
30,278,42315,1,2,3:2:0:0:
230,236,42482,2,0,L|346:236,1,99.0000030212403,2|2,3:2|3:2,0:0:0:0:
99,88,42815,2,0,L|0:88,1,99.0000030212403,10|2,0:0|3:2,0:0:0:0:
245,322,43148,5,4,3:0:0:0:
385,172,43315,1,2,3:2:0:0:
201,53,43482,2,0,L|217:176,1,99.0000030212403,10|2,0:0|3:2,0:0:0:0:
358,360,43815,2,0,L|374:237,1,99.0000030212403,2|2,3:2|3:2,0:0:0:0:
386,132,44148,1,10,0:0:0:0:
509,258,44315,5,2,3:2:0:0:
509,258,44482,2,0,P|442:228|394:236,1,99.0000030212403,4|0,3:0|0:0,0:0:0:0:
165,260,44815,2,0,P|213:255|255:229,1,99.0000030212403,4|0,3:0|0:0,0:0:0:0:
441,55,45148,2,0,P|404:87|386:132,1,99.0000030212403,4|0,3:0|0:0,0:0:0:0:
338,383,45481,2,0,P|349:336|337:288,1,99.0000030212403,4|0,3:0|0:0,0:0:0:0:
285,133,45815,6,0,L|158:149,1,107.999996704102,4|0,3:0|0:0,0:0:0:0:
213,328,46315,2,0,L|262:210,1,107.999996704102,8|0,0:0|0:0,0:0:0:0:
82,165,46815,2,0,L|159:266,1,107.999996704102,8|0,0:0|0:0,0:0:0:0:
97,384,47815,1,0,3:0:0:0:
20,266,47982,5,8,0:0:0:0:
20,266,48065,1,8,0:0:0:0:
20,266,48148,2,0,L|70:246,1,40.4999987640381,8|8,0:0|0:0,0:0:0:0:
178,201,48315,1,8,0:0:0:0:
58,141,48482,6,0,P|34:77|111:15,1,161.999995056153,4|8,3:0|0:0,0:0:0:0:
186,87,48982,1,0,0:0:0:0:
186,87,49148,2,0,L|278:107,1,80.9999975280763,0|0,3:0|3:0,0:0:0:0:
331,17,49482,2,0,L|423:-3,1,80.9999975280763,8|0,0:0|0:0,0:0:0:0:
512,88,49815,6,0,P|432:112|416:216,1,161.999995056153,2|8,3:2|0:0,0:0:0:0:
495,282,50315,1,0,0:0:0:0:
495,282,50481,2,0,L|515:190,1,80.9999975280763,0|0,3:0|3:0,0:0:0:0:
380,298,50815,2,0,L|400:390,1,80.9999975280763,8|0,0:0|0:0,0:0:0:0:
275,323,51148,6,0,L|107:297,1,161.999995056153,2|8,3:2|0:0,0:0:0:0:
14,367,51648,1,0,0:0:0:0:
14,367,51815,2,0,L|-7:251,1,80.9999975280763,0|0,3:0|3:0,0:0:0:0:
74,200,52148,2,0,L|88:120,1,80.9999975280763,8|0,0:0|0:0,0:0:0:0:
112,18,52481,6,0,P|25:34|-9:116,1,161.999995056153,2|8,3:2|0:0,0:0:0:0:
209,166,52981,1,0,0:0:0:0:
209,166,53147,2,0,L|189:74,1,80.9999975280763,0|0,3:2|3:2,0:0:0:0:
283,0,53481,2,0,L|303:92,1,80.9999975280763,12|0,0:0|0:0,0:0:0:0:
449,13,53815,6,0,B|394:41|394:41|431:165,1,161.999995056153,4|8,3:0|0:0,0:0:0:0:
498,261,54315,1,0,0:0:0:0:
498,261,54482,2,0,P|447:240|396:245,1,80.9999975280763,0|0,3:0|3:0,0:0:0:0:
251,196,54815,2,0,P|302:175|353:180,1,80.9999975280763,8|0,0:0|0:0,0:0:0:0:
383,380,55148,6,0,P|384:276|451:227,1,161.999995056153,2|8,3:2|0:0,0:0:0:0:
257,304,55648,1,0,0:0:0:0:
257,304,55815,2,0,P|206:325|155:320,1,80.9999975280763,0|0,3:0|3:0,0:0:0:0:
50,185,56148,2,0,P|90:188|126:206,1,80.9999975280763,8|0,0:0|0:0,0:0:0:0:
69,345,56482,6,0,L|45:147,1,161.999995056153,2|8,3:2|0:0,0:0:0:0:
123,35,56982,1,0,0:0:0:0:
123,35,57148,2,0,L|135:135,1,80.9999975280763,0|0,3:0|3:0,0:0:0:0:
240,187,57482,2,0,L|228:87,1,80.9999975280763,8|0,0:0|0:0,0:0:0:0:
319,1,57815,6,0,P|343:81|447:97,1,161.999995056153,2|8,3:2|0:0,0:0:0:0:
495,195,58315,1,0,0:0:0:0:
495,195,58481,2,0,L|515:103,1,80.9999975280763,0|8,3:0|0:0,0:0:0:0:
387,224,58815,1,8,0:0:0:0:
381,363,58982,1,8,0:0:0:0:
381,363,59065,1,8,0:0:0:0:
381,363,59148,6,0,P|440:303|513:308,1,161.999995056153,4|8,3:0|0:0,0:0:0:0:
377,207,59648,1,0,0:0:0:0:
377,207,59814,2,0,L|297:224,1,80.9999975280763,0|0,3:0|3:0,0:0:0:0:
364,106,60148,2,0,L|456:86,1,80.9999975280763,8|0,0:0|0:0,0:0:0:0:
333,12,60481,6,0,P|266:63|289:165,1,161.999995056153,0|8,0:0|0:0,0:0:0:0:
172,49,60982,1,0,3:0:0:0:
172,49,61148,2,0,P|108:31|87:36,1,80.9999975280763,2|0,3:2|3:0,0:0:0:0:
131,165,61482,1,8,0:0:0:0:
4,127,61648,1,0,0:0:0:0:
17,234,61815,6,0,B|-9:288|-9:288|40:396,1,161.999995056153,2|8,3:2|0:0,0:0:0:0:
120,282,62315,1,2,0:0:0:0:
120,282,62481,2,0,L|212:302,1,80.9999975280763,0|0,3:0|3:0,0:0:0:0:
279,384,62815,2,0,L|371:364,1,80.9999975280763,10|0,0:0|3:0,0:0:0:0:
412,175,63148,6,0,P|332:199|316:303,1,161.999995056153,6|8,0:0|0:0,0:0:0:0:
466,346,63648,1,0,3:0:0:0:
466,346,63814,2,0,P|440:304|446:254,1,80.9999975280763,0|0,3:0|3:0,0:0:0:0:
512,194,64148,1,8,0:0:0:0:
481,92,64315,1,0,3:0:0:0:
481,92,64398,1,8,0:0:0:0:
481,92,64482,6,0,L|291:53,1,161.999995056153,6|8,3:2|0:0,0:0:0:0:
222,134,64982,1,2,0:0:0:0:
222,134,65148,2,0,L|314:154,1,80.9999975280763,0|0,3:0|3:0,0:0:0:0:
140,48,65482,2,0,L|232:28,1,80.9999975280763,10|0,0:0|3:0,0:0:0:0:
17,132,65815,6,0,P|108:145|136:224,1,161.999995056153,2|8,3:2|0:0,0:0:0:0:
58,310,66315,1,2,3:2:0:0:
58,310,66481,2,0,L|38:218,1,80.9999975280763,0|0,3:0|3:0,0:0:0:0:
160,296,66815,1,10,0:0:0:0:
237,205,66982,1,0,0:0:0:0:
242,360,67148,6,0,B|306:352|306:352|346:368|346:368|418:360,1,161.999995056153,2|8,3:2|0:0,0:0:0:0:
495,294,67648,1,2,0:0:0:0:
495,294,67814,2,0,L|515:202,1,80.9999975280763,0|0,3:0|3:0,0:0:0:0:
413,189,68148,2,0,L|393:97,1,80.9999975280763,10|0,0:0|0:0,0:0:0:0:
365,17,68481,6,0,P|460:31|493:109,1,161.999995056153,2|8,3:2|0:0,0:0:0:0:
297,96,68981,1,2,3:2:0:0:
297,96,69148,2,0,P|273:45|277:4,1,80.9999975280763,0|0,3:0|3:0,0:0:0:0:
124,55,69482,1,10,0:0:0:0:
207,164,69648,1,0,3:0:0:0:
45,130,69815,6,0,B|105:161|105:161|84:253,1,161.999995056153,2|8,3:2|0:0,0:0:0:0:
25,373,70315,1,0,0:0:0:0:
25,373,70481,2,0,L|117:353,1,80.9999975280763,0|0,3:0|3:0,0:0:0:0:
256,292,70815,2,0,L|164:272,1,80.9999975280763,8|0,0:0|3:0,0:0:0:0:
283,384,71148,6,0,L|323:199,1,161.999995056153,0|8,0:0|0:0,0:0:0:0:
247,145,71648,1,0,3:0:0:0:
247,145,71814,2,0,L|267:53,1,80.9999975280763,2|0,3:2|3:0,0:0:0:0:
144,120,72148,1,10,0:0:0:0:
169,227,72315,1,0,0:0:0:0:
12,218,72482,6,0,B|86:193|96:267|190:217,1,161.999995056153,2|8,3:2|0:0,0:0:0:0:
125,343,72982,1,2,0:0:0:0:
125,343,73148,2,0,P|165:359|217:356,1,80.9999975280763,0|0,3:0|3:0,0:0:0:0:
296,282,73482,1,10,0:0:0:0:
387,359,73648,1,0,3:0:0:0:
507,158,73815,6,0,P|427:182|411:286,1,161.999995056153,2|8,0:0|0:0,0:0:0:0:
315,165,74315,1,0,0:0:0:0:
315,165,74481,2,0,L|295:73,1,80.9999975280763,0|0,3:0|3:0,0:0:0:0:
207,106,74815,1,8,0:0:0:0:
71,56,74982,1,0,3:0:0:0:
71,56,75065,1,8,0:0:0:0:
71,56,75148,6,0,P|112:134|116:233,1,161.999995056153,2|8,3:2|0:0,0:0:0:0:
0,281,75648,1,2,0:0:0:0:
0,281,75814,2,0,L|92:301,1,80.9999975280763,0|0,3:0|3:0,0:0:0:0:
230,184,76148,2,0,L|150:201,1,80.9999975280763,10|0,0:0|3:0,0:0:0:0:
284,292,76481,6,0,P|204:316|188:420,1,161.999995056153,2|8,3:2|0:0,0:0:0:0:
390,319,76981,1,2,3:2:0:0:
390,319,77147,2,0,L|370:227,1,80.9999975280763,0|0,3:0|3:0,0:0:0:0:
343,103,77482,1,10,0:0:0:0:
438,155,77648,1,0,0:0:0:0:
260,183,77815,6,0,P|230:101|260:12,1,161.999995056153,2|8,3:2|0:0,0:0:0:0:
356,0,78315,1,2,0:0:0:0:
356,0,78481,2,0,L|448:20,1,80.9999975280763,0|0,3:0|3:0,0:0:0:0:
511,119,78815,2,0,L|432:137,1,80.9999975280763,10|0,0:0|3:0,0:0:0:0:
286,176,79148,5,2,3:2:0:0:
387,277,79315,1,2,0:0:0:0:
387,277,79398,1,2,0:0:0:0:
387,277,79482,1,8,0:0:0:0:
250,312,79648,1,0,3:0:0:0:
156,217,79815,5,0,3:0:0:0:
156,217,79982,1,0,3:0:0:0:
181,384,80148,2,0,P|193:329|215:274,1,80.9999975280763,0|0,3:0|0:0,0:0:0:0:
58,256,80482,6,0,P|52:216|66:180,1,67.5000025749208,4|0,3:0|3:0,3:0:0:0:
30,28,81148,2,0,L|128:42,1,67.5000025749208,8|0,0:0|3:0,0:0:0:0:
179,96,81482,2,0,L|277:82,1,67.5000025749208,0|0,3:0|3:0,3:0:0:0:
333,18,81815,1,0,3:0:0:0:
333,18,81982,1,0,3:0:0:0:
452,135,82482,6,0,L|440:223,1,67.5000025749208,8|0,3:0|3:0,3:0:0:0:
357,316,82815,2,0,L|347:249,1,67.5000025749208,2|0,3:2|3:0,3:0:0:0:
271,197,83148,2,0,P|228:219|186:214,1,67.5000025749208,6|0,3:2|3:0,3:0:0:0:
36,177,83648,5,2,0:0:0:0:
0,262,83815,2,0,P|22:319|21:351,1,67.5000025749208,8|0,3:0|3:0,3:0:0:0:
142,384,84148,2,0,P|164:327|163:295,1,67.5000025749208,2|0,3:2|3:0,3:0:0:0:
130,196,84482,1,2,3:2:0:0:
130,196,84648,2,0,P|200:135|251:134,1,135.000005149842,0|0,3:0|0:0,0:0:0:0:
380,153,85148,5,8,0:0:0:0:
271,245,85315,1,0,3:0:0:0:
407,297,85482,2,0,L|462:287,2,33.7500012874604,6|2|2,0:0|0:0|0:0,0:0:0:0:
373,145,85815,6,0,L|390:6,1,135.000005149842,6|0,3:2|0:0,0:0:0:0:
254,58,86482,1,8,0:0:0:0:
254,58,86648,1,0,3:0:0:0:
311,208,86815,2,0,L|292:295,1,67.5000025749208,2|2,3:2|3:2,0:0:0:0:
193,318,87148,2,0,L|174:231,1,67.5000025749208,2|0,3:2|3:0,3:0:0:0:
0,269,87815,6,0,P|58:285|93:274,1,67.5000025749208,8|0,3:0|3:0,3:0:0:0:
282,173,88148,2,0,P|248:174|217:188,1,67.5000025749208,0|0,3:0|3:0,0:0:0:0:
99,107,88482,5,12,3:0:0:0:
218,189,88648,1,0,3:0:0:0:
88,254,88815,1,0,3:0:0:0:
184,28,88982,6,0,L|191:133,1,80.9999975280763,10|0,0:0|3:0,0:0:0:0:
241,283,89315,1,0,3:0:0:0:
27,191,89482,2,0,P|79:167|135:183,1,80.9999975280763,10|0,0:0|3:0,0:0:0:0:
330,343,89815,5,2,3:2:0:0:
442,99,89982,1,8,0:0:0:0:
357,339,90148,1,0,3:0:0:0:
328,82,90315,1,0,3:0:0:0:
475,283,90482,5,8,0:0:0:0:
265,138,90648,1,0,3:0:0:0:
483,290,90815,6,0,L|492:197,1,80.9999975280763,8|0,0:0|0:0,0:0:0:0:
320,91,91148,6,0,L|331:194,1,99.0000030212403,4|0,3:0|0:0,0:0:0:0:
163,284,91482,2,0,L|174:181,1,99.0000030212403,10|0,0:0|0:0,0:0:0:0:
94,48,91815,1,2,3:2:0:0:
265,217,91982,2,0,P|334:219|384:170,1,99.0000030212403,2|8,3:2|0:0,0:0:0:0:
494,108,92315,6,0,P|415:137|355:63,1,148.50000453186,2|0,3:2|0:0,0:0:0:0:
347,74,92648,1,2,3:2:0:0:
430,306,92815,1,10,0:0:0:0:
268,193,92982,1,2,3:2:0:0:
164,271,93148,5,2,3:2:0:0:
164,271,93232,1,0,0:0:0:0:
164,271,93315,1,2,3:2:0:0:
364,213,93482,1,10,0:0:0:0:
208,69,93648,2,0,L|216:124,1,49.5000015106202,2|0,3:2|0:0,0:0:0:0:
259,384,93815,5,4,3:0:0:0:
120,112,93982,1,2,3:2:0:0:
392,250,94149,1,10,0:0:0:0:
91,298,94316,1,2,3:2:0:0:
306,83,94482,5,2,3:2:0:0:
306,83,94565,1,0,0:0:0:0:
306,83,94648,2,0,P|361:66|419:82,1,99.0000030212403,2|8,3:2|0:0,0:0:0:0:
433,339,94982,2,0,P|384:345|337:329,1,99.0000030212403,2|0,3:2|0:0,0:0:0:0:
130,166,95315,5,2,3:2:0:0:
378,244,95482,1,10,0:0:0:0:
229,53,95648,1,2,3:2:0:0:
150,272,95815,5,2,3:2:0:0:
332,110,95982,1,2,3:2:0:0:
266,356,96148,1,10,0:0:0:0:
143,128,96315,1,2,3:2:0:0:
378,244,96482,6,0,L|500:231,1,99.0000030212403,4|0,3:0|0:0,0:0:0:0:
160,112,96815,2,0,L|38:99,1,99.0000030212403,10|0,0:0|0:0,0:0:0:0:
98,321,97148,1,2,3:2:0:0:
250,162,97315,2,0,P|267:102|241:39,1,99.0000030212403,2|8,3:2|0:0,0:0:0:0:
26,255,97648,2,0,P|109:228|176:263,1,148.50000453186,2|0,3:2|0:0,0:0:0:0:
200,280,97982,5,2,3:2:0:0:
380,180,98148,1,10,0:0:0:0:
160,112,98315,1,2,3:2:0:0:
294,351,98482,1,2,3:2:0:0:
294,351,98565,1,0,0:0:0:0:
294,351,98648,1,2,3:2:0:0:
315,58,98815,5,10,0:0:0:0:
179,307,98982,1,2,3:2:0:0:
402,151,99148,2,0,P|420:209|397:260,1,99.0000030212403,4|2,3:0|3:2,0:0:0:0:
105,191,99482,1,10,0:0:0:0:
298,152,99648,1,2,3:2:0:0:
125,294,99815,5,2,3:2:0:0:
125,294,99898,1,0,0:0:0:0:
125,294,99982,2,0,L|2:280,1,99.0000030212403,2|10,3:2|0:0,0:0:0:0:
185,68,100315,2,0,L|283:56,1,99.0000030212403,2|0,3:2|0:0,0:0:0:0:
254,324,100648,5,2,3:2:0:0:
77,137,100815,1,14,0:0:0:0:
368,174,100982,1,2,0:0:0:0:
165,356,101148,5,2,3:2:0:0:
227,47,101315,1,2,3:2:0:0:
254,324,101482,1,10,0:0:0:0:
297,108,101649,1,2,3:2:0:0:
83,28,101815,6,0,B|18:71|18:71|66:199,1,198.000006042481,4|10,3:0|0:0,0:0:0:0:
130,360,102315,1,0,0:0:0:0:
155,143,102482,1,2,3:2:0:0:
0,295,102648,2,0,L|105:274,1,99.0000030212403,2|8,3:2|0:0,0:0:0:0:
345,179,102982,2,0,L|248:160,1,99.0000030212403,2|0,3:2|0:0,0:0:0:0:
303,364,103315,5,2,3:2:0:0:
172,242,103482,1,10,0:0:0:0:
373,165,103648,1,2,3:2:0:0:
180,340,103815,5,2,3:2:0:0:
180,340,103898,1,0,0:0:0:0:
180,340,103982,1,2,3:2:0:0:
409,270,104148,1,10,0:0:0:0:
244,111,104315,1,2,3:2:0:0:
373,356,104482,6,0,P|431:365|470:348,1,99.0000030212403,4|2,3:0|3:2,0:0:0:0:
196,216,104815,2,0,P|149:199|101:210,1,99.0000030212403,10|2,0:0|3:2,0:0:0:0:
246,375,105148,1,2,3:2:0:0:
319,200,105315,2,0,L|295:75,1,99.0000030212403,2|10,3:2|0:0,0:0:0:0:
204,11,105648,6,0,P|151:78|56:73,1,148.50000453186,2|0,3:2|0:0,0:0:0:0:
49,73,105982,1,2,3:2:0:0:
205,195,106148,1,10,0:0:0:0:
14,266,106315,1,2,3:2:0:0:
167,383,106482,2,0,L|269:373,1,99.0000030212403,2|2,3:2|3:2,0:0:0:0:
98,186,106815,2,0,L|0:176,1,99.0000030212403,10|2,0:0|3:2,0:0:0:0:
232,291,107148,6,1,B|290:265|345:298|319:311|370:350|431:318,1,198.000006042481,4|10,3:0|0:0,0:0:0:0:
491,225,107648,1,0,0:0:0:0:
299,110,107815,1,2,3:2:0:0:
386,236,107982,1,2,3:2:0:0:
490,46,108148,2,0,P|434:23|369:48,1,99.0000030212403,10|2,0:0|3:2,0:0:0:0:
246,196,108482,1,0,0:0:0:0:
116,33,108648,5,2,3:2:0:0:
139,282,108815,1,10,0:0:0:0:
236,98,108982,1,2,3:2:0:0:
23,206,109148,1,2,3:2:0:0:
248,301,109315,1,2,3:2:0:0:
126,154,109482,1,10,0:0:0:0:
176,381,109648,1,2,3:2:0:0:
248,301,109815,6,0,L|349:297,1,99.0000030212403,4|2,3:0|3:2,0:0:0:0:
112,135,110148,2,0,L|13:131,1,99.0000030212403,10|2,0:0|3:2,0:0:0:0:
150,345,110482,1,2,3:2:0:0:
217,150,110648,2,0,P|218:104|180:47,1,99.0000030212403,2|8,3:2|0:0,0:0:0:0:
89,31,110982,1,2,3:2:0:0:
315,264,111148,6,0,L|441:249,1,125.999996154785,4|0,3:0|0:0,0:0:0:0:
197,120,111482,6,0,L|71:135,1,125.999996154785,4|0,3:0|0:0,0:0:0:0:
184,251,111815,6,0,L|199:377,1,125.999996154785,4|0,3:0|0:0,0:0:0:0:
328,133,112149,6,0,L|313:7,1,125.999996154785,4|0,3:0|0:0,0:0:0:0:
256,192,112482,5,4,3:0:0:0:
498,15,123148,6,0,L|505:170,1,135.000005149842,4|0,0:1|0:0,0:0:0:0:
409,214,123648,2,0,L|402:79,1,135.000005149842,4|0,0:1|0:0,0:0:0:0:
307,127,124148,2,0,L|301:262,1,135.000005149842,4|0,0:1|0:0,0:0:0:0:
205,197,124648,2,0,L|212:63,1,135.000005149842,4|0,0:1|0:0,0:0:0:0:
112,0,125148,6,0,L|115:67,1,67.5000025749208,4|0,0:1|0:0,0:0:0:0:
34,120,125482,2,0,L|30:187,1,67.5000025749208,4|8,0:1|0:0,0:0:0:0:
10,293,125815,6,0,P|79:263|168:268,1,135.000005149842,4|0,0:1|0:0,0:0:0:0:
213,384,126315,2,0,P|144:354|55:359,1,135.000005149842,4|0,0:1|0:0,0:0:0:0:
224,281,126815,2,0,P|285:252|352:249,1,135.000005149842,4|0,0:1|0:0,0:0:0:0:
436,189,127315,2,0,P|375:160|308:157,1,135.000005149842,4|0,0:1|0:0,0:0:0:0:
213,173,127815,6,0,L|221:106,1,67.5000025749208,4|0,0:1|0:0,0:0:0:0:
305,0,128148,2,0,L|314:66,1,67.5000025749208,4|8,0:1|0:0,0:0:0:0:
397,152,128482,6,0,L|423:20,1,135.000005149842,4|0,0:1|0:0,0:0:0:0:
501,101,128982,2,0,L|471:256,1,135.000005149842,4|0,0:1|0:0,0:0:0:0:
406,384,129482,2,0,L|380:251,1,135.000005149842,4|0,0:1|0:0,0:0:0:0:
275,191,129982,2,0,L|301:324,1,135.000005149842,4|0,0:1|0:0,0:0:0:0:
193,278,130482,6,0,L|126:269,1,67.5000025749208,4|0,0:1|0:0,0:0:0:0:
19,185,130815,2,0,L|85:176,1,67.5000025749208,4|8,0:1|0:0,0:0:0:0:
195,165,131148,6,0,P|182:51|204:8,1,135.000005149842,4|0,0:1|0:0,0:0:0:0:
276,95,131648,2,0,P|289:209|267:252,1,135.000005149842,4|0,0:1|0:0,0:0:0:0:
233,312,132148,1,4,0:1:0:0:
233,312,132315,1,0,0:0:0:0:
412,202,132482,6,0,L|346:211,1,67.5000025749208,4|0,0:1|0:0,0:0:0:0:
99,181,132815,6,0,L|166:173,1,67.5000025749208,4|0,0:1|0:0,0:0:0:0:
266,35,133148,6,0,L|275:102,1,67.5000025749208,4|0,0:1|0:0,0:0:0:0:
245,348,133481,6,0,L|237:282,1,67.5000025749208,4|0,0:1|0:0,0:0:0:0:
256,192,133815,12,8,136148,0:0:0:0:
130,320,136482,6,0,L|2:320,1,99.0000030212403,4|0,3:0|0:0,0:0:0:0:
32,224,136815,2,0,L|32:96,1,99.0000030212403,10|0,0:0|0:0,0:0:0:0:
128,0,137148,5,2,3:2:0:0:
128,128,137315,2,0,L|128:256,1,99.0000030212403,2|10,3:2|0:0,0:0:0:0:
192,320,137648,2,0,L|416:320,1,198.000006042481,2|2,3:2|3:2,0:0:0:0:
480,256,138148,5,10,0:0:0:0:
384,192,138315,2,0,L|256:192,1,99.0000030212403,2|2,3:2|3:2,0:0:0:0:
224,96,138648,1,2,3:2:0:0:
320,0,138815,2,0,L|320:128,1,99.0000030212403,10|2,0:0|3:2,0:0:0:0:
384,256,139148,5,4,3:0:0:0:
448,128,139314,1,2,3:2:0:0:
256,256,139481,2,0,L|128:256,1,99.0000030212403,10|2,0:0|3:2,0:0:0:0:
0,256,139815,5,2,3:2:0:0:
128,256,139982,2,0,L|256:256,1,99.0000030212403,2|8,3:2|0:0,0:0:0:0:
320,160,140315,2,0,L|91:160,1,198.000006042481,2|2,3:2|3:2,0:0:0:0:
32,64,140815,5,10,0:0:0:0:
160,0,140982,2,0,L|160:128,1,99.0000030212403,2|2,3:2|3:2,0:0:0:0:
160,288,141315,1,2,3:2:0:0:
32,160,141482,2,0,L|32:32,1,99.0000030212403,10|2,0:0|3:2,0:0:0:0:
233,188,141815,6,0,L|338:188,1,99.0000030212403,4|0,3:0|0:0,0:0:0:0:
416,288,142148,2,0,L|311:288,1,99.0000030212403,10|0,0:0|0:0,0:0:0:0:
224,384,142482,1,2,3:2:0:0:
128,288,142648,1,2,3:2:0:0:
0,320,142815,1,8,0:0:0:0:
96,192,142982,2,0,L|96:87,1,99.0000030212403,2|0,3:2|0:0,0:0:0:0:
0,0,143315,2,0,L|0:99,1,99.0000030212403,2|10,3:2|0:0,0:0:0:0:
96,192,143648,5,2,3:2:0:0:
192,96,143815,1,2,3:2:0:0:
256,256,143982,5,2,3:2:0:0:
320,128,144148,2,0,L|429:128,1,99.0000030212403,10|2,0:0|3:2,0:0:0:0:
512,256,144482,5,4,3:0:0:0:
384,224,144648,1,2,3:2:0:0:
352,352,144815,2,0,L|224:352,1,99.0000030212403,10|2,0:0|3:2,0:0:0:0:
123,363,145148,5,2,3:2:0:0:
123,235,145315,2,0,L|123:107,1,99.0000030212403,2|8,3:2|0:0,0:0:0:0:
27,363,145648,1,2,3:2:0:0:
32,224,145815,6,0,L|32:96,1,99.0000030212403,4|2,3:2|3:2,0:0:0:0:
128,128,146148,2,0,L|128:0,1,99.0000030212403,14|2,0:0|3:2,0:0:0:0:
192,320,146482,2,0,L|192:192,1,99.0000030212403,2|2,3:2|3:2,0:0:0:0:
288,224,146815,2,0,L|288:96,1,99.0000030212403,10|2,0:0|3:2,0:0:0:0:
192,32,147148,6,0,L|320:32,1,99.0000030212403,4|0,3:0|0:0,0:0:0:0:
416,160,147482,2,0,L|288:160,1,99.0000030212403,10|0,0:0|0:0,0:0:0:0:
160,128,147814,1,2,3:2:0:0:
256,256,147981,2,0,L|384:256,1,99.0000030212403,2|8,3:2|0:0,0:0:0:0:
160,160,148315,2,0,B|160:224|160:224|192:288|192:288|192:384,1,198.000006042481,2|2,3:2|3:2,0:0:0:0:
320,384,148814,5,10,0:0:0:0:
512,320,148981,2,0,L|384:320,1,99.0000030212403,2|2,3:2|3:2,0:0:0:0:
256,224,149315,1,2,3:2:0:0:
352,160,149481,2,0,L|451:160,1,99.0000030212403,10|2,0:0|3:2,0:0:0:0:
320,32,149815,5,4,3:0:0:0:
128,96,149982,1,0,0:0:0:0:
256,128,150148,2,0,L|256:256,1,99.0000030212403,10|2,0:0|3:2,0:0:0:0:
96,288,150482,5,2,3:2:0:0:
288,352,150648,2,0,L|416:352,1,99.0000030212403,2|8,3:2|0:0,0:0:0:0:
288,256,150982,2,0,B|240:224|192:256|192:256|144:288|96:256,1,198.000006042481,2|2,3:2|3:2,0:0:0:0:
0,192,151481,5,8,0:0:0:0:
192,128,151648,2,0,L|320:128,1,99.0000030212403,2|2,3:2|3:2,0:0:0:0:
384,224,151981,1,2,3:2:0:0:
192,320,152148,2,0,L|64:320,1,99.0000030212403,8|2,0:0|3:2,0:0:0:0:
121,148,152481,6,0,L|226:148,1,99.0000030212403,4|0,3:0|0:0,0:0:0:0:
288,32,152815,2,0,L|183:32,1,99.0000030212403,10|0,0:0|0:0,0:0:0:0:
352,96,153148,6,0,L|480:96,1,99.0000030212403,2|2,3:2|3:2,0:0:0:0:
512,224,153481,1,8,0:0:0:0:
352,288,153648,2,0,L|253:288,1,99.0000030212403,2|0,3:2|0:0,0:0:0:0:
160,96,153981,2,0,L|160:195,1,99.0000030212403,2|10,3:2|0:0,0:0:0:0:
32,288,154315,5,2,3:2:0:0:
256,224,154481,1,2,3:2:0:0:
96,384,154648,5,2,3:2:0:0:
128,160,154815,2,0,L|128:51,1,99.0000030212403,10|2,0:0|3:2,0:0:0:0:
224,0,155148,5,4,3:0:0:0:
416,64,155314,1,2,3:2:0:0:
256,128,155481,2,0,L|256:256,1,99.0000030212403,10|2,0:0|0:0,0:0:0:0:
448,224,155814,5,2,3:2:0:0:
256,320,155981,2,0,L|128:320,1,99.0000030212403,2|8,3:2|0:0,0:0:0:0:
352,320,156314,1,2,3:2:0:0:
32,352,156481,6,0,L|160:352,1,99.0000030212403,4|0,3:0|0:0,0:0:0:0:
480,352,156815,2,0,L|352:352,1,99.0000030212403,4|0,3:0|0:0,0:0:0:0:
128,256,157148,2,0,L|29:256,1,99.0000030212403,4|0,3:0|0:0,0:0:0:0:
384,256,157482,2,0,L|483:256,1,99.0000030212403,4|0,3:0|0:0,0:0:0:0:
255,375,157815,6,0,L|256:256,1,99.0000030212403,4|0,3:0|0:0,0:0:0:0:
352,160,158148,2,0,L|351:258,1,99.0000030212403,10|0,0:0|0:0,0:0:0:0:
288,64,158481,5,2,3:2:0:0:
160,160,158648,2,0,L|32:160,1,99.0000030212403,2|8,3:2|0:0,0:0:0:0:
128,0,158982,2,0,B|224:16|224:16|256:112,1,198.000006042481,2|2,3:2|3:2,0:0:0:0:
96,256,159481,5,10,0:0:0:0:
288,320,159648,2,0,L|416:320,1,99.0000030212403,2|2,3:2|3:2,0:0:0:0:
224,64,159981,1,2,3:2:0:0:
192,256,160148,2,0,L|192:384,1,99.0000030212403,10|2,0:0|3:2,0:0:0:0:
333,83,160481,5,4,3:0:0:0:
480,224,160647,1,2,3:2:0:0:
256,160,160814,2,0,L|128:160,1,99.0000030212403,10|2,0:0|3:2,0:0:0:0:
0,256,161148,5,2,3:2:0:0:
224,320,161315,2,0,L|352:320,1,99.0000030212403,2|8,3:2|0:0,0:0:0:0:
101,160,161648,2,0,L|-27:160,1,99.0000030212403,2|0,3:2|0:0,0:0:0:0:
320,128,161982,5,2,3:2:0:0:
192,0,162148,1,10,0:0:0:0:
256,192,162315,2,0,L|256:315,1,99.0000030212403,2|2,3:2|3:2,0:0:0:0:
96,352,162648,1,2,3:2:0:0:
0,160,162815,2,0,L|128:160,1,99.0000030212403,10|2,0:0|3:2,0:0:0:0:
288,256,163148,6,0,L|189:256,1,99.0000030212403,4|0,3:0|0:0,0:0:0:0:
288,160,163481,1,8,0:0:0:0:
448,224,163648,1,0,0:0:0:0:
333,75,163815,6,0,L|228:75,1,99.0000030212403,2|2,3:2|3:2,0:0:0:0:
64,192,164148,1,8,0:0:0:0:
160,288,164315,2,0,L|265:288,1,99.0000030212403,2|0,3:2|0:0,0:0:0:0:
480,288,164648,2,0,L|381:288,1,99.0000030212403,2|10,3:2|0:0,0:0:0:0:
288,384,164981,5,2,3:2:0:0:
384,192,165148,1,2,3:2:0:0:
192,320,165315,5,2,3:2:0:0:
224,160,165481,2,0,L|224:51,1,99.0000030212403,10|2,0:0|3:2,0:0:0:0:
71,12,165815,5,4,3:0:0:0:
256,64,165981,1,2,3:2:0:0:
128,160,166148,2,0,L|0:160,1,99.0000030212403,10|2,0:0|3:2,0:0:0:0:
174,379,166481,5,2,3:2:0:0:
288,256,166648,2,0,L|288:128,1,99.0000030212403,2|8,3:2|0:0,0:0:0:0:
175,43,166981,1,2,3:2:0:0:
384,64,167148,6,0,L|384:192,1,99.0000030212403,4|2,3:2|3:2,0:0:0:0:
352,352,167481,2,0,L|352:253,1,99.0000030212403,14|2,0:0|3:2,0:0:0:0:
416,32,167815,6,0,L|416:160,1,99.0000030212403,2|2,3:2|3:2,0:0:0:0:
320,384,168148,2,0,L|320:285,1,99.0000030212403,10|2,0:0|3:2,0:0:0:0:
160,96,168482,6,0,L|288:96,1,99.0000030212403,4|0,3:0|0:0,0:0:0:0:
416,192,168815,2,0,L|288:192,1,99.0000030212403,8|0,0:0|0:0,0:0:0:0:
416,32,169148,5,2,3:2:0:0:
512,224,169315,2,0,L|512:352,1,99.0000030212403,2|8,3:2|0:0,0:0:0:0:
384,128,169648,2,0,B|320:128|320:128|256:160|256:160|192:160,1,198.000006042481,2|2,3:2|3:2,0:0:0:0:
256,30,170148,5,10,0:0:0:0:
320,192,170315,2,0,L|320:320,1,99.0000030212403,2|2,3:2|3:2,0:0:0:0:
160,64,170648,1,2,3:2:0:0:
128,256,170815,2,0,L|128:384,1,99.0000030212403,10|2,0:0|3:2,0:0:0:0:
0,192,171148,5,4,3:0:0:0:
224,64,171314,1,2,3:2:0:0:
128,256,171481,2,0,L|256:256,1,99.0000030212403,10|2,0:0|3:2,0:0:0:0:
448,320,171815,5,2,3:2:0:0:
320,384,171982,2,0,L|192:384,1,99.0000030212403,2|8,3:2|0:0,0:0:0:0:
32,320,172315,2,0,B|112:259|112:259|208:291,1,198.000006042481,2|2,3:2|3:2,0:0:0:0:
288,64,172815,5,10,0:0:0:0:
352,192,172982,2,0,L|352:320,1,99.0000030212403,2|2,3:2|3:2,0:0:0:0:
146,353,173315,1,2,3:2:0:0:
192,224,173482,2,0,L|192:96,1,99.0000030212403,10|2,0:0|3:2,0:0:0:0:
320,0,173815,6,0,L|320:105,1,99.0000030212403,4|0,3:0|0:0,0:0:0:0:
256,192,174148,1,10,0:0:0:0:
416,256,174315,1,0,0:0:0:0:
320,352,174482,6,0,L|215:352,1,99.0000030212403,2|2,3:2|3:2,0:0:0:0:
44,287,174815,1,8,0:0:0:0:
128,224,174982,2,0,L|233:224,1,99.0000030212403,2|0,3:2|0:0,0:0:0:0:
416,256,175315,2,0,L|317:256,1,99.0000030212403,2|10,3:2|0:0,0:0:0:0:
256,96,175648,5,2,3:2:0:0:
384,160,175815,1,2,3:2:0:0:
448,32,175982,5,2,3:2:0:0:
256,96,176148,2,0,L|147:96,1,99.0000030212403,10|2,0:0|3:2,0:0:0:0:
0,32,176482,5,4,3:0:0:0:
96,256,176648,1,2,3:2:0:0:
224,192,176815,2,0,L|352:192,1,99.0000030212403,10|2,0:0|3:2,0:0:0:0:
448,224,177148,5,2,3:2:0:0:
288,320,177315,2,0,L|160:320,1,99.0000030212403,2|8,3:2|0:0,0:0:0:0:
32,192,177648,1,2,3:2:0:0:
341,102,177815,6,0,L|440:102,1,99.0000030212403,4|0,3:0|0:0,0:0:0:0:
153,285,178148,6,0,L|54:285,1,99.0000030212403,4|0,3:0|0:0,0:0:0:0:
335,285,178482,6,0,L|335:384,1,99.0000030212403,4|0,3:0|0:0,0:0:0:0:
155,100,178815,5,4,3:0:0:0:
345,278,178982,6,0,P|401:267|461:273,1,99.0000030212403,6|0,0:0|0:0,0:0:0:0:
