osu file format v14

[General]
AudioFilename: audio.mp3
AudioLeadIn: 0
PreviewTime: 21647
Countdown: 0
SampleSet: Soft
StackLeniency: 0.5
Mode: 0
LetterboxInBreaks: 0
WidescreenStoryboard: 1

[Editor]
Bookmarks: 11150
DistanceSpacing: 0.7
BeatDivisor: 4
GridSize: 16
TimelineZoom: 2.100001

[Metadata]
Title:Science Blaster (Nirre & Acid Usagi Remix)
TitleUnicode:Science Blaster (Nirre & Acid Usagi Remix)
Artist:SpellingPhailer
ArtistUnicode:SpellingPhailer
Creator:MrRainbowDoge
Version:Another
Source:The Game Theorists
Tags:electronic instrumental rock guitar matpat matthew patrick the game film food style theorists theory mario hydemanrs arutama kenpi
BeatmapID:4529758
BeatmapSetID:2131881

[Difficulty]
HPDrainRate:5
CircleSize:3.8
OverallDifficulty:8.8
ApproachRate:9
SliderMultiplier:1.6
SliderTickRate:1

[Events]
//Background and Video events
0,0,"gametheorybg_scienceblasterrremix.png",0,0
//Break Periods
2,112815,121815
//Storyboard Layer 0 (Background)
//Storyboard Layer 1 (Fail)
//Storyboard Layer 2 (Pass)
//Storyboard Layer 3 (Foreground)
//Storyboard Layer 4 (Overlay)
//Storyboard Sound Samples

[TimingPoints]
484,333.333333333333,4,2,1,50,1,0
19149,333.333333333333,4,2,1,50,1,0
21816,-100,4,2,1,30,0,0
23316,-100,4,2,1,50,0,0
24482,-76.9230769230769,4,2,1,80,0,1
24732,-76.9230769230769,4,2,1,65,0,1
27148,-76.9230769230769,4,2,1,80,0,1
27315,-76.9230769230769,4,2,1,65,0,1
29815,-76.9230769230769,4,2,1,80,0,1
30065,-76.9230769230769,4,2,1,65,0,1
32482,-76.9230769230769,4,2,1,80,0,1
32648,-76.9230769230769,4,2,1,65,0,1
35148,-76.9230769230769,4,2,1,80,0,1
35398,-76.9230769230769,4,2,1,65,0,1
37815,-76.9230769230769,4,2,1,80,0,1
37982,-76.9230769230769,4,2,1,65,0,1
40482,-76.9230769230769,4,2,1,80,0,1
40732,-76.9230769230769,4,2,1,65,0,1
43148,-76.9230769230769,4,2,1,80,0,1
43315,-76.9230769230769,4,2,1,65,0,1
44482,-76.9230769230769,4,2,1,80,0,1
45815,-230.94688221709,4,2,1,65,0,0
45982,-230.94688221709,4,2,1,50,0,0
48482,-100,4,2,1,60,0,0
59148,-100,4,2,1,80,0,0
59398,-100,4,2,1,65,0,0
80482,-100,4,2,1,60,0,0
88482,-100,4,2,1,60,0,1
90815,-100,4,2,1,60,0,0
91148,-76.9230769230769,4,2,1,80,0,1
91398,-76.9230769230769,4,2,1,65,0,1
93815,-76.9230769230769,4,2,1,80,0,1
93982,-76.9230769230769,4,2,1,65,0,1
96482,-76.9230769230769,4,2,1,80,0,1
96732,-76.9230769230769,4,2,1,65,0,1
99148,-76.9230769230769,4,2,1,80,0,1
99315,-76.9230769230769,4,2,1,65,0,1
101815,-76.9230769230769,4,2,1,80,0,1
102065,-76.9230769230769,4,2,1,65,0,1
104482,-76.9230769230769,4,2,1,80,0,1
104648,-76.9230769230769,4,2,1,65,0,1
107148,-76.9230769230769,4,2,1,80,0,1
107398,-76.9230769230769,4,2,1,65,0,1
109815,-76.9230769230769,4,2,1,80,0,1
109982,-76.9230769230769,4,2,1,65,0,1
112482,-50,4,2,1,90,0,0
112565,-100,4,2,1,50,0,0
134357,-100,4,2,1,5,0,0
134378,-100,4,2,1,50,0,0
134398,-100,4,2,1,5,0,0
134419,-100,4,2,1,50,0,0
134440,-100,4,2,1,5,0,0
134461,-100,4,2,1,50,0,0
134482,-100,4,2,1,5,0,0
134503,-100,4,2,1,50,0,0
134523,-100,4,2,1,5,0,0
134544,-100,4,2,1,50,0,0
134565,-100,4,2,1,5,0,0
134586,-100,4,2,1,50,0,0
135169,-100,4,2,1,5,0,0
135176,-100,4,2,1,50,0,0
135190,-100,4,2,1,5,0,0
135204,-100,4,2,1,50,0,0
135211,-100,4,2,1,5,0,0
135232,-100,4,2,1,50,0,0
135253,-100,4,2,1,5,0,0
135260,-100,4,2,1,50,0,0
135273,-100,4,2,1,5,0,0
135287,-100,4,2,1,50,0,0
135294,-100,4,2,1,5,0,0
135315,-100,4,2,1,50,0,0
136482,-76.9230769230769,4,2,1,80,0,1
136732,-76.9230769230769,4,2,1,65,0,1
139148,-76.9230769230769,4,2,1,80,0,1
139315,-76.9230769230769,4,2,1,65,0,1
141815,-76.9230769230769,4,2,1,80,0,1
142065,-76.9230769230769,4,2,1,65,0,1
144482,-76.9230769230769,4,2,1,80,0,1
144648,-76.9230769230769,4,2,1,65,0,1
147148,-76.9230769230769,4,2,1,80,0,1
147398,-76.9230769230769,4,2,1,65,0,1
149815,-76.9230769230769,4,2,1,80,0,1
149982,-76.9230769230769,4,2,1,65,0,1
152482,-76.9230769230769,4,2,1,80,0,1
152732,-76.9230769230769,4,2,1,65,0,1
155148,-76.9230769230769,4,2,1,80,0,1
155315,-76.9230769230769,4,2,1,65,0,1
156482,-76.9230769230769,4,2,1,80,0,1
158065,-76.9230769230769,4,2,1,65,0,1
160482,-76.9230769230769,4,2,1,80,0,1
160648,-76.9230769230769,4,2,1,65,0,1
163148,-76.9230769230769,4,2,1,80,0,1
163398,-76.9230769230769,4,2,1,65,0,1
165815,-76.9230769230769,4,2,1,80,0,1
165982,-76.9230769230769,4,2,1,65,0,1
168482,-76.9230769230769,4,2,1,80,0,1
168732,-76.9230769230769,4,2,1,65,0,1
171148,-76.9230769230769,4,2,1,80,0,1
171315,-76.9230769230769,4,2,1,65,0,1
173815,-76.9230769230769,4,2,1,80,0,1
174065,-76.9230769230769,4,2,1,65,0,1
176482,-76.9230769230769,4,2,1,80,0,1
176648,-76.9230769230769,4,2,1,65,0,1
177815,-57.1428571428571,4,2,1,80,0,1
178982,-133.333333333333,4,2,1,80,0,0
179148,-133.333333333333,4,2,1,5,0,0

[Colours]
Combo1 : 56,171,239
Combo2 : 10,184,49
Combo3 : 206,38,9
Combo4 : 250,235,133

[HitObjects]
40,44,11150,6,0,P|123:42|179:111,1,160,4|0,0:1|0:0,0:0:0:0:
270,132,11650,2,0,P|233:212|142:262,1,160,4|0,0:1|0:0,0:0:0:0:
35,286,12150,2,0,P|175:296|206:325,1,160,4|0,0:1|0:0,0:0:0:0:
287,370,12650,2,0,P|347:374|394:275,1,160,4|0,0:1|0:0,0:0:0:0:
466,223,13150,2,0,P|474:173|490:145,1,80,4|0,0:1|0:0,0:0:0:0:
447,57,13484,2,0,P|377:41|341:54,1,80,4|8,0:1|0:0,0:0:0:0:
329,56,13734,1,8,0:0:0:0:
329,56,13817,6,0,L|151:53,1,160,4|0,0:1|0:0,0:0:0:0:
92,136,14317,2,0,L|268:139,1,160,4|0,0:1|0:0,0:0:0:0:
344,214,14817,2,0,P|286:254|254:364,1,160,4|0,0:1|0:0,0:0:0:0:
351,330,15317,2,0,P|281:267|202:235,1,160,4|0,0:1|0:0,0:0:0:0:
207,101,15817,2,0,P|251:126|300:129,1,80,4|0,0:1|0:0,0:0:0:0:
446,34,16150,2,0,P|402:59|374:100,1,80,4|8,0:1|0:0,0:0:0:0:
394,119,16400,1,8,0:0:0:0:
394,119,16484,6,0,P|455:173|432:274,1,160,4|0,0:1|0:0,0:0:0:0:
256,325,16984,2,0,P|323:227|381:213,1,160,4|0,0:1|0:0,0:0:0:0:
417,353,17484,2,0,P|355:324|235:350,1,160,4|0,0:1|0:0,0:0:0:0:
171,290,17984,2,0,L|206:98,1,160,4|0,0:1|0:0,0:0:0:0:
99,23,18484,2,0,L|132:112,1,80,4|0,0:1|0:0,0:0:0:0:
231,0,18817,2,0,L|263:89,1,80,4|8,0:1|0:0,0:0:0:0:
353,144,19150,5,4,0:0:0:0:
353,144,19232,1,0,0:0:0:0:
353,144,19315,2,0,L|292:139,3,40,0|0|0|0,0:0|0:0|0:0|0:0,0:0:0:0:
381,227,19649,5,8,0:0:0:0:
381,227,19732,1,0,0:0:0:0:
381,227,19815,2,0,L|330:221,3,40,0|0|0|0,0:0|0:0|0:0|0:0,0:0:0:0:
433,297,20149,5,8,0:0:0:0:
433,297,20232,1,0,0:0:0:0:
433,297,20315,2,0,L|411:357,3,40,0|0|0|0,0:0|0:0|0:0|0:0,0:0:0:0:
512,326,20649,5,8,0:0:0:0:
512,326,20732,1,0,0:0:0:0:
512,326,20815,2,0,L|497:365,3,40,0|0|0|0,0:0|0:0|0:0|0:0,0:0:0:0:
496,244,21148,5,8,0:0:0:0:
506,91,21315,1,8,0:0:0:0:
423,213,21482,5,8,0:0:0:0:
392,42,21648,1,8,0:0:0:0:
423,213,21815,22,0,L|406:309,1,80,2|0,0:0|0:0,0:0:0:0:
492,316,22148,6,0,L|508:231,1,80,2|0,0:0|0:0,0:0:0:0:
480,145,22482,5,2,0:0:0:0:
480,145,22648,2,0,L|386:124,1,80,2|0,0:0|0:0,0:0:0:0:
424,52,22982,22,0,L|506:70,1,80,2|0,0:0|0:0,0:0:0:0:
341,60,23315,5,8,0:0:0:0:
310,53,23398,1,8,0:0:0:0:
278,46,23482,1,8,0:0:0:0:
247,39,23565,1,8,0:0:0:0:
216,32,23648,1,8,0:0:0:0:
95,160,23815,1,8,3:2:0:0:
72,0,23982,1,0,3:0:0:0:
193,197,24148,1,8,0:0:0:0:
13,72,24315,1,8,0:0:0:0:
263,117,24482,6,0,B|320:105|320:105|348:77|348:77|429:64,1,155.999992858887,4|0,3:0|0:0,0:0:0:0:
444,80,24815,2,0,P|417:133|393:222,1,103.999995239258,10|0,0:0|0:0,0:0:0:0:
469,297,25148,1,2,3:2:0:0:
321,220,25315,2,0,P|269:209|196:228,1,103.999995239258,2|8,3:2|0:0,0:0:0:0:
168,329,25648,2,0,P|204:210|116:142,1,207.999990478516,2|2,0:0|3:2,0:0:0:0:
30,153,26148,6,0,P|79:126|154:135,1,103.999995239258,10|2,0:0|3:2,0:0:0:0:
258,264,26482,2,0,P|210:235|178:160,1,103.999995239258,2|2,3:2|3:2,0:0:0:0:
235,11,26815,2,0,P|233:66|186:130,1,103.999995239258,10|2,0:0|3:2,0:0:0:0:
82,280,27148,5,4,3:0:0:0:
124,95,27315,1,2,3:2:0:0:
157,325,27482,5,10,0:0:0:0:
109,109,27648,1,2,0:0:0:0:
223,235,27815,5,2,3:2:0:0:
223,235,27898,1,0,0:0:0:0:
223,235,27982,1,2,3:2:0:0:
8,184,28148,1,8,0:0:0:0:
185,140,28315,6,0,B|295:126,1,103.999995239258,2|0,3:2|0:0,0:0:0:0:
351,0,28648,1,2,3:2:0:0:
400,160,28815,6,0,L|385:278,1,103.999995239258,10|2,0:0|3:2,0:0:0:0:
289,381,29148,1,2,3:2:0:0:
270,226,29315,5,2,3:2:0:0:
423,364,29482,1,10,0:0:0:0:
214,301,29648,1,2,3:2:0:0:
386,263,29815,6,0,P|475:223|470:157,1,155.999992858887,4|0,3:0|0:0,0:0:0:0:
461,160,30148,2,0,P|399:186|341:177,1,103.999995239258,10|0,0:0|0:0,0:0:0:0:
223,53,30482,5,2,3:2:0:0:
261,222,30648,1,2,3:2:0:0:
305,7,30815,1,8,0:0:0:0:
171,200,30982,2,0,P|191:271|188:332,1,103.999995239258,2|0,3:2|0:0,0:0:0:0:
115,382,31315,6,0,P|42:356|-13:355,1,103.999995239258,2|10,3:2|0:0,0:0:0:0:
135,188,31648,1,2,3:2:0:0:
248,273,31815,2,0,L|234:387,1,103.999995239258,2|2,3:2|3:2,0:0:0:0:
354,321,32148,2,0,L|366:212,1,103.999995239258,8|2,0:0|0:0,0:0:0:0:
406,10,32482,5,4,3:0:0:0:
450,211,32648,1,2,3:2:0:0:
297,22,32815,5,10,0:0:0:0:
496,148,32982,1,2,0:0:0:0:
264,119,33148,5,2,3:2:0:0:
264,119,33232,1,0,0:0:0:0:
264,119,33315,1,2,3:2:0:0:
397,0,33482,1,8,0:0:0:0:
319,234,33648,2,0,P|254:266|216:259,1,103.999995239258,2|6,3:2|0:0,0:0:0:0:
91,197,33982,5,2,3:2:0:0:
215,353,34148,1,14,0:0:0:0:
157,145,34315,1,0,0:0:0:0:
125,276,34482,2,0,L|116:381,1,103.999995239258,2|2,3:2|3:2,0:0:0:0:
223,249,34815,2,0,L|214:354,1,103.999995239258,10|2,0:0|0:0,0:0:0:0:
315,219,35148,6,0,L|330:60,1,155.999992858887,4|0,3:0|0:0,0:0:0:0:
337,55,35482,2,0,P|281:35|223:61,1,103.999995239258,8|0,0:0|0:0,0:0:0:0:
87,121,35815,5,2,3:2:0:0:
247,156,35982,1,2,3:2:0:0:
80,35,36148,1,8,0:0:0:0:
181,203,36315,6,0,L|162:327,1,103.999995239258,2|0,3:2|0:0,0:0:0:0:
264,384,36648,1,2,3:2:0:0:
165,305,36815,2,0,L|59:337,1,103.999995239258,10|2,0:0|3:2,0:0:0:0:
214,243,37148,2,0,L|239:135,1,103.999995239258,2|2,3:2|3:2,0:0:0:0:
244,313,37482,2,0,L|324:388,1,103.999995239258,10|2,0:0|3:2,0:0:0:0:
359,281,37815,5,4,3:0:0:0:
166,382,37982,1,2,3:2:0:0:
296,183,38148,1,10,0:0:0:0:
254,376,38315,1,2,3:2:0:0:
216,133,38482,5,2,3:2:0:0:
216,133,38565,1,0,0:0:0:0:
216,133,38648,1,2,3:2:0:0:
349,360,38815,1,10,0:0:0:0:
180,239,38982,2,0,P|141:217|61:212,1,103.999995239258,2|0,3:2|0:0,0:0:0:0:
30,106,39315,5,2,3:2:0:0:
57,296,39482,1,10,0:0:0:0:
106,83,39648,1,2,3:2:0:0:
180,239,39815,6,0,L|154:350,1,103.999995239258,2|2,3:2|3:2,0:0:0:0:
260,229,40148,2,0,L|234:340,1,103.999995239258,10|2,0:0|3:2,0:0:0:0:
305,381,40482,6,0,P|374:337|453:303,1,155.999992858887,4|0,3:0|0:0,0:0:0:0:
451,296,40815,2,0,P|392:319|338:348,1,103.999995239258,10|0,0:0|0:0,0:0:0:0:
243,383,41148,1,2,3:2:0:0:
351,227,41315,1,2,3:2:0:0:
351,227,41482,1,8,0:0:0:0:
245,161,41648,2,0,P|197:151|71:264,1,207.999990478516,2|2,3:2|3:2,0:0:0:0:
102,378,42148,1,10,0:0:0:0:
170,260,42315,1,2,3:2:0:0:
254,338,42482,2,0,P|308:315|368:327,1,103.999995239258,2|2,3:2|3:2,0:0:0:0:
463,235,42815,2,0,P|411:238|365:216,1,103.999995239258,10|2,0:0|3:2,0:0:0:0:
293,32,43148,5,4,3:0:0:0:
268,240,43315,1,2,3:2:0:0:
378,85,43482,1,10,0:0:0:0:
243,249,43648,1,2,3:2:0:0:
207,29,43815,5,2,3:2:0:0:
207,29,43898,1,0,0:0:0:0:
207,29,43982,1,2,3:2:0:0:
336,180,44148,1,10,0:0:0:0:
128,152,44315,1,2,3:2:0:0:
331,54,44482,5,4,3:0:0:0:
144,259,44815,1,4,3:0:0:0:
410,207,45148,1,4,3:0:0:0:
178,60,45482,1,4,3:0:0:0:
289,321,45815,2,0,L|268:242,1,69.2799994185791,4|0,3:0|0:0,0:0:0:0:
402,223,46315,2,0,L|344:280,1,69.2799994185791,8|0,0:0|0:0,0:0:0:0:
322,184,46815,5,8,0:0:0:0:
1,178,47815,5,0,3:0:0:0:
122,113,47982,2,0,L|145:116,1,17.3199998546448,8|8,0:0|0:0,0:0:0:0:
190,168,48148,2,0,L|207:165,1,17.3199998546448,8|8,0:0|0:0,0:0:0:0:
257,112,48315,1,8,0:0:0:0:
358,214,48482,6,0,P|324:238|303:279,1,80,4|0,3:0|0:0,0:0:0:0:
418,384,48815,1,8,0:0:0:0:
383,295,48982,1,0,0:0:0:0:
244,327,49148,2,0,L|157:320,1,80,0|0,3:0|3:0,0:0:0:0:
122,186,49482,1,8,0:0:0:0:
197,244,49648,1,0,0:0:0:0:
3,306,49815,6,0,L|36:145,1,160,2|8,3:2|0:0,0:0:0:0:
92,86,50315,1,0,0:0:0:0:
170,122,50482,1,0,3:0:0:0:
248,35,50648,1,0,3:0:0:0:
215,218,50815,1,8,0:0:0:0:
225,11,50982,1,0,0:0:0:0:
333,138,51148,6,0,L|308:243,1,80,2|0,3:2|0:0,0:0:0:0:
275,384,51482,1,8,0:0:0:0:
313,224,51648,1,0,0:0:0:0:
278,374,51815,2,0,P|227:356|186:358,1,80,0|0,3:0|3:0,0:0:0:0:
166,283,52148,2,0,P|117:306|89:336,1,80,8|0,0:0|0:0,0:0:0:0:
0,384,52482,6,0,L|18:276,1,80,2|0,3:2|0:0,0:0:0:0:
53,80,52815,1,8,0:0:0:0:
102,260,52982,1,0,0:0:0:0:
12,97,53148,1,0,3:2:0:0:
164,199,53315,1,0,3:2:0:0:
0,217,53482,1,12,0:0:0:0:
158,70,53648,1,0,0:0:0:0:
92,268,53815,6,0,L|101:134,1,120,4|0,3:0|0:0,0:0:0:0:
105,139,54148,5,8,0:0:0:0:
190,154,54315,1,0,0:0:0:0:
243,55,54482,5,0,3:0:0:0:
158,70,54649,1,0,3:0:0:0:
276,172,54815,5,8,0:0:0:0:
361,187,54982,1,0,0:0:0:0:
329,35,55148,6,0,P|376:35|451:126,1,160,2|8,3:2|0:0,0:0:0:0:
386,281,55648,1,0,0:0:0:0:
359,119,55815,1,0,3:0:0:0:
403,298,55982,1,0,3:0:0:0:
279,132,56148,1,8,0:0:0:0:
460,232,56315,1,0,0:0:0:0:
299,298,56482,6,0,L|193:292,1,80,2|0,3:2|0:0,0:0:0:0:
60,295,56815,1,8,0:0:0:0:
210,368,56982,1,0,0:0:0:0:
103,198,57148,1,0,3:0:0:0:
128,384,57315,1,0,3:0:0:0:
205,241,57482,1,8,0:0:0:0:
48,302,57648,1,0,0:0:0:0:
218,239,57815,6,0,P|309:211|400:203,1,160,2|8,3:2|0:0,0:0:0:0:
510,284,58315,1,0,0:0:0:0:
355,336,58482,5,0,3:0:0:0:
446,134,58648,1,8,0:0:0:0:
429,371,58815,1,8,0:0:0:0:
364,99,58982,1,8,0:0:0:0:
364,99,59065,1,8,0:0:0:0:
364,99,59148,6,0,P|299:87|221:101,1,120,4|0,3:0|0:0,0:0:0:0:
237,101,59482,2,0,L|253:201,1,80,8|0,0:0|0:0,0:0:0:0:
296,343,59815,1,0,3:0:0:0:
260,183,59982,1,0,3:0:0:0:
179,317,60148,1,8,0:0:0:0:
351,272,60315,2,0,B|374:238|431:252|425:259|419:266|475:284|504:252,1,160,0|0,3:0|3:0,0:0:0:0:
398,158,60815,5,8,0:0:0:0:
413,358,60982,1,0,3:0:0:0:
416,148,61148,2,0,L|427:40,1,80,2|0,3:2|3:0,0:0:0:0:
333,204,61482,2,0,L|341:283,1,80,8|0,0:0|0:0,0:0:0:0:
274,129,61815,6,0,B|215:116|215:116|168:122|168:122|111:108,1,160,2|8,3:2|0:0,0:0:0:0:
0,61,62315,1,2,0:0:0:0:
179,88,62482,1,0,3:0:0:0:
10,79,62648,1,0,3:0:0:0:
138,0,62815,1,10,0:0:0:0:
68,181,62982,2,0,L|98:98,1,80,0|2,3:0|0:0,0:0:0:0:
13,339,63315,5,0,3:0:0:0:
178,283,63482,1,8,0:0:0:0:
68,181,63648,1,0,3:0:0:0:
107,370,63815,5,0,3:0:0:0:
147,145,63982,1,0,3:0:0:0:
191,358,64148,5,8,0:0:0:0:
236,140,64315,1,0,3:0:0:0:
236,140,64398,1,8,0:0:0:0:
236,140,64482,6,0,P|295:120|375:118,1,120,6|0,3:2|0:0,0:0:0:0:
363,119,64815,1,8,0:0:0:0:
498,182,64982,1,2,0:0:0:0:
323,194,65148,1,0,3:0:0:0:
482,170,65315,1,0,3:0:0:0:
376,264,65482,1,10,0:0:0:0:
437,74,65648,1,0,3:0:0:0:
388,255,65815,6,0,L|358:352,1,80,2|0,3:2|3:0,0:0:0:0:
160,363,66148,1,8,0:0:0:0:
292,303,66315,1,2,3:2:0:0:
167,373,66482,1,0,3:0:0:0:
219,180,66648,1,0,3:0:0:0:
273,376,66815,2,0,L|285:275,1,80,10|0,0:0|0:0,0:0:0:0:
196,75,67148,6,0,L|209:251,1,160,2|8,3:2|0:0,0:0:0:0:
174,375,67648,1,2,0:0:0:0:
314,260,67815,1,0,3:0:0:0:
126,299,67982,1,0,3:0:0:0:
295,331,68148,1,10,0:0:0:0:
114,293,68315,1,0,0:0:0:0:
314,260,68482,6,0,P|365:244|408:248,1,80,2|0,3:2|0:0,0:0:0:0:
512,301,68815,1,8,0:0:0:0:
398,148,68982,1,2,3:2:0:0:
502,309,69148,1,0,3:0:0:0:
460,106,69315,1,0,3:0:0:0:
430,343,69482,1,10,0:0:0:0:
512,180,69648,1,0,3:0:0:0:
317,262,69815,6,0,P|254:222|189:253,1,120,2|0,3:2|0:0,0:0:0:0:
203,240,70148,2,0,P|221:285|224:325,1,80,8|0,0:0|0:0,0:0:0:0:
113,373,70482,1,0,3:0:0:0:
166,170,70648,1,0,3:0:0:0:
0,254,70815,2,0,L|109:242,1,80,8|0,0:0|3:0,0:0:0:0:
295,161,71315,5,0,3:0:0:0:
223,24,71482,1,8,0:0:0:0:
237,210,71648,1,0,3:0:0:0:
318,11,71815,1,2,3:2:0:0:
146,114,71982,1,0,3:0:0:0:
372,93,72148,1,10,0:0:0:0:
209,14,72315,1,0,0:0:0:0:
384,98,72482,6,0,P|355:159|327:263,1,160,2|8,3:2|0:0,0:0:0:0:
379,384,72982,1,2,0:0:0:0:
424,240,73148,5,0,3:0:0:0:
272,334,73315,1,0,3:0:0:0:
435,252,73482,1,10,0:0:0:0:
302,225,73648,1,0,3:0:0:0:
455,344,73815,6,0,L|468:257,1,80,2|0,0:0|3:0,0:0:0:0:
446,99,74148,1,8,0:0:0:0:
377,260,74315,1,0,0:0:0:0:
467,115,74482,1,0,3:0:0:0:
330,135,74648,1,0,3:0:0:0:
512,194,74815,2,0,P|492:242|473:305,1,80,8|0,0:0|3:0,0:0:0:0:
456,292,75065,1,8,0:0:0:0:
456,292,75148,6,0,P|398:262|319:245,1,120,2|0,3:2|0:0,0:0:0:0:
336,243,75482,2,0,P|350:188|377:161,1,80,8|2,0:0|0:0,0:0:0:0:
495,101,75815,1,0,3:0:0:0:
349,50,75982,1,0,3:0:0:0:
500,176,76148,1,10,0:0:0:0:
445,9,76315,1,0,3:0:0:0:
373,175,76482,6,0,P|359:230|329:257,1,80,2|0,3:2|3:0,0:0:0:0:
157,271,76815,1,8,0:0:0:0:
294,186,76982,1,2,3:2:0:0:
232,307,77148,2,0,L|254:391,1,80,0|0,3:0|3:0,0:0:0:0:
191,170,77482,2,0,L|211:92,1,80,10|0,0:0|0:0,0:0:0:0:
314,34,77815,6,0,P|368:23|463:87,1,160,2|8,3:2|0:0,0:0:0:0:
389,260,78315,1,2,0:0:0:0:
373,108,78482,5,0,3:0:0:0:
489,209,78648,1,0,3:0:0:0:
295,169,78815,1,10,0:0:0:0:
469,128,78982,1,0,3:0:0:0:
389,260,79148,5,2,0:0:0:0:
389,260,79371,6,0,L|423:258,2,26.6666666666667,8|8|8,0:0|0:0|0:0,0:0:0:0:
283,311,79648,1,0,3:0:0:0:
199,267,79815,1,0,3:0:0:0:
189,187,79982,1,0,3:0:0:0:
218,132,80148,2,0,P|249:113|297:109,1,80,0|0,3:0|0:0,0:0:0:0:
421,9,80482,5,4,3:0:0:0:
466,76,80648,6,0,L|419:326,1,240,0|8,3:0|0:0,0:0:0:0:
353,363,81315,1,0,3:0:0:0:
272,341,81482,1,0,3:0:0:0:
257,257,81648,1,0,3:0:0:0:
208,190,81815,1,0,3:0:0:0:
131,183,81982,2,0,P|82:264|280:272,1,400,0|2,3:0|3:2,0:0:0:0:
180,268,83148,6,0,P|233:195|368:224,2,240,6|2|2,3:2|0:0|3:2,0:0:0:0:
278,282,84482,2,0,P|283:133|443:110,1,320,2|8,3:2|0:0,0:0:0:0:
503,173,85315,1,0,3:0:0:0:
488,196,85398,1,2,0:0:0:0:
479,222,85482,1,6,0:0:0:0:
472,249,85565,1,2,0:0:0:0:
471,277,85648,2,0,P|500:261|512:249,1,40,2|0,0:0|0:0,0:0:0:0:
512,363,85815,6,0,P|407:348|457:188,1,320,6|8,3:2|0:0,0:0:0:0:
470,276,86648,1,0,3:0:0:0:
406,328,86815,1,2,3:2:0:0:
324,313,86982,1,2,3:2:0:0:
288,240,87148,1,2,3:2:0:0:
301,163,87315,6,0,P|302:279|178:287,1,240,0|8,3:0|0:0,0:0:0:0:
173,181,88148,2,0,P|218:199|242:241,1,80,0|0,3:0|3:0,0:0:0:0:
268,382,88482,5,12,3:0:0:0:
333,221,88648,1,0,3:0:0:0:
438,347,88815,1,0,3:0:0:0:
248,290,88982,5,10,0:0:0:0:
412,218,89148,1,0,3:0:0:0:
373,384,89315,1,0,3:0:0:0:
313,206,89482,5,10,0:0:0:0:
478,277,89648,1,0,3:0:0:0:
430,116,89815,5,2,3:2:0:0:
371,349,89982,1,8,0:0:0:0:
351,80,90148,1,0,3:0:0:0:
459,281,90315,5,0,3:0:0:0:
255,203,90482,1,8,0:0:0:0:
512,188,90648,1,0,3:0:0:0:
233,218,90815,5,8,0:0:0:0:
55,15,91148,6,0,L|73:191,1,155.999992858887,4|0,3:0|0:0,0:0:0:0:
80,176,91482,2,0,L|56:295,1,103.999995239258,10|0,0:0|0:0,0:0:0:0:
214,384,91815,1,2,3:2:0:0:
154,265,91982,1,2,3:2:0:0:
55,384,92148,1,8,0:0:0:0:
240,302,92315,2,0,L|387:288,1,103.999995239258,2|0,3:2|0:0,0:0:0:0:
505,276,92648,1,2,3:2:0:0:
361,372,92815,2,0,L|390:258,1,103.999995239258,10|2,0:0|3:2,0:0:0:0:
213,238,93148,2,0,L|297:320,1,103.999995239258,2|2,3:2|3:2,0:0:0:0:
403,169,93482,2,0,L|289:200,1,103.999995239258,10|2,0:0|3:2,0:0:0:0:
142,216,93815,5,4,3:0:0:0:
280,118,93982,1,2,3:2:0:0:
230,281,94148,1,10,0:0:0:0:
207,90,94315,1,2,3:2:0:0:
319,200,94482,6,0,L|257:192,1,51.999997619629,2|0,3:2|0:0,0:0:0:0:
107,146,94648,2,0,L|224:131,1,103.999995239258,2|8,3:2|0:0,0:0:0:0:
349,214,94982,2,0,L|232:199,1,103.999995239258,2|0,3:2|0:0,0:0:0:0:
104,88,95315,1,2,3:2:0:0:
285,114,95482,1,10,0:0:0:0:
119,202,95648,1,2,3:2:0:0:
224,56,95815,6,0,P|288:32|338:50,1,103.999995239258,2|2,3:2|3:2,0:0:0:0:
343,172,96148,2,0,P|279:195|229:177,1,103.999995239258,10|2,0:0|3:2,0:0:0:0:
457,122,96482,6,0,P|425:200|409:288,1,155.999992858887,4|0,3:0|0:0,0:0:0:0:
421,284,96815,2,0,P|368:258|316:266,1,103.999995239258,10|0,0:0|0:0,0:0:0:0:
232,372,97148,1,2,3:2:0:0:
351,337,97315,1,2,3:2:0:0:
237,237,97482,1,8,0:0:0:0:
237,237,97648,2,0,P|172:226|97:228,1,103.999995239258,2|0,3:2|0:0,0:0:0:0:
13,167,97982,5,2,3:2:0:0:
161,39,98148,2,0,L|136:141,1,103.999995239258,10|2,0:0|3:2,0:0:0:0:
222,232,98482,2,0,L|146:159,1,103.999995239258,2|2,3:2|3:2,0:0:0:0:
31,188,98815,2,0,L|131:158,1,103.999995239258,10|2,0:0|3:2,0:0:0:0:
270,114,99148,5,4,3:0:0:0:
148,243,99315,1,2,3:2:0:0:
223,27,99482,1,10,0:0:0:0:
230,220,99648,1,2,3:2:0:0:
120,119,99815,2,0,L|180:136,1,51.999997619629,2|0,3:2|0:0,0:0:0:0:
311,173,99982,1,2,3:2:0:0:
113,98,100148,1,10,0:0:0:0:
286,74,100315,2,0,P|345:79|387:116,1,103.999995239258,2|4,3:2|0:0,0:0:0:0:
408,289,100648,5,2,3:2:0:0:
478,194,100815,1,14,0:0:0:0:
400,301,100982,1,2,0:0:0:0:
324,220,101148,2,0,P|267:209|217:225,1,103.999995239258,2|2,3:2|3:2,0:0:0:0:
130,126,101482,2,0,P|187:137|237:121,1,103.999995239258,10|2,0:0|3:2,0:0:0:0:
327,49,101815,6,0,B|312:104|312:104|325:146|325:146|308:209,1,155.999992858887,4|0,3:0|0:0,0:0:0:0:
316,208,102148,2,0,P|266:184|206:186,1,103.999995239258,10|0,0:0|0:0,0:0:0:0:
33,209,102482,1,2,3:2:0:0:
221,268,102648,1,2,3:2:0:0:
221,268,102815,1,8,0:0:0:0:
101,145,102982,2,0,L|112:266,1,103.999995239258,2|0,3:2|0:0,0:0:0:0:
131,378,103315,5,2,3:2:0:0:
221,268,103482,1,10,0:0:0:0:
40,317,103648,1,2,3:2:0:0:
229,351,103815,2,0,B|286:351|267:319|331:319,1,103.999995239258,2|2,3:2|3:2,0:0:0:0:
411,245,104148,2,0,B|354:245|373:213|309:213,1,103.999995239258,10|2,0:0|3:2,0:0:0:0:
150,197,104482,5,4,3:0:0:0:
315,128,104648,1,2,3:2:0:0:
166,216,104815,1,10,0:0:0:0:
239,51,104982,1,2,3:2:0:0:
227,244,105148,2,0,L|192:198,1,51.999997619629,2|0,3:2|0:0,0:0:0:0:
140,103,105315,1,2,3:2:0:0:
330,142,105482,1,10,0:0:0:0:
121,121,105648,2,0,B|70:115|70:115|29:152,1,103.999995239258,2|0,3:2|0:0,0:0:0:0:
1,282,105982,5,2,3:2:0:0:
139,232,106148,2,0,L|128:339,1,103.999995239258,10|2,0:0|3:2,0:0:0:0:
218,384,106482,2,0,L|228:280,1,103.999995239258,2|2,3:2|3:2,0:0:0:0:
311,108,106815,1,10,0:0:0:0:
340,254,106982,1,2,3:2:0:0:
179,209,107148,6,0,P|116:184|45:251,1,155.999992858887,4|0,3:0|0:0,0:0:0:0:
40,247,107482,2,0,L|55:124,1,103.999995239258,10|0,0:0|0:0,0:0:0:0:
113,0,107815,1,2,3:2:0:0:
141,153,107982,1,2,3:2:0:0:
4,53,108148,1,10,0:0:0:0:
167,139,108315,2,0,L|306:142,1,103.999995239258,2|0,3:2|0:0,0:0:0:0:
351,83,108648,6,0,P|401:59|452:76,1,103.999995239258,2|10,3:2|0:0,0:0:0:0:
499,169,108982,1,2,3:2:0:0:
438,238,109148,2,0,L|422:345,1,103.999995239258,2|2,3:2|3:2,0:0:0:0:
321,355,109482,2,0,L|337:253,1,103.999995239258,10|2,0:0|3:2,0:0:0:0:
315,35,109815,5,4,3:0:0:0:
419,191,109982,1,2,3:2:0:0:
229,208,110148,1,10,0:0:0:0:
425,86,110315,1,2,3:2:0:0:
327,260,110482,2,0,L|302:208,1,51.999997619629,2|0,3:2|0:0,0:0:0:0:
222,72,110648,1,2,3:2:0:0:
427,178,110815,1,8,0:0:0:0:
192,141,110982,1,2,3:2:0:0:
411,92,111148,5,4,3:0:0:0:
153,267,111482,1,4,3:0:0:0:
447,293,111815,1,4,3:0:0:0:
213,76,112148,1,4,3:0:0:0:
282,384,112482,5,4,3:0:0:0:
211,200,123148,6,0,P|267:160|363:171,1,160,4|0,0:1|0:0,0:0:0:0:
430,209,123648,2,0,L|458:40,1,160,4|0,0:1|0:0,0:0:0:0:
311,0,124148,2,0,L|337:157,1,160,4|0,0:1|0:0,0:0:0:0:
290,224,124648,2,0,P|231:258|145:201,1,160,4|0,0:1|0:0,0:0:0:0:
80,159,125148,2,0,L|65:262,1,80,4|0,0:1|0:0,0:0:0:0:
141,377,125482,2,0,L|152:297,1,80,4|8,0:1|0:0,0:0:0:0:
179,273,125732,1,8,0:0:0:0:
179,273,125815,6,0,B|222:284|254:250|254:250|282:214|334:228,1,160,4|0,0:1|0:0,0:0:0:0:
452,187,126315,2,0,B|409:198|377:164|377:164|349:128|297:142,1,160,4|0,0:1|0:0,0:0:0:0:
181,64,126815,2,0,B|168:115|168:115|189:165|189:165|175:224,1,160,4|0,0:1|0:0,0:0:0:0:
239,297,127315,2,0,B|251:245|251:245|293:211|293:211|308:152,1,160,4|0,0:1|0:0,0:0:0:0:
378,85,127815,2,0,P|421:78|466:45,1,80,4|0,0:1|0:0,0:0:0:0:
511,223,128148,2,0,P|468:216|423:183,1,80,4|8,0:1|0:0,0:0:0:0:
421,176,128398,1,8,0:0:0:0:
421,176,128482,6,0,L|396:351,1,160,4|0,0:1|0:0,0:0:0:0:
311,365,128982,2,0,L|333:206,1,160,4|0,0:1|0:0,0:0:0:0:
282,86,129482,2,0,P|243:39|141:63,1,160,4|0,0:1|0:0,0:0:0:0:
132,128,129982,2,0,P|171:175|273:151,1,160,4|0,0:1|0:0,0:0:0:0:
337,129,130482,2,0,L|438:149,1,80,4|0,0:1|0:0,0:0:0:0:
437,238,130815,2,0,L|358:222,1,80,4|8,0:1|0:0,0:0:0:0:
319,242,131065,1,8,0:0:0:0:
319,242,131148,6,0,B|325:354|325:354|280:392,1,160,4|0,0:1|0:0,0:0:0:0:
201,363,131648,2,0,B|195:251|195:251|240:213,1,160,4|0,0:1|0:0,0:0:0:0:
302,177,132148,1,4,0:1:0:0:
263,102,132315,1,0,0:0:0:0:
325,40,132482,5,4,0:1:0:0:
400,373,132815,1,4,0:1:0:0:
154,132,133148,1,4,0:1:0:0:
465,183,133482,1,4,0:1:0:0:
175,352,133815,5,0,0:0:0:0:
256,192,133898,12,8,136148,0:0:0:0:
15,29,136482,6,0,L|4:197,1,155.999992858887,4|0,3:0|0:0,0:0:0:0:
13,201,136815,2,0,P|79:188|121:221,1,103.999995239258,10|0,0:0|0:0,0:0:0:0:
175,296,137148,1,2,3:2:0:0:
59,271,137315,2,0,P|57:321|33:383,1,103.999995239258,2|10,3:2|0:0,0:0:0:0:
180,384,137648,2,0,P|220:354|283:333,1,103.999995239258,2|0,3:2|0:0,0:0:0:0:
371,339,137982,6,0,L|364:207,1,103.999995239258,2|10,3:2|0:0,0:0:0:0:
448,161,138315,2,0,L|457:296,1,103.999995239258,2|2,3:2|3:2,0:0:0:0:
336,152,138648,1,2,3:2:0:0:
470,79,138815,2,0,L|365:76,1,103.999995239258,10|2,0:0|3:2,0:0:0:0:
154,75,139148,5,4,3:0:0:0:
327,8,139315,1,2,3:2:0:0:
219,182,139482,1,10,0:0:0:0:
231,0,139648,1,2,3:2:0:0:
230,196,139815,1,2,3:2:0:0:
300,11,139982,1,2,3:2:0:0:
127,141,140148,1,8,0:0:0:0:
349,112,140315,2,0,P|396:83|481:94,1,103.999995239258,2|0,3:2|0:0,0:0:0:0:
343,208,140648,5,2,3:2:0:0:
234,129,140815,2,0,L|251:17,1,103.999995239258,10|2,0:0|3:2,0:0:0:0:
138,168,141148,1,2,3:2:0:0:
138,168,141315,1,2,3:2:0:0:
273,255,141482,2,0,L|414:268,1,103.999995239258,10|2,0:0|3:2,0:0:0:0:
229,190,141815,6,0,L|69:205,1,155.999992858887,4|0,3:0|0:0,0:0:0:0:
67,215,142148,2,0,L|80:348,1,103.999995239258,10|0,0:0|0:0,0:0:0:0:
233,381,142482,1,2,3:2:0:0:
157,289,142648,2,0,P|210:251|284:251,1,103.999995239258,2|8,3:2|0:0,0:0:0:0:
325,367,142982,2,0,L|367:148,1,207.999990478516,2|2,3:2|3:2,0:0:0:0:
454,137,143482,6,0,L|427:277,1,103.999995239258,10|2,0:0|3:2,0:0:0:0:
389,384,143815,1,2,3:2:0:0:
337,228,143982,1,2,3:2:0:0:
492,324,144148,2,0,L|360:303,1,103.999995239258,10|2,0:0|3:2,0:0:0:0:
191,281,144482,5,4,3:0:0:0:
373,261,144648,1,2,3:2:0:0:
264,376,144815,1,10,0:0:0:0:
310,139,144982,1,2,3:2:0:0:
293,362,145148,1,2,3:2:0:0:
230,164,145315,1,2,3:2:0:0:
385,266,145482,1,8,0:0:0:0:
182,310,145648,2,0,P|142:322|59:281,1,103.999995239258,2|4,3:2|3:2,0:0:0:0:
3,114,145982,5,2,3:2:0:0:
137,243,146148,2,0,L|145:121,1,103.999995239258,14|2,0:0|3:2,0:0:0:0:
310,46,146482,5,2,3:2:0:0:
189,62,146648,1,2,3:2:0:0:
321,44,146815,1,10,0:0:0:0:
180,63,146982,1,2,3:2:0:0:
352,139,147148,6,0,L|322:330,1,155.999992858887,4|0,3:0|0:0,0:0:0:0:
333,306,147482,2,0,P|391:288|477:292,1,103.999995239258,10|0,0:0|0:0,0:0:0:0:
503,163,147815,1,2,3:2:0:0:
324,219,147982,2,0,P|265:192|185:192,1,103.999995239258,2|8,3:2|0:0,0:0:0:0:
214,37,148315,2,0,P|292:108|403:68,1,207.999990478516,2|2,3:2|3:2,0:0:0:0:
312,19,148815,5,10,0:0:0:0:
485,183,148982,2,0,L|353:195,1,103.999995239258,2|2,3:2|3:2,0:0:0:0:
216,137,149315,1,2,3:2:0:0:
324,281,149482,2,0,L|312:390,1,103.999995239258,10|2,0:0|3:2,0:0:0:0:
195,317,149815,5,4,3:0:0:0:
289,132,149982,1,2,3:2:0:0:
333,274,150148,1,10,0:0:0:0:
186,130,150315,1,2,3:2:0:0:
386,200,150482,1,2,3:2:0:0:
180,241,150648,1,2,3:2:0:0:
320,105,150815,1,8,0:0:0:0:
213,330,150982,2,0,P|148:318|19:384,1,207.999990478516,2|2,3:2|3:2,0:0:0:0:
88,250,151482,6,0,P|114:182|106:129,1,103.999995239258,8|2,0:0|3:2,0:0:0:0:
72,15,151815,1,2,3:2:0:0:
184,80,151982,1,2,3:2:0:0:
354,30,152148,2,0,P|299:61|266:113,1,103.999995239258,8|2,0:0|3:2,0:0:0:0:
371,182,152482,6,0,L|351:352,1,155.999992858887,4|0,3:0|0:0,0:0:0:0:
362,368,152815,2,0,P|303:345|231:334,1,103.999995239258,10|0,0:0|0:0,0:0:0:0:
131,269,153148,2,0,P|181:257|229:237,1,103.999995239258,2|2,3:2|3:2,0:0:0:0:
243,57,153482,1,8,0:0:0:0:
382,140,153648,2,0,L|363:269,1,103.999995239258,2|0,3:2|0:0,0:0:0:0:
499,298,153982,6,0,L|483:195,1,103.999995239258,2|10,3:2|0:0,0:0:0:0:
431,21,154315,1,2,3:2:0:0:
328,134,154482,2,0,L|217:122,1,103.999995239258,2|2,3:2|3:2,0:0:0:0:
163,229,154815,2,0,L|274:217,1,103.999995239258,10|2,0:0|3:2,0:0:0:0:
443,198,155148,5,4,3:0:0:0:
297,285,155315,1,2,3:2:0:0:
405,113,155482,1,10,0:0:0:0:
382,317,155648,1,2,0:0:0:0:
374,95,155815,1,2,3:2:0:0:
450,264,155982,1,2,3:2:0:0:
280,191,156148,1,8,0:0:0:0:
480,169,156315,1,2,3:2:0:0:
269,203,156482,6,0,L|137:196,1,103.999995239258,4|0,3:0|0:0,0:0:0:0:
351,370,156815,2,0,L|483:363,1,103.999995239258,4|0,3:0|0:0,0:0:0:0:
260,192,157148,2,0,L|128:185,1,103.999995239258,4|0,3:0|0:0,0:0:0:0:
357,379,157481,2,0,L|489:372,1,103.999995239258,4|0,3:0|0:0,0:0:0:0:
342,279,157815,6,0,L|355:118,1,155.999992858887,4|0,3:0|0:0,0:0:0:0:
365,112,158148,2,0,P|327:58|252:58,1,103.999995239258,10|0,0:0|0:0,0:0:0:0:
106,91,158482,1,2,3:2:0:0:
283,124,158648,1,2,3:2:0:0:
157,13,158815,1,8,0:0:0:0:
228,192,158982,2,0,L|205:316,1,103.999995239258,2|0,3:2|0:0,0:0:0:0:
311,374,159315,1,2,3:2:0:0:
342,268,159482,2,0,P|309:313|309:376,1,103.999995239258,10|2,0:0|3:2,0:0:0:0:
352,198,159815,2,0,P|329:147|274:116,1,103.999995239258,2|2,3:2|3:2,0:0:0:0:
409,244,160148,2,0,P|464:249|518:217,1,103.999995239258,10|2,0:0|3:2,0:0:0:0:
432,36,160482,5,4,3:0:0:0:
401,250,160648,1,2,3:2:0:0:
510,120,160815,1,10,0:0:0:0:
297,69,160982,1,2,3:2:0:0:
484,210,161148,1,2,3:2:0:0:
316,52,161315,1,2,3:2:0:0:
391,256,161482,1,8,0:0:0:0:
495,45,161648,2,0,L|362:36,1,103.999995239258,2|0,3:2|0:0,0:0:0:0:
225,79,161982,5,2,3:2:0:0:
373,172,162148,1,10,0:0:0:0:
301,0,162315,1,2,3:2:0:0:
269,216,162482,2,0,P|215:181|140:190,1,103.999995239258,2|2,3:2|3:2,0:0:0:0:
110,104,162815,2,0,P|160:97|202:66,1,103.999995239258,10|2,0:0|3:2,0:0:0:0:
278,224,163148,6,0,L|249:385,1,155.999992858887,4|0,3:0|0:0,0:0:0:0:
234,384,163482,2,0,P|184:360|115:352,1,103.999995239258,8|0,0:0|0:0,0:0:0:0:
65,199,163815,1,2,3:2:0:0:
38,384,163982,1,2,3:2:0:0:
190,283,164148,1,8,0:0:0:0:
0,260,164315,2,0,P|34:216|56:156,1,103.999995239258,2|0,3:2|0:0,0:0:0:0:
116,84,164648,5,2,3:2:0:0:
186,157,164815,2,0,L|309:142,1,103.999995239258,10|2,0:0|3:2,0:0:0:0:
367,11,165148,1,2,3:2:0:0:
386,157,165315,1,2,3:2:0:0:
498,88,165482,2,0,P|479:135|460:226,1,103.999995239258,10|2,0:0|3:2,0:0:0:0:
401,360,165815,5,4,3:0:0:0:
403,180,165982,1,2,3:2:0:0:
431,358,166149,1,10,0:0:0:0:
315,227,166315,1,2,3:2:0:0:
512,279,166482,1,2,3:2:0:0:
325,330,166649,1,2,3:2:0:0:
440,136,166815,1,8,0:0:0:0:
505,288,166982,2,0,P|480:346|466:389,1,103.999995239258,2|0,3:2|0:0,0:0:0:0:
371,281,167315,5,2,3:2:0:0:
468,189,167482,2,0,L|483:72,1,103.999995239258,14|2,0:0|3:2,0:0:0:0:
361,9,167815,2,0,L|374:112,1,103.999995239258,2|2,3:2|3:2,0:0:0:0:
264,219,168148,1,10,0:0:0:0:
213,71,168315,1,2,3:2:0:0:
95,141,168482,6,0,P|179:154|272:137,1,155.999992858887,4|0,3:0|0:0,0:0:0:0:
267,151,168815,2,0,P|238:198|210:279,1,103.999995239258,8|0,0:0|0:0,0:0:0:0:
354,384,169148,1,2,3:2:0:0:
298,266,169315,2,0,P|318:218|345:174,1,103.999995239258,2|8,3:2|0:0,0:0:0:0:
458,48,169648,2,0,P|392:62|346:44,1,103.999995239258,2|0,3:2|0:0,0:0:0:0:
226,0,169982,5,2,3:2:0:0:
164,116,170148,2,0,L|179:244,1,103.999995239258,10|2,0:0|3:2,0:0:0:0:
253,343,170482,1,2,3:2:0:0:
114,312,170648,1,2,3:2:0:0:
308,256,170815,2,0,L|444:282,1,103.999995239258,10|2,0:0|3:2,0:0:0:0:
357,135,171148,5,4,3:0:0:0:
290,354,171315,1,2,3:2:0:0:
270,165,171482,1,10,0:0:0:0:
387,318,171648,1,2,3:2:0:0:
214,261,171815,1,2,3:2:0:0:
417,249,171982,1,2,3:2:0:0:
199,279,172148,1,8,0:0:0:0:
390,175,172315,1,2,3:2:0:0:
351,8,172648,5,2,3:2:0:0:
269,111,172815,2,0,L|281:238,1,103.999995239258,10|2,0:0|3:2,0:0:0:0:
332,384,173148,1,2,3:2:0:0:
390,201,173315,1,2,3:2:0:0:
251,361,173482,2,0,L|112:349,1,103.999995239258,10|2,0:0|3:2,0:0:0:0:
45,341,173815,6,0,B|36:289|36:289|56:240|56:240|44:174,1,155.999992858887,4|0,3:0|0:0,0:0:0:0:
36,179,174148,2,0,P|88:133|158:130,1,103.999995239258,10|0,0:0|0:0,0:0:0:0:
299,98,174482,1,2,3:2:0:0:
112,210,174648,1,2,3:2:0:0:
246,30,174815,1,8,0:0:0:0:
206,208,174982,2,0,L|188:333,1,103.999995239258,2|0,3:2|0:0,0:0:0:0:
270,375,175315,5,2,3:2:0:0:
394,323,175482,1,10,0:0:0:0:
299,183,175648,2,0,L|317:308,1,103.999995239258,2|2,3:2|3:2,0:0:0:0:
409,191,175982,1,2,3:2:0:0:
259,100,176148,2,0,L|139:113,1,103.999995239258,10|2,0:0|3:2,0:0:0:0:
277,108,176482,5,4,3:0:0:0:
390,214,176648,1,2,3:2:0:0:
356,22,176815,1,10,0:0:0:0:
292,249,176982,1,2,3:2:0:0:
424,115,177148,1,2,3:2:0:0:
218,194,177315,1,2,3:2:0:0:
438,136,177482,1,8,0:0:0:0:
281,52,177648,1,2,3:2:0:0:
409,234,177815,6,0,L|391:378,1,140.000001335144,4|0,3:0|0:0,0:0:0:0:
222,178,178148,6,0,L|204:322,1,140.000001335144,4|0,3:0|0:0,0:0:0:0:
49,137,178482,6,0,L|31:281,1,140.000001335144,4|0,3:0|0:0,0:0:0:0:
123,31,178815,5,4,3:0:0:0:
234,169,178982,6,0,B|291:129|346:165|346:165|410:206|465:167,1,240.000009155274,6|0,0:0|0:0,0:0:0:0:
