osu file format v14

[General]
AudioFilename: audio.mp3
AudioLeadIn: 0
PreviewTime: 84266
Countdown: 0
SampleSet: Soft
StackLeniency: 0.3
Mode: 0
LetterboxInBreaks: 0
WidescreenStoryboard: 1

[Editor]
Bookmarks: 3876,26376,41376,71376,86376,101844,116376
DistanceSpacing: 1.9
BeatDivisor: 4
GridSize: 4
TimelineZoom: 0.9999999

[Metadata]
Title:Miles Above You
TitleUnicode:Miles Above You
Artist:Spektrem
ArtistUnicode:Spektrem
Creator:Moko
Version:YO_WUZ_UP's Hyper
Source:
Tags:electro progressive house vocal ncs music bass drop electronic edm moko xahlt civil oath [fc]yo_wuz_up l3nny xm4ti3
BeatmapID:2291983
BeatmapSetID:1015083

[Difficulty]
HPDrainRate:4
CircleSize:3.2
OverallDifficulty:5
ApproachRate:7.6
SliderMultiplier:1.6
SliderTickRate:1

[Events]
//Background and Video events
0,0,"ismail-inceoglu-magnetic-storm-catcher.jpg",0,0
//Break Periods
//Storyboard Layer 0 (Background)
//Storyboard Layer 1 (Fail)
//Storyboard Layer 2 (Pass)
//Storyboard Layer 3 (Foreground)
//Storyboard Layer 4 (Overlay)
//Storyboard Sound Samples

[TimingPoints]
2001,468.75,4,2,1,70,1,0
11376,-125,4,2,1,70,0,0
17235,-100,4,2,1,70,0,0
18876,-125,4,2,1,70,0,0
26376,-83.3333333333333,4,2,1,70,0,0
41376,-166.666666666667,4,2,1,70,0,0
71376,-100,4,2,1,70,0,0
86376,-83.3333333333333,4,2,1,70,0,1
99501,-100,4,2,1,70,0,0
101844,-83.3333333333333,4,2,1,70,0,1
114501,-100,4,2,1,70,0,0

[Colours]
Combo1 : 255,201,174
Combo2 : 0,128,192
SliderBorder : 163,3,78
SliderTrackOverride : 94,94,94

[HitObjects]
124,139,3876,5,0,0:0:0:0:
188,198,4110,2,0,L|195:246,1,40,0|0,0:0|0:0,0:0:0:0:
272,131,4579,1,0,0:0:0:0:
262,43,4813,1,0,0:0:0:0:
341,80,5047,1,0,0:0:0:0:
349,91,5165,2,0,P|359:136|343:182,1,80,0|0,0:0|0:0,0:0:0:0:
296,288,5751,5,0,0:0:0:0:
222,239,5985,2,0,L|220:190,1,40,0|0,0:0|0:0,0:0:0:0:
217,66,6454,1,0,0:0:0:0:
132,91,6688,1,0,0:0:0:0:
114,177,6922,1,0,0:0:0:0:
199,152,7156,1,0,0:0:0:0:
368,102,7626,5,0,0:0:0:0:
427,166,7860,2,0,L|419:222,1,40,0|0,0:0|0:0,0:0:0:0:
347,315,8329,1,0,0:0:0:0:
259,309,8563,1,0,0:0:0:0:
171,304,8797,1,0,0:0:0:0:
157,298,8915,2,0,P|147:248|151:216,1,80,0|0,0:0|0:0,0:0:0:0:
178,90,9501,5,2,0:0:0:0:
261,63,9735,2,0,L|302:70,1,40,0|2,0:0|0:0,0:0:0:0:
397,159,10204,1,2,0:0:0:0:
359,238,10438,1,2,0:0:0:0:
273,223,10672,1,0,0:0:0:0:
310,143,10906,1,0,0:0:0:0:
165,250,11376,6,0,P|177:213|174:181,1,64,2|0,0:0|0:0,0:0:0:0:
87,204,11844,2,0,P|86:172|97:142,1,64,2|0,0:0|0:0,0:0:0:0:
178,102,12313,1,2,0:0:0:0:
250,49,12547,1,2,0:0:0:0:
308,116,12782,1,0,0:0:0:0:
385,72,13016,1,0,0:0:0:0:
443,140,13251,6,0,P|456:189|448:240,1,96,2|2,0:0|0:0,0:0:0:0:
289,303,13954,1,2,0:0:0:0:
299,214,14188,1,2,0:0:0:0:
222,167,14422,1,0,0:0:0:0:
212,78,14656,1,2,0:0:0:0:
84,205,15126,6,0,P|86:240|98:271,1,64,2|0,0:0|0:0,0:0:0:0:
171,315,15594,1,2,0:0:0:0:
259,299,15829,1,0,0:0:0:0:
346,317,16063,2,0,P|371:298|393:233,1,96,2|2,0:0|0:0,0:0:0:0:
342,72,16766,1,2,0:0:0:0:
252,66,17001,5,2,0:0:0:0:
197,134,17235,2,0,L|202:183,1,40,0|0,0:0|0:0,0:0:0:0:
215,305,17704,1,0,0:0:0:0:
301,319,17938,1,0,0:0:0:0:
356,250,18172,1,0,0:0:0:0:
270,236,18406,1,0,0:0:0:0:
129,218,18876,6,0,P|123:181|127:155,1,64,2|0,0:0|0:0,0:0:0:0:
172,78,19344,2,0,P|201:54|225:44,1,64,2|0,0:0|0:0,0:0:0:0:
300,93,19813,1,2,0:0:0:0:
384,62,20047,1,2,0:0:0:0:
469,90,20282,1,0,0:0:0:0:
483,178,20516,1,0,0:0:0:0:
418,240,20751,6,0,P|369:232|318:250,1,96,2|2,0:0|0:0,0:0:0:0:
186,349,21454,1,2,0:0:0:0:
171,260,21688,1,2,0:0:0:0:
94,213,21922,1,0,0:0:0:0:
109,124,22156,1,2,0:0:0:0:
272,48,22626,6,0,L|287:120,1,64,2|0,0:0|0:0,0:0:0:0:
374,114,23094,2,0,L|359:186,1,64,2|0,0:0|0:0,0:0:0:0:
340,264,23563,1,2,0:0:0:0:
160,267,24032,1,2,0:0:0:0:
166,272,24149,1,2,0:0:0:0:
105,152,24501,5,2,0:0:0:0:
158,80,24735,1,0,0:0:0:0:
188,164,24969,1,2,0:0:0:0:
239,90,25204,1,0,0:0:0:0:
270,173,25438,1,2,0:0:0:0:
322,100,25672,1,0,0:0:0:0:
353,184,25907,5,10,0:2:0:0:
383,267,26141,1,8,2:0:0:0:
326,333,26376,6,0,P|278:320|230:326,1,95.9999970703126,6|0,3:2|0:0,0:0:0:0:
156,364,26844,2,0,P|108:369|62:356,1,95.9999970703126,0|0,3:0|0:0,0:0:0:0:
6,290,27313,2,0,L|12:189,1,95.9999970703126,0|0,3:0|0:0,0:0:0:0:
85,148,27782,2,0,P|74:100|88:50,1,95.9999970703126,0|0,3:0|0:0,0:0:0:0:
160,98,28251,6,0,P|215:111|253:101,1,95.9999970703126,2|0,3:0|0:0,0:0:0:0:
324,53,28719,2,0,P|380:61|415:89,1,95.9999970703126,2|0,3:0|0:0,0:0:0:0:
448,162,29188,2,0,P|441:212|441:270,1,95.9999970703126,2|0,3:0|0:0,0:0:0:0:
437,284,29540,1,2,0:0:0:0:
435,310,29657,2,0,P|385:323|332:320,1,95.9999970703126,0|2,0:0|0:0,0:0:0:0:
254,317,30126,6,0,P|267:270|307:237,1,95.9999970703126,2|0,3:0|0:0,0:0:0:0:
365,181,30594,2,0,P|352:134|312:101,1,95.9999970703126,0|0,3:0|0:0,0:0:0:0:
231,95,31063,2,0,P|184:108|151:148,1,95.9999970703126,0|0,3:0|0:0,0:0:0:0:
135,227,31532,2,0,P|148:274|188:307,1,95.9999970703126,0|0,3:0|0:0,0:0:0:0:
263,275,32001,6,0,P|315:283|360:298,1,95.9999970703126,2|0,3:0|0:0,0:0:0:0:
438,271,32469,2,0,P|451:225|443:174,1,95.9999970703126,2|0,3:0|0:0,0:0:0:0:
364,211,32938,2,0,P|357:163|370:117,1,95.9999970703126,2|0,3:0|0:0,0:0:0:0:
383,94,33290,1,2,0:0:0:0:
401,76,33407,2,0,L|301:79,1,95.9999970703126,0|2,0:0|0:0,0:0:0:0:
218,80,33876,6,0,P|168:98|137:131,1,95.9999970703126,10|0,3:2|0:0,0:0:0:0:
141,214,34344,2,0,P|191:196|222:163,1,95.9999970703126,10|0,3:2|0:0,0:0:0:0:
304,144,34813,2,0,L|320:260,1,95.9999970703126,10|0,3:2|0:0,0:0:0:0:
319,266,35165,1,10,0:2:0:0:
323,292,35282,1,0,0:0:0:0:
334,377,35516,1,10,0:2:0:0:
252,348,35751,6,0,P|203:330|156:342,1,95.9999970703126,10|0,3:2|0:0,0:0:0:0:
89,291,36219,2,0,P|107:242|95:195,1,95.9999970703126,10|0,3:2|0:0,0:0:0:0:
167,149,36688,2,0,P|216:167|263:155,1,95.9999970703126,10|0,3:2|0:0,0:0:0:0:
280,144,37040,1,10,0:2:0:0:
301,128,37157,2,0,P|347:119|391:136,1,95.9999970703126,0|10,0:0|0:2,0:0:0:0:
447,202,37626,6,0,L|437:308,1,95.9999970703126,10|0,3:2|0:0,0:0:0:0:
354,320,38094,2,0,L|363:224,1,95.9999970703126,10|0,3:2|0:0,0:0:0:0:
281,196,38563,2,0,L|271:302,1,95.9999970703126,10|0,3:2|0:0,0:0:0:0:
263,317,38915,1,10,0:2:0:0:
255,343,39032,2,0,P|208:352|149:337,1,95.9999970703126,0|10,0:0|0:2,0:0:0:0:
108,273,39501,5,10,3:2:0:0:
120,187,39735,1,8,0:2:0:0:
159,110,39969,1,10,3:2:0:0:
229,59,40204,1,10,0:2:0:0:
315,58,40438,1,10,3:2:0:0:
319,73,40555,1,8,0:2:0:0:
401,98,40790,1,8,2:0:0:0:
397,113,40907,1,10,3:2:0:0:
370,194,41141,1,10,2:0:0:0:
344,274,41376,6,0,P|284:303|95:167,1,311.999990478516,4|2,0:0|0:0,0:0:0:0:
242,45,43719,1,0,0:0:0:0:
170,135,44188,2,0,P|149:105|140:71,2,71.9999978027344,2|2|2,0:0|0:0|0:0,0:0:0:0:
258,143,45126,2,0,P|279:297|163:248,1,335.999989746094,2|2,0:0|0:0,0:0:0:0:
99,128,47235,1,2,0:0:0:0:
149,63,47469,2,0,P|176:59|211:65,1,47.9999985351563,2|2,0:0|0:0,0:0:0:0:
277,75,47938,2,0,P|327:82|352:73,2,71.9999978027344,2|2|2,0:0|0:0|0:0,0:0:0:0:
249,149,48876,6,0,B|352:189|386:126|435:144|435:144|418:192|444:243,1,287.999991210938,0|0,0:0|0:0,0:0:0:0:
407,311,50516,2,0,P|345:319|301:311,1,95.9999970703126,2|2,0:0|0:0,0:0:0:0:
275,240,51219,1,2,0:0:0:0:
202,278,51454,1,2,0:0:0:0:
122,261,51688,2,0,P|75:252|41:260,2,71.9999978027344,2|2|2,0:0|0:0|0:0,0:0:0:0:
177,200,52626,2,0,P|233:133|283:286,1,335.999989746094,0|2,0:0|0:0,0:0:0:0:
210,305,54501,2,0,P|146:286|92:232,1,143.999995605469,2|2,0:0|0:0,0:0:0:0:
89,151,55438,2,0,P|138:99|206:78,1,143.999995605469,2|2,0:0|0:0,0:0:0:0:
288,74,56376,6,0,B|307:218|423:116|459:280|443:327,1,311.999990478516,2|0,0:0|0:0,0:0:0:0:
194,288,58719,1,2,0:0:0:0:
158,158,59188,2,0,L|173:82,2,71.9999978027344,2|2|2,0:0|0:0|0:0,0:0:0:0:
246,188,60126,2,0,B|389:164|311:99|477:76|477:76|459:100|461:136,1,311.999990478516,2|0,0:0|0:0,0:0:0:0:
447,252,62001,2,0,P|423:277|386:291,2,71.9999978027344,2|2|2,0:0|0:0|0:0,0:0:0:0:
379,206,62938,2,0,P|340:204|305:188,2,71.9999978027344,2|2|2,0:0|0:0|0:0,0:0:0:0:
362,125,63876,6,0,P|311:110|273:117,1,71.9999978027344,2|2,0:0|0:0,0:0:0:0:
196,187,64579,1,2,0:0:0:0:
229,261,64813,2,0,P|194:268|143:251,1,71.9999978027344,2|2,0:0|0:0,0:0:0:0:
104,150,65516,1,2,0:0:0:0:
139,76,65751,2,0,L|211:87,1,71.9999978027344,2|2,0:0|0:0,0:0:0:0:
331,103,66454,1,2,0:0:0:0:
410,122,66688,2,0,B|449:136|449:136|468:165,1,71.9999978027344,2|2,0:0|0:0,0:0:0:0:
455,283,67391,1,2,0:0:0:0:
381,319,67626,6,0,B|277:338|211:291|212:202|212:202|262:218,1,287.999991210938,2|0,0:0|0:0,0:0:0:0:
416,185,69501,2,0,P|401:124|386:106,1,71.9999978027344,2|2,0:0|0:0,0:0:0:0:
288,59,70204,1,2,0:0:0:0:
226,111,70438,2,0,P|182:126|150:123,1,71.9999978027344,2|2,0:0|0:0,0:0:0:0:
317,251,71376,6,0,P|274:261|237:283,1,80,2|2,0:0|0:0,0:0:0:0:
147,279,71844,2,0,P|104:269|67:247,1,80,2|2,0:0|0:0,0:0:0:0:
9,179,72313,2,0,L|21:94,1,80,2|0,0:0|0:0,0:0:0:0:
106,57,72782,2,0,L|117:136,1,80,0|0,0:0|0:0,0:0:0:0:
198,188,73251,6,0,P|234:156|265:148,1,80,0|2,0:0|0:0,0:0:0:0:
330,78,73719,2,0,P|375:93|398:116,1,80,2|2,0:0|0:0,0:0:0:0:
492,130,74188,2,0,P|501:177|493:208,1,80,2|0,0:0|0:0,0:0:0:0:
509,301,74657,2,0,P|473:333|442:341,1,80,0|0,0:0|0:0,0:0:0:0:
356,299,75126,6,0,L|273:319,1,80,2|2,0:0|0:0,0:0:0:0:
184,337,75594,2,0,L|106:318,1,80,2|2,0:0|0:0,0:0:0:0:
55,236,76063,2,0,L|132:217,1,80,2|0,0:0|0:0,0:0:0:0:
225,192,76532,2,0,L|308:212,1,80,0|0,0:0|0:0,0:0:0:0:
397,226,77001,6,0,P|432:193|445:155,1,80,0|2,0:0|0:0,0:0:0:0:
409,74,77469,2,0,P|374:107|361:145,1,80,2|2,0:0|0:0,0:0:0:0:
267,121,77938,2,0,P|250:84|220:59,1,80,2|0,0:0|0:0,0:0:0:0:
186,150,78406,2,0,P|202:186|232:211,1,80,0|0,0:0|0:0,0:0:0:0:
325,239,78876,6,0,L|351:205,7,40,2|0|0|0|2|0|0|0,0:0|0:0|0:0|0:0|0:0|0:0|0:0|0:0,0:0:0:0:
328,281,79813,2,0,L|302:315,7,40,2|0|0|0|2|0|0|0,0:0|0:0|0:0|0:0|0:0|0:0|0:0|0:0,0:0:0:0:
325,239,80751,6,0,L|359:265,7,40,2|0|0|0|2|0|0|0,0:0|0:0|0:0|0:0|0:0|0:0|0:0|0:0,0:0:0:0:
283,242,81688,2,0,L|249:216,7,40,2|0|0|0|2|0|0|0,0:0|0:0|0:0|0:0|0:0|0:0|0:0|0:0,0:0:0:0:
256,192,82626,12,0,84501,0:0:0:0:
139,140,85438,6,0,P|164:180|201:196,1,80,0|0,0:0|0:0,0:0:0:0:
282,159,85907,2,0,P|316:178|335:213,1,80,0|0,0:0|0:0,0:0:0:0:
433,274,86376,6,0,L|441:169,1,95.9999970703126,6|0,3:2|0:0,0:0:0:0:
445,82,86844,1,2,3:0:0:0:
349,90,87079,1,0,0:0:0:0:
282,159,87313,2,0,P|213:183|189:177,1,95.9999970703126,2|2,3:0|0:0,0:0:0:0:
167,166,87665,1,2,0:0:0:0:
71,177,87899,1,2,0:0:0:0:
90,270,88133,2,0,L|104:329,1,47.9999985351563,2|0,0:0|0:0,0:0:0:0:
244,334,88485,5,0,0:0:0:0:
307,262,88719,1,2,3:0:0:0:
378,326,88954,1,0,0:0:0:0:
446,260,89188,2,0,P|476:279|502:287,3,47.9999985351563,2|0|0|2,3:0|0:0|0:0|0:0,0:0:0:0:
443,221,89657,2,0,P|473:201|499:194,3,47.9999985351563,2|2|2|2,3:0|0:0|0:0|0:0,0:0:0:0:
419,195,90126,1,2,3:0:0:0:
395,56,90360,5,0,0:0:0:0:
330,127,90594,1,2,3:0:0:0:
244,82,90829,1,0,0:0:0:0:
180,147,91063,2,0,P|168:193|175:244,1,95.9999970703126,2|2,3:0|0:0,0:0:0:0:
186,266,91415,1,2,0:0:0:0:
279,284,91649,1,2,0:0:0:0:
373,300,91883,2,0,L|401:249,1,47.9999985351563,2|0,0:0|0:0,0:0:0:0:
455,140,92235,5,0,0:0:0:0:
382,77,92469,1,2,3:0:0:0:
350,168,92704,1,0,0:0:0:0:
285,97,92938,1,2,3:0:0:0:
236,179,93172,1,2,0:0:0:0:
222,204,93290,1,2,0:0:0:0:
171,285,93524,1,2,0:0:0:0:
122,202,93758,1,2,0:0:0:0:
53,75,94110,5,0,0:0:0:0:
140,36,94344,1,2,3:0:0:0:
229,74,94579,1,0,0:0:0:0:
321,48,94813,2,0,P|372:66|402:103,1,95.9999970703126,2|2,3:0|0:0,0:0:0:0:
401,125,95165,1,2,0:0:0:0:
382,218,95399,1,2,0:0:0:0:
289,243,95633,2,0,L|242:237,1,47.9999985351563,2|0,0:0|0:0,0:0:0:0:
95,221,95985,5,0,0:0:0:0:
167,157,96219,1,2,3:0:0:0:
93,94,96454,1,0,0:0:0:0:
175,46,96688,2,0,P|200:42|227:25,3,47.9999985351563,2|0|0|2,3:0|0:0|0:0|0:0,0:0:0:0:
265,47,97157,2,0,P|290:50|317:67,3,47.9999985351563,2|2|2|2,3:0|0:0|0:0|0:0,0:0:0:0:
337,101,97626,1,2,3:0:0:0:
430,233,97860,5,0,0:0:0:0:
363,302,98094,1,2,3:0:0:0:
273,266,98329,1,0,0:0:0:0:
267,169,98563,2,0,P|227:130|183:118,1,95.9999970703126,2|2,3:0|0:0,0:0:0:0:
160,121,98915,1,2,0:0:0:0:
111,203,99149,1,2,0:0:0:0:
64,286,99383,1,2,0:0:0:0:
193,327,99735,5,0,0:0:0:0:
252,273,99969,1,2,0:0:0:0:
317,319,100204,1,0,0:0:0:0:
371,260,100438,1,2,0:0:0:0:
421,197,100672,2,0,P|443:193|466:199,5,40,2|2|0|2|2|2,0:0|0:0|0:0|0:0|0:0|0:0,0:0:0:0:
334,85,101610,1,0,0:0:0:0:
238,93,101844,6,0,L|142:104,1,95.9999970703126,6|0,3:2|0:0,0:0:0:0:
85,181,102313,2,0,L|181:192,1,95.9999970703126,2|2,3:0|0:0,0:0:0:0:
228,199,102665,1,2,0:0:0:0:
322,214,102899,1,2,0:0:0:0:
417,226,103133,2,0,P|427:256|427:278,1,47.9999985351563,2|0,0:0|0:0,0:0:0:0:
272,306,103485,5,0,0:0:0:0:
177,291,103719,1,2,3:0:0:0:
105,226,103954,1,0,0:0:0:0:
98,130,104188,2,0,L|55:105,3,47.9999985351563,2|0|0|2,3:0|0:0|0:0|0:0,0:0:0:0:
129,103,104657,2,0,L|116:54,3,47.9999985351563,2|2|2|2,3:0|0:0|0:0|0:0,0:0:0:0:
172,102,105126,1,2,3:0:0:0:
343,67,105360,5,0,0:0:0:0:
364,160,105594,1,2,3:0:0:0:
452,121,105829,1,0,0:0:0:0:
435,215,106063,2,0,P|423:259|376:299,1,95.9999970703126,2|2,3:0|0:0,0:0:0:0:
359,298,106415,1,2,0:0:0:0:
263,296,106649,1,2,0:0:0:0:
167,295,106883,2,0,L|139:243,1,47.9999985351563,2|0,0:0|0:0,0:0:0:0:
80,109,107235,5,0,0:0:0:0:
163,62,107469,1,2,3:0:0:0:
237,123,107704,1,0,0:0:0:0:
320,75,107938,1,2,3:0:0:0:
374,153,108172,1,2,0:0:0:0:
389,178,108290,1,2,0:0:0:0:
432,263,108524,1,2,0:0:0:0:
367,334,108758,1,2,0:0:0:0:
183,273,109110,5,0,0:0:0:0:
102,221,109344,1,2,3:0:0:0:
97,124,109579,1,0,0:0:0:0:
172,64,109813,2,0,P|224:80|275:79,1,95.9999970703126,2|2,3:0|0:0,0:0:0:0:
294,79,110165,1,2,0:0:0:0:
389,87,110399,1,2,0:0:0:0:
449,161,110633,2,0,P|445:191|429:218,1,47.9999985351563,2|0,0:0|0:0,0:0:0:0:
312,323,110985,5,0,0:0:0:0:
218,302,111219,1,2,3:0:0:0:
166,220,111454,1,0,0:0:0:0:
183,125,111688,2,0,P|189:97|185:66,3,47.9999985351563,2|0|0|2,3:0|0:0|0:0|0:0,0:0:0:0:
225,47,112157,2,0,P|253:41|284:45,3,47.9999985351563,2|2|2|2,3:0|0:0|0:0|0:0,0:0:0:0:
305,76,112626,1,2,3:0:0:0:
360,242,112860,5,0,0:0:0:0:
267,217,113094,1,2,3:0:0:0:
213,296,113329,1,0,0:0:0:0:
119,316,113563,2,0,P|93:272|88:221,1,95.9999970703126,2|2,3:0|0:0,0:0:0:0:
91,199,113915,1,2,0:0:0:0:
126,109,114149,1,2,0:0:0:0:
218,83,114383,1,2,0:0:0:0:
303,235,114735,5,0,0:0:0:0:
384,284,114969,1,2,0:0:0:0:
463,229,115204,1,0,0:0:0:0:
424,141,115438,2,0,P|440:130|458:123,3,40,2|0|2|2,0:0|0:0|0:0|0:0,0:0:0:0:
328,128,116024,1,2,0:0:0:0:
256,192,116259,1,2,0:0:0:0:
256,192,116376,12,0,120126,0:0:0:0:
